  0
SECTION
  2
HEADER
  9
$ACADVER
  1
AC1018
  9
$ACADMAINTVER
 70
     0
  9
$DWGCODEPAGE
  3
ANSI_1252
  9
$INSBASE
 10
0.0
 20
0.0
 30
0.0
  9
$EXTMIN
 10
0.0
 20
0.0
 30
0.0
  9
$EXTMAX
 10
150.0
 20
95.0
 30
0.0
  9
$LIMMIN
 10
0.0
 20
0.0
  9
$LIMMAX
 10
150.0
 20
95.0
  9
$ORTHOMODE
 70
     0
  9
$REGENMODE
 70
     1
  9
$FILLMODE
 70
     1
  9
$QTEXTMODE
 70
     0
  9
$MIRRTEXT
 70
     1
  9
$LTSCALE
 40
1.0
  9
$ATTMODE
 70
     1
  9
$TEXTSIZE
 40
0.1388888889
  9
$TRACEWID
 40
0.05
  9
$TEXTSTYLE
  7
Standard
  9
$CLAYER
  8
0
  9
$CELTYPE
  6
ByLayer
  9
$CECOLOR
 62
   256
  9
$CELTSCALE
 40
1.0
  9
$DISPSILH
 70
     0
  9
$DIMSCALE
 40
1.0
  9
$DIMASZ
 40
1.0
  9
$DIMEXO
 40
0.0393700787
  9
$DIMDLI
 40
0.38
  9
$DIMRND
 40
0.0
  9
$DIMDLE
 40
0.0
  9
$DIMEXE
 40
0.0393700787
  9
$DIMTP
 40
0.0
  9
$DIMTM
 40
0.0
  9
$DIMTXT
 40
1.5
  9
$DIMCEN
 40
0.09
  9
$DIMTSZ
 40
0.0
  9
$DIMTOL
 70
     0
  9
$DIMLIM
 70
     0
  9
$DIMTIH
 70
     1
  9
$DIMTOH
 70
     1
  9
$DIMSE1
 70
     0
  9
$DIMSE2
 70
     0
  9
$DIMTAD
 70
     0
  9
$DIMZIN
 70
     0
  9
$DIMBLK
  1

  9
$DIMASO
 70
     1
  9
$DIMSHO
 70
     1
  9
$DIMPOST
  1

  9
$DIMAPOST
  1

  9
$DIMALT
 70
     0
  9
$DIMALTD
 70
     2
  9
$DIMALTF
 40
25.4
  9
$DIMLFAC
 40
1.0
  9
$DIMTOFL
 70
     0
  9
$DIMTVP
 40
0.0
  9
$DIMTIX
 70
     0
  9
$DIMSOXD
 70
     0
  9
$DIMSAH
 70
     0
  9
$DIMBLK1
  1

  9
$DIMBLK2
  1

  9
$DIMSTYLE
  2
Standard
  9
$DIMCLRD
 70
     0
  9
$DIMCLRE
 70
     0
  9
$DIMCLRT
 70
     0
  9
$DIMTFAC
 40
1.0
  9
$DIMGAP
 40
0.06
  9
$DIMJUST
 70
     0
  9
$DIMSD1
 70
     0
  9
$DIMSD2
 70
     0
  9
$DIMTOLJ
 70
     1
  9
$DIMTZIN
 70
     0
  9
$DIMALTZ
 70
     0
  9
$DIMALTTZ
 70
     0
  9
$DIMUPT
 70
     0
  9
$DIMDEC
 70
     3
  9
$DIMTDEC
 70
     2
  9
$DIMALTU
 70
     2
  9
$DIMALTTD
 70
     2
  9
$DIMTXSTY
  7
Standard
  9
$DIMAUNIT
 70
     0
  9
$DIMADEC
 70
     2
  9
$DIMALTRND
 40
0.0
  9
$DIMAZIN
 70
     0
  9
$DIMDSEP
 70
    46
  9
$DIMATFIT
 70
     3
  9
$DIMFRAC
 70
     0
  9
$DIMLDRBLK
  1

  9
$DIMLUNIT
 70
     2
  9
$DIMLWD
 70
    -2
  9
$DIMLWE
 70
    -2
  9
$DIMTMOVE
 70
     0
  9
$LUNITS
 70
     2
  9
$LUPREC
 70
     3
  9
$SKETCHINC
 40
0.1
  9
$FILLETRAD
 40
0.5
  9
$AUNITS
 70
     0
  9
$AUPREC
 70
     2
  9
$MENU
  1
.
  9
$ELEVATION
 40
0.0
  9
$PELEVATION
 40
0.0
  9
$THICKNESS
 40
0.0
  9
$LIMCHECK
 70
     0
  9
$CHAMFERA
 40
0.5
  9
$CHAMFERB
 40
0.5
  9
$CHAMFERC
 40
1.0
  9
$CHAMFERD
 40
0.0
  9
$SKPOLY
 70
     0
  9
$TDCREATE
 40
2456589.552880695
  9
$TDUCREATE
 40
2456589.761214028
  9
$TDUPDATE
 40
2456589.552882315
  9
$TDUUPDATE
 40
2456589.761215648
  9
$TDINDWG
 40
0.0000000116
  9
$TDUSRTIMER
 40
0.0000000116
  9
$USRTIMER
 70
     1
  9
$ANGBASE
 50
0.0
  9
$ANGDIR
 70
     0
  9
$PDMODE
 70
     0
  9
$PDSIZE
 40
-1.0
  9
$PLINEWID
 40
0.0
  9
$SPLFRAME
 70
     0
  9
$SPLINETYPE
 70
     6
  9
$SPLINESEGS
 70
     8
  9
$HANDSEED
  5
582
  9
$SURFTAB1
 70
     6
  9
$SURFTAB2
 70
     6
  9
$SURFTYPE
 70
     6
  9
$SURFU
 70
     6
  9
$SURFV
 70
     6
  9
$UCSBASE
  2

  9
$UCSNAME
  2

  9
$UCSORG
 10
0.0
 20
0.0
 30
0.0
  9
$UCSXDIR
 10
1.0
 20
0.0
 30
0.0
  9
$UCSYDIR
 10
0.0
 20
1.0
 30
0.0
  9
$UCSORTHOREF
  2

  9
$UCSORTHOVIEW
 70
     0
  9
$UCSORGTOP
 10
0.0
 20
0.0
 30
0.0
  9
$UCSORGBOTTOM
 10
0.0
 20
0.0
 30
0.0
  9
$UCSORGLEFT
 10
0.0
 20
0.0
 30
0.0
  9
$UCSORGRIGHT
 10
0.0
 20
0.0
 30
0.0
  9
$UCSORGFRONT
 10
0.0
 20
0.0
 30
0.0
  9
$UCSORGBACK
 10
0.0
 20
0.0
 30
0.0
  9
$PUCSBASE
  2

  9
$PUCSNAME
  2

  9
$PUCSORG
 10
0.0
 20
0.0
 30
0.0
  9
$PUCSXDIR
 10
1.0
 20
0.0
 30
0.0
  9
$PUCSYDIR
 10
0.0
 20
1.0
 30
0.0
  9
$PUCSORTHOREF
  2

  9
$PUCSORTHOVIEW
 70
     0
  9
$PUCSORGTOP
 10
0.0
 20
0.0
 30
0.0
  9
$PUCSORGBOTTOM
 10
0.0
 20
0.0
 30
0.0
  9
$PUCSORGLEFT
 10
0.0
 20
0.0
 30
0.0
  9
$PUCSORGRIGHT
 10
0.0
 20
0.0
 30
0.0
  9
$PUCSORGFRONT
 10
0.0
 20
0.0
 30
0.0
  9
$PUCSORGBACK
 10
0.0
 20
0.0
 30
0.0
  9
$USERI1
 70
     0
  9
$USERI2
 70
     0
  9
$USERI3
 70
     0
  9
$USERI4
 70
     0
  9
$USERI5
 70
     0
  9
$USERR1
 40
0.0
  9
$USERR2
 40
0.0
  9
$USERR3
 40
0.0
  9
$USERR4
 40
0.0
  9
$USERR5
 40
0.0
  9
$WORLDVIEW
 70
     1
  9
$SHADEDGE
 70
     3
  9
$SHADEDIF
 70
    70
  9
$TILEMODE
 70
     1
  9
$MAXACTVP
 70
    64
  9
$PINSBASE
 10
0.0
 20
0.0
 30
0.0
  9
$PLIMCHECK
 70
     0
  9
$PEXTMIN
 10
1.0000000000E+20
 20
1.0000000000E+20
 30
1.0000000000E+20
  9
$PEXTMAX
 10
-1.0000000000E+20
 20
-1.0000000000E+20
 30
-1.0000000000E+20
  9
$PLIMMIN
 10
0.0
 20
0.0
  9
$PLIMMAX
 10
12.0
 20
9.0
  9
$UNITMODE
 70
     0
  9
$VISRETAIN
 70
     1
  9
$PLINEGEN
 70
     0
  9
$PSLTSCALE
 70
     1
  9
$TREEDEPTH
 70
  3020
  9
$CMLSTYLE
  2
Standard
  9
$CMLJUST
 70
     0
  9
$CMLSCALE
 40
1.0
  9
$PROXYGRAPHICS
 70
     1
  9
$MEASUREMENT
 70
     0
  9
$CELWEIGHT
370
    -1
  9
$ENDCAPS
280
     0
  9
$JOINSTYLE
280
     0
  9
$LWDISPLAY
290
     1
  9
$INSUNITS
 70
     1
  9
$HYPERLINKBASE
  1

  9
$STYLESHEET
  1

  9
$XEDIT
290
     1
  9
$CEPSNTYPE
380
     0
  9
$PSTYLEMODE
290
     1
  9
$FINGERPRINTGUID
  2
{A93C50DD-E654-41AF-898B-C5AF2F1E17C9}
  9
$VERSIONGUID
  2
{FAEB1C32-E019-11D5-929B-00C0DF256EC4}
  9
$EXTNAMES
290
     1
  9
$PSVPSCALE
 40
0.0
  9
$OLESTARTUP
290
     0
  9
$SORTENTS
280
   127
  9
$INDEXCTL
280
     0
  9
$HIDETEXT
280
     1
  9
$XCLIPFRAME
290
     0
  9
$HALOGAP
280
     0
  9
$OBSCOLOR
 70
   257
  9
$OBSLTYPE
280
     0
  9
$INTERSECTIONDISPLAY
280
     0
  9
$INTERSECTIONCOLOR
 70
   257
  9
$DIMASSOC
280
     2
  9
$PROJECTNAME
  1

  0
ENDSEC
  0
SECTION
  2
CLASSES
  0
CLASS
  1
ACDBDICTIONARYWDFLT
  2
AcDbDictionaryWithDefault
  3
ObjectDBX Classes
 90
        0
 91
        4
280
     0
281
     0
  0
CLASS
  1
VISUALSTYLE
  2
AcDbVisualStyle
  3
ObjectDBX Classes
 90
     4095
 91
        4
280
     0
281
     0
  0
CLASS
  1
MATERIAL
  2
AcDbMaterial
  3
ObjectDBX Classes
 90
     1153
 91
        4
280
     0
281
     0
  0
ENDSEC
  0
SECTION
  2
TABLES
  0
TABLE
  2
VPORT
  5
8
330
0
100
AcDbSymbolTable
 70
     1
  0
VPORT
  5
29
330
8
100
AcDbSymbolTableRecord
100
AcDbViewportTableRecord
  2
*Active
 70
     0
 10
0.0
 20
0.0
 11
1.0
 21
1.0
 12
75.0
 22
47.5
 13
0.0
 23
0.0
 14
0.5
 24
0.5
 15
0.5
 25
0.5
 16
0.0
 26
0.0
 36
1.0
 17
0.0
 27
0.0
 37
0.0
 40
95.0
 41
1.5789473684
 42
50.0
 43
0.0
 44
0.0
 50
0.0
 51
0.0
 71
     0
 72
  2000
 73
     1
 74
     3
 75
     0
 76
     0
 77
     0
 78
     0
281
     0
 65
     1
110
0.0
120
0.0
130
0.0
111
1.0
121
0.0
131
0.0
112
0.0
122
1.0
132
0.0
 79
     0
146
0.0
  0
ENDTAB
  0
TABLE
  2
LTYPE
  5
5
330
0
100
AcDbSymbolTable
 70
     6
  0
LTYPE
  5
14
330
5
100
AcDbSymbolTableRecord
100
AcDbLinetypeTableRecord
  2
ByBlock
 70
     0
  3

 72
    65
 73
     0
 40
0.0
  0
LTYPE
  5
15
330
5
100
AcDbSymbolTableRecord
100
AcDbLinetypeTableRecord
  2
ByLayer
 70
     0
  3

 72
    65
 73
     0
 40
0.0
  0
LTYPE
  5
16
330
5
100
AcDbSymbolTableRecord
100
AcDbLinetypeTableRecord
  2
Continuous
 70
     0
  3
Solid line
 72
    65
 73
     0
 40
0.0
  0
LTYPE
  5
3F
330
5
100
AcDbSymbolTableRecord
100
AcDbLinetypeTableRecord
  2
HIDDEN
 70
     0
  3
Hidden __ __ __ __ __ __ __ __ __ __ __ __ __ __
 72
    65
 73
     2
 40
0.075
 49
0.05
 74
     0
 49
-0.025
 74
     0
  0
LTYPE
  5
40
330
5
100
AcDbSymbolTableRecord
100
AcDbLinetypeTableRecord
  2
PHANTOM
 70
     0
  3
Phantom ______  __  __  ______  __  __  ______
 72
    65
 73
     6
 40
0.5
 49
0.25
 74
     0
 49
-0.05
 74
     0
 49
0.05
 74
     0
 49
-0.05
 74
     0
 49
0.05
 74
     0
 49
-0.05
 74
     0
  0
LTYPE
  5
41
330
5
100
AcDbSymbolTableRecord
100
AcDbLinetypeTableRecord
  2
CENTER
 70
     0
  3
Center ____ _ ____ _ ____ _ ____ _ ____ _ ____
 72
    65
 73
     4
 40
0.4
 49
0.25
 74
     0
 49
-0.05
 74
     0
 49
0.05
 74
     0
 49
-0.05
 74
     0
  0
LTYPE
  5
42
330
5
100
AcDbSymbolTableRecord
100
AcDbLinetypeTableRecord
  2
CENTERX2
 70
     0
  3
Center (2x) ________  __  ________  __  _____
 72
    65
 73
     4
 40
0.8
 49
0.5
 74
     0
 49
-0.1
 74
     0
 49
0.1
 74
     0
 49
-0.1
 74
     0
  0
LTYPE
  5
43
330
5
100
AcDbSymbolTableRecord
100
AcDbLinetypeTableRecord
  2
DOT2
 70
     0
  3
Dot (.5x) ........................................
 72
    65
 73
     2
 40
0.025
 49
0.0
 74
     0
 49
-0.025
 74
     0
  0
ENDTAB
  0
TABLE
  2
LAYER
  5
2
330
0
100
AcDbSymbolTable
 70
     4
  0
LAYER
  5
10
330
2
100
AcDbSymbolTableRecord
100
AcDbLayerTableRecord
  2
0
 70
     0
 62
     7
  6
Continuous
370
    -3
390
F
  0
LAYER
  5
44
330
2
100
AcDbSymbolTableRecord
100
AcDbLayerTableRecord
  2
SLD-0
 70
     0
 62
     7
  6
Continuous
370
    -3
390
F
  0
LAYER
  5
45
330
2
100
AcDbSymbolTableRecord
100
AcDbLayerTableRecord
  2
NOTES
 70
     0
 62
     1
  6
Continuous
370
    -3
390
F
  0
LAYER
  5
46
330
2
100
AcDbSymbolTableRecord
100
AcDbLayerTableRecord
  2
DIM
 70
     0
 62
   100
  6
Continuous
370
    -3
390
F
  0
ENDTAB
  0
TABLE
  2
STYLE
  5
3
330
0
100
AcDbSymbolTable
 70
     2
  0
STYLE
  5
11
330
3
100
AcDbSymbolTableRecord
100
AcDbTextStyleTableRecord
  2
Standard
 70
     0
 40
0.0
 41
1.0
 50
0.0
 71
     0
 42
0.1388888889
  3
txt
  4

  0
STYLE
  5
4A
330
3
100
AcDbSymbolTableRecord
100
AcDbTextStyleTableRecord
  2
SLDTEXTSTYLE0
 70
     0
 40
0.0
 41
0.75
 50
0.0
 71
     0
 42
0.2
  3
TXT
  4

  0
ENDTAB
  0
TABLE
  2
VIEW
  5
6
330
0
100
AcDbSymbolTable
 70
     0
  0
ENDTAB
  0
TABLE
  2
UCS
  5
7
330
0
100
AcDbSymbolTable
 70
     0
  0
ENDTAB
  0
TABLE
  2
APPID
  5
9
330
0
100
AcDbSymbolTable
 70
     1
  0
APPID
  5
12
330
9
100
AcDbSymbolTableRecord
100
AcDbRegAppTableRecord
  2
ACAD
 70
     0
  0
ENDTAB
  0
TABLE
  2
DIMSTYLE
  5
A
330
0
100
AcDbSymbolTable
 70
     3
100
AcDbDimStyleTable
  0
DIMSTYLE
105
27
330
A
100
AcDbSymbolTableRecord
100
AcDbDimStyleTableRecord
  2
Standard
 70
     0
178
     0
340
11
  0
DIMSTYLE
105
144
102
{ACAD_REACTORS
330
143
330
151
330
160
330
16F
330
17E
330
18D
330
2A3
330
2C1
330
2E0
102
}
330
A
100
AcDbSymbolTableRecord
100
AcDbDimStyleTableRecord
  2
SLDDIMSTYLE0
 70
     0
 41
1.0
 44
0.0
 45
0.000000001
 78
    12
 79
     3
140
1.5
147
0.375
173
     1
178
     0
271
     3
272
     2
276
     2
277
     5
284
    12
340
4A
  0
DIMSTYLE
105
2B3
102
{ACAD_REACTORS
330
2B2
330
2D0
330
422
330
431
330
441
102
}
330
A
100
AcDbSymbolTableRecord
100
AcDbDimStyleTableRecord
  2
SLDDIMSTYLE1
 70
     0
 41
1.0
 44
0.0
 45
0.000000001
 78
    12
 79
     3
140
1.5
147
0.375
172
     1
173
     1
178
     0
271
     3
272
     2
276
     2
277
     5
284
    12
289
     0
340
4A
  0
ENDTAB
  0
TABLE
  2
BLOCK_RECORD
  5
1
330
0
100
AcDbSymbolTable
 70
    16
  0
BLOCK_RECORD
  5
1F
330
1
100
AcDbSymbolTableRecord
100
AcDbBlockTableRecord
  2
*Model_Space
340
22
  0
BLOCK_RECORD
  5
1B
330
1
100
AcDbSymbolTableRecord
100
AcDbBlockTableRecord
  2
*Paper_Space
340
1E
  0
BLOCK_RECORD
  5
23
330
1
100
AcDbSymbolTableRecord
100
AcDbBlockTableRecord
  2
*Paper_Space0
340
26
  0
BLOCK_RECORD
  5
47
330
1
100
AcDbSymbolTableRecord
100
AcDbBlockTableRecord
  2
SW_NOTE_0
340
0
102
{BLKREFS
331
4D
102
}
  0
BLOCK_RECORD
  5
145
330
1
100
AcDbSymbolTableRecord
100
AcDbBlockTableRecord
  2
_D
340
0
  0
BLOCK_RECORD
  5
152
330
1
100
AcDbSymbolTableRecord
100
AcDbBlockTableRecord
  2
_D_1
340
0
  0
BLOCK_RECORD
  5
161
330
1
100
AcDbSymbolTableRecord
100
AcDbBlockTableRecord
  2
_D_2
340
0
  0
BLOCK_RECORD
  5
170
330
1
100
AcDbSymbolTableRecord
100
AcDbBlockTableRecord
  2
_D_3
340
0
  0
BLOCK_RECORD
  5
17F
330
1
100
AcDbSymbolTableRecord
100
AcDbBlockTableRecord
  2
_D_4
340
0
  0
BLOCK_RECORD
  5
18E
330
1
100
AcDbSymbolTableRecord
100
AcDbBlockTableRecord
  2
_D_5
340
0
  0
BLOCK_RECORD
  5
2A4
330
1
100
AcDbSymbolTableRecord
100
AcDbBlockTableRecord
  2
_D_6
340
0
  0
BLOCK_RECORD
  5
2B4
330
1
100
AcDbSymbolTableRecord
100
AcDbBlockTableRecord
  2
_D_7
340
0
  0
BLOCK_RECORD
  5
2C2
330
1
100
AcDbSymbolTableRecord
100
AcDbBlockTableRecord
  2
_D_8
340
0
  0
BLOCK_RECORD
  5
2D1
330
1
100
AcDbSymbolTableRecord
100
AcDbBlockTableRecord
  2
_D_9
340
0
  0
BLOCK_RECORD
  5
2E1
330
1
100
AcDbSymbolTableRecord
100
AcDbBlockTableRecord
  2
_D_10
340
0
  0
BLOCK_RECORD
  5
423
330
1
100
AcDbSymbolTableRecord
100
AcDbBlockTableRecord
  2
_D_11
340
0
  0
BLOCK_RECORD
  5
432
330
1
100
AcDbSymbolTableRecord
100
AcDbBlockTableRecord
  2
_D_12
340
0
  0
BLOCK_RECORD
  5
442
330
1
100
AcDbSymbolTableRecord
100
AcDbBlockTableRecord
  2
_D_13
340
0
  0
ENDTAB
  0
ENDSEC
  0
SECTION
  2
BLOCKS
  0
BLOCK
  5
20
330
1F
100
AcDbEntity
  8
0
100
AcDbBlockBegin
  2
*Model_Space
 70
     0
 10
0.0
 20
0.0
 30
0.0
  3
*Model_Space
  1

  0
ENDBLK
  5
21
330
1F
100
AcDbEntity
  8
0
100
AcDbBlockEnd
  0
BLOCK
  5
1C
330
1B
100
AcDbEntity
 67
     1
  8
0
100
AcDbBlockBegin
  2
*Paper_Space
 70
     0
 10
0.0
 20
0.0
 30
0.0
  3
*Paper_Space
  1

  0
ENDBLK
  5
1D
330
1B
100
AcDbEntity
 67
     1
  8
0
100
AcDbBlockEnd
  0
BLOCK
  5
24
330
23
100
AcDbEntity
  8
0
100
AcDbBlockBegin
  2
*Paper_Space0
 70
     0
 10
0.0
 20
0.0
 30
0.0
  3
*Paper_Space0
  1

  0
ENDBLK
  5
25
330
23
100
AcDbEntity
  8
0
100
AcDbBlockEnd
  0
BLOCK
  5
48
330
47
100
AcDbEntity
  8
0
100
AcDbBlockBegin
  2
SW_NOTE_0
 70
     0
 10
0.0
 20
0.0
 30
0.0
  3
SW_NOTE_0
  1

  0
MTEXT
  5
4B
330
47
100
AcDbEntity
  8
NOTES
 62
     0
100
AcDbMText
 10
0.0
 20
2.5781354795
 30
0.0
 40
2.0
 41
0.0
 71
     1
 72
     1
  1
OLP42FP72SN-2
  7
SLDTEXTSTYLE0
 73
     1
 44
1.0
  0
MTEXT
  5
4C
330
47
100
AcDbEntity
  8
NOTES
 62
     0
100
AcDbMText
 10
0.0
 20
-0.0079757121
 30
0.0
 40
2.0
 41
0.0
 71
     1
 72
     1
  1
OLP42FP72SP-2
  7
SLDTEXTSTYLE0
 73
     1
 44
1.0
  0
ENDBLK
  5
49
330
47
100
AcDbEntity
  8
0
100
AcDbBlockEnd
  0
BLOCK
  5
146
330
145
100
AcDbEntity
  8
0
100
AcDbBlockBegin
  2
_D
 70
     0
 10
0.0
 20
0.0
 30
0.0
  3
_D
  1

  0
SOLID
  5
148
330
145
100
AcDbEntity
  8
DIM
100
AcDbTrace
 10
54.9859906724
 20
29.4344411246
 30
0.0
 11
55.9859906724
 21
29.1844411246
 31
0.0
 12
55.9859906724
 22
29.6844411246
 32
0.0
 13
55.9859906724
 23
29.6844411246
 33
0.0
  0
SOLID
  5
149
330
145
100
AcDbEntity
  8
DIM
100
AcDbTrace
 10
95.0195906724
 20
29.4344411246
 30
0.0
 11
94.0195906724
 21
29.6844411246
 31
0.0
 12
94.0195906724
 22
29.1844411246
 32
0.0
 13
94.0195906724
 23
29.1844411246
 33
0.0
  0
LINE
  5
14A
330
145
100
AcDbEntity
  8
DIM
100
AcDbLine
 10
75.5382071552
 20
30.9344411432
 30
0.0
 11
73.738207133
 21
27.9344411061
 31
0.0
  0
LINE
  5
14B
330
145
100
AcDbEntity
  8
DIM
100
AcDbLine
 10
54.9859906724
 20
29.4344411246
 30
0.0
 11
71.3132071348
 21
29.4344411246
 31
0.0
  0
LINE
  5
14C
330
145
100
AcDbEntity
  8
DIM
100
AcDbLine
 10
95.0195906724
 20
29.4344411246
 30
0.0
 11
78.69237421
 21
29.4344411246
 31
0.0
  0
MTEXT
  5
14D
330
145
100
AcDbEntity
  8
DIM
100
AcDbMText
 10
71.3132071348
 20
30.2940845141
 30
-10.575155905
 40
1.5
 41
0.0
 71
     1
 72
     1
  1
40
  7
SLDTEXTSTYLE0
 73
     1
 44
1.0
  0
MTEXT
  5
14E
330
145
100
AcDbEntity
  8
DIM
100
AcDbMText
 10
73.5298738077
 20
31.368042771
 30
-10.575155905
 40
1.5
 41
0.0
 71
     1
 72
     1
  1
1
  7
SLDTEXTSTYLE0
 73
     1
 44
1.0
  0
MTEXT
  5
14F
330
145
100
AcDbEntity
  8
DIM
100
AcDbMText
 10
74.6382071441
 20
29.4284593772
 30
-10.575155905
 40
1.5
 41
0.0
 71
     1
 72
     1
  1
16
  7
SLDTEXTSTYLE0
 73
     1
 44
1.0
  0
MTEXT
  5
150
330
145
100
AcDbEntity
  8
DIM
100
AcDbMText
 10
76.8548738903
 20
30.2940845141
 30
-10.575155905
 40
1.5
 41
0.0
 71
     1
 72
     1
  1
"
  7
SLDTEXTSTYLE0
 73
     1
 44
1.0
  0
ENDBLK
  5
147
330
145
100
AcDbEntity
  8
0
100
AcDbBlockEnd
  0
BLOCK
  5
153
330
152
100
AcDbEntity
  8
0
100
AcDbBlockBegin
  2
_D_1
 70
     0
 10
0.0
 20
0.0
 30
0.0
  3
_D_1
  1

  0
SOLID
  5
155
330
152
100
AcDbEntity
  8
DIM
100
AcDbTrace
 10
48.4836473424
 20
47.3374411246
 30
0.0
 11
48.2336473424
 21
46.3374411246
 31
0.0
 12
48.7336473424
 22
46.3374411246
 32
0.0
 13
48.7336473424
 23
46.3374411246
 33
0.0
  0
SOLID
  5
156
330
152
100
AcDbEntity
  8
DIM
100
AcDbTrace
 10
48.4836473424
 20
11.5314411246
 30
0.0
 11
48.7336473424
 21
12.5314411246
 31
0.0
 12
48.2336473424
 22
12.5314411246
 32
0.0
 13
48.2336473424
 23
12.5314411246
 33
0.0
  0
LINE
  5
157
330
152
100
AcDbEntity
  8
DIM
100
AcDbLine
 10
49.5732306034
 20
30.9344411432
 30
0.0
 11
47.7732305812
 21
27.9344411061
 31
0.0
  0
LINE
  5
158
330
152
100
AcDbEntity
  8
DIM
100
AcDbLine
 10
53.433833292
 20
47.3374411246
 30
0.0
 11
48.4442772637
 21
47.3374411246
 31
0.0
  0
LINE
  5
159
330
152
100
AcDbEntity
  8
DIM
100
AcDbLine
 10
53.4466205937
 20
11.5314411246
 30
0.0
 11
48.4442772637
 21
11.5314411246
 31
0.0
  0
LINE
  5
15A
330
152
100
AcDbEntity
  8
DIM
100
AcDbLine
 10
48.4836473424
 20
47.3374411246
 30
0.0
 11
48.4836473424
 21
31.3740245184
 31
0.0
  0
LINE
  5
15B
330
152
100
AcDbEntity
  8
DIM
100
AcDbLine
 10
48.4836473424
 20
11.5314411246
 30
0.0
 11
48.4836473424
 21
27.4948577309
 31
0.0
  0
MTEXT
  5
15C
330
152
100
AcDbEntity
  8
DIM
100
AcDbMText
 10
44.2398972466
 20
30.2940845141
 30
-10.575155905
 40
1.5
 41
0.0
 71
     1
 72
     1
  1
35
  7
SLDTEXTSTYLE0
 73
     1
 44
1.0
  0
MTEXT
  5
15D
330
152
100
AcDbEntity
  8
DIM
100
AcDbMText
 10
46.4565639194
 20
31.368042771
 30
-10.575155905
 40
1.5
 41
0.0
 71
     1
 72
     1
  1
13
  7
SLDTEXTSTYLE0
 73
     1
 44
1.0
  0
MTEXT
  5
15E
330
152
100
AcDbEntity
  8
DIM
100
AcDbMText
 10
48.6732305923
 20
29.4284593772
 30
-10.575155905
 40
1.5
 41
0.0
 71
     1
 72
     1
  1
16
  7
SLDTEXTSTYLE0
 73
     1
 44
1.0
  0
MTEXT
  5
15F
330
152
100
AcDbEntity
  8
DIM
100
AcDbMText
 10
50.8898971185
 20
30.2940845141
 30
-10.575155905
 40
1.5
 41
0.0
 71
     1
 72
     1
  1
"
  7
SLDTEXTSTYLE0
 73
     1
 44
1.0
  0
ENDBLK
  5
154
330
152
100
AcDbEntity
  8
0
100
AcDbBlockEnd
  0
BLOCK
  5
162
330
161
100
AcDbEntity
  8
0
100
AcDbBlockBegin
  2
_D_2
 70
     0
 10
0.0
 20
0.0
 30
0.0
  3
_D_2
  1

  0
SOLID
  5
164
330
161
100
AcDbEntity
  8
DIM
100
AcDbTrace
 10
53.4189906724
 20
7.5313417152
 30
0.0
 11
54.4189906724
 21
7.2813417152
 31
0.0
 12
54.4189906724
 22
7.7813417152
 32
0.0
 13
54.4189906724
 23
7.7813417152
 33
0.0
  0
SOLID
  5
165
330
161
100
AcDbEntity
  8
DIM
100
AcDbTrace
 10
96.5529906724
 20
7.5313417152
 30
0.0
 11
95.5529906724
 21
7.7813417152
 31
0.0
 12
95.5529906724
 22
7.2813417152
 32
0.0
 13
95.5529906724
 23
7.2813417152
 33
0.0
  0
LINE
  5
166
330
161
100
AcDbEntity
  8
DIM
100
AcDbLine
 10
76.0755740068
 20
9.0313417337
 30
0.0
 11
74.2755739845
 21
6.0313416967
 31
0.0
  0
LINE
  5
167
330
161
100
AcDbEntity
  8
DIM
100
AcDbLine
 10
53.4189906724
 20
11.5590710459
 30
0.0
 11
53.4189906724
 21
7.4919716365
 31
0.0
  0
LINE
  5
168
330
161
100
AcDbEntity
  8
DIM
100
AcDbLine
 10
96.5529906724
 20
11.5590710459
 30
0.0
 11
96.5529906724
 21
7.4919716365
 31
0.0
  0
LINE
  5
169
330
161
100
AcDbEntity
  8
DIM
100
AcDbLine
 10
53.4189906724
 20
7.5313417152
 30
0.0
 11
71.8505739863
 21
7.5313417152
 31
0.0
  0
LINE
  5
16A
330
161
100
AcDbEntity
  8
DIM
100
AcDbLine
 10
96.5529906724
 20
7.5313417152
 30
0.0
 11
78.1214073585
 21
7.5313417152
 31
0.0
  0
MTEXT
  5
16B
330
161
100
AcDbEntity
  8
DIM
100
AcDbMText
 10
71.8505739863
 20
8.3909851046
 30
-10.575155905
 40
1.5
 41
0.0
 71
     1
 72
     1
  1
43
  7
SLDTEXTSTYLE0
 73
     1
 44
1.0
  0
MTEXT
  5
16C
330
161
100
AcDbEntity
  8
DIM
100
AcDbMText
 10
74.0672406592
 20
9.4649433615
 30
-10.575155905
 40
1.5
 41
0.0
 71
     1
 72
     1
  1
1
  7
SLDTEXTSTYLE0
 73
     1
 44
1.0
  0
MTEXT
  5
16D
330
161
100
AcDbEntity
  8
DIM
100
AcDbMText
 10
75.1755739957
 20
7.5253599678
 30
-10.575155905
 40
1.5
 41
0.0
 71
     1
 72
     1
  1
8
  7
SLDTEXTSTYLE0
 73
     1
 44
1.0
  0
MTEXT
  5
16E
330
161
100
AcDbEntity
  8
DIM
100
AcDbMText
 10
76.2839073321
 20
8.3909851046
 30
-10.575155905
 40
1.5
 41
0.0
 71
     1
 72
     1
  1
"
  7
SLDTEXTSTYLE0
 73
     1
 44
1.0
  0
ENDBLK
  5
163
330
161
100
AcDbEntity
  8
0
100
AcDbBlockEnd
  0
BLOCK
  5
171
330
170
100
AcDbEntity
  8
0
100
AcDbBlockBegin
  2
_D_3
 70
     0
 10
0.0
 20
0.0
 30
0.0
  3
_D_3
  1

  0
SOLID
  5
173
330
170
100
AcDbEntity
  8
DIM
100
AcDbTrace
 10
101.4883340024
 20
40.7547657639
 30
0.0
 11
101.2383340024
 21
39.7547657639
 31
0.0
 12
101.7383340024
 22
39.7547657639
 32
0.0
 13
101.7383340024
 23
39.7547657639
 33
0.0
  0
SOLID
  5
174
330
170
100
AcDbEntity
  8
DIM
100
AcDbTrace
 10
101.4883340024
 20
18.6930411246
 30
0.0
 11
101.7383340024
 21
19.6930411246
 31
0.0
 12
101.2383340024
 22
19.6930411246
 32
0.0
 13
101.2383340024
 23
19.6930411246
 33
0.0
  0
LINE
  5
175
330
170
100
AcDbEntity
  8
DIM
100
AcDbLine
 10
102.0237504852
 20
31.2239034628
 30
0.0
 11
100.223750463
 21
28.2239034258
 31
0.0
  0
LINE
  5
176
330
170
100
AcDbEntity
  8
DIM
100
AcDbLine
 10
94.8904974654
 20
40.7547657639
 30
0.0
 11
101.5277040811
 21
40.7547657639
 31
0.0
  0
LINE
  5
177
330
170
100
AcDbEntity
  8
DIM
100
AcDbLine
 10
94.0894607511
 20
18.6930411246
 30
0.0
 11
101.5277040811
 21
18.6930411246
 31
0.0
  0
LINE
  5
178
330
170
100
AcDbEntity
  8
DIM
100
AcDbLine
 10
101.4883340024
 20
40.7547657639
 30
0.0
 11
101.4883340024
 21
31.6634868381
 31
0.0
  0
LINE
  5
179
330
170
100
AcDbEntity
  8
DIM
100
AcDbLine
 10
101.4883340024
 20
18.6930411246
 30
0.0
 11
101.4883340024
 21
27.7843200505
 31
0.0
  0
MTEXT
  5
17A
330
170
100
AcDbEntity
  8
DIM
100
AcDbMText
 10
97.7987504648
 20
30.5835468337
 30
-10.575155905
 40
1.5
 41
0.0
 71
     1
 72
     1
  1
22
  7
SLDTEXTSTYLE0
 73
     1
 44
1.0
  0
MTEXT
  5
17B
330
170
100
AcDbEntity
  8
DIM
100
AcDbMText
 10
100.0154171377
 20
31.6575050906
 30
-10.575155905
 40
1.5
 41
0.0
 71
     1
 72
     1
  1
1
  7
SLDTEXTSTYLE0
 73
     1
 44
1.0
  0
MTEXT
  5
17C
330
170
100
AcDbEntity
  8
DIM
100
AcDbMText
 10
101.1237504741
 20
29.7179216969
 30
-10.575155905
 40
1.5
 41
0.0
 71
     1
 72
     1
  1
16
  7
SLDTEXTSTYLE0
 73
     1
 44
1.0
  0
MTEXT
  5
17D
330
170
100
AcDbEntity
  8
DIM
100
AcDbMText
 10
103.3404172203
 20
30.5835468337
 30
-10.575155905
 40
1.5
 41
0.0
 71
     1
 72
     1
  1
"
  7
SLDTEXTSTYLE0
 73
     1
 44
1.0
  0
ENDBLK
  5
172
330
170
100
AcDbEntity
  8
0
100
AcDbBlockEnd
  0
BLOCK
  5
180
330
17F
100
AcDbEntity
  8
0
100
AcDbBlockBegin
  2
_D_4
 70
     0
 10
0.0
 20
0.0
 30
0.0
  3
_D_4
  1

  0
SOLID
  5
182
330
17F
100
AcDbEntity
  8
DIM
100
AcDbTrace
 10
105.9883340024
 20
43.0068411246
 30
0.0
 11
105.7383340024
 21
42.0068411246
 31
0.0
 12
106.2383340024
 22
42.0068411246
 32
0.0
 13
106.2383340024
 23
42.0068411246
 33
0.0
  0
SOLID
  5
183
330
17F
100
AcDbEntity
  8
DIM
100
AcDbTrace
 10
105.9883340024
 20
11.5314411246
 30
0.0
 11
106.2383340024
 21
12.5314411246
 31
0.0
 12
105.7383340024
 22
12.5314411246
 32
0.0
 13
105.7383340024
 23
12.5314411246
 33
0.0
  0
LINE
  5
184
330
17F
100
AcDbEntity
  8
DIM
100
AcDbLine
 10
107.0779173368
 20
25.2992079577
 30
0.0
 11
105.2779173145
 21
22.2992079206
 31
0.0
  0
LINE
  5
185
330
17F
100
AcDbEntity
  8
DIM
100
AcDbLine
 10
95.0899607511
 20
43.0068411246
 30
0.0
 11
106.0277040811
 21
43.0068411246
 31
0.0
  0
LINE
  5
186
330
17F
100
AcDbEntity
  8
DIM
100
AcDbLine
 10
96.5253607511
 20
11.5314411246
 30
0.0
 11
106.0277040811
 21
11.5314411246
 31
0.0
  0
LINE
  5
187
330
17F
100
AcDbEntity
  8
DIM
100
AcDbLine
 10
105.9883340024
 20
43.0068411246
 30
0.0
 11
105.9883340024
 21
25.7387913329
 31
0.0
  0
LINE
  5
188
330
17F
100
AcDbEntity
  8
DIM
100
AcDbLine
 10
105.9883340024
 20
11.5314411246
 30
0.0
 11
105.9883340024
 21
21.8596245454
 31
0.0
  0
MTEXT
  5
189
330
17F
100
AcDbEntity
  8
DIM
100
AcDbMText
 10
102.8529173163
 20
24.6588513286
 30
-10.575155905
 40
1.5
 41
0.0
 71
     1
 72
     1
  1
31
  7
SLDTEXTSTYLE0
 73
     1
 44
1.0
  0
MTEXT
  5
18A
330
17F
100
AcDbEntity
  8
DIM
100
AcDbMText
 10
105.0695839892
 20
25.7328095855
 30
-10.575155905
 40
1.5
 41
0.0
 71
     1
 72
     1
  1
1
  7
SLDTEXTSTYLE0
 73
     1
 44
1.0
  0
MTEXT
  5
18B
330
17F
100
AcDbEntity
  8
DIM
100
AcDbMText
 10
106.1779173257
 20
23.7932261917
 30
-10.575155905
 40
1.5
 41
0.0
 71
     1
 72
     1
  1
2
  7
SLDTEXTSTYLE0
 73
     1
 44
1.0
  0
MTEXT
  5
18C
330
17F
100
AcDbEntity
  8
DIM
100
AcDbMText
 10
107.2862506621
 20
24.6588513286
 30
-10.575155905
 40
1.5
 41
0.0
 71
     1
 72
     1
  1
"
  7
SLDTEXTSTYLE0
 73
     1
 44
1.0
  0
ENDBLK
  5
181
330
17F
100
AcDbEntity
  8
0
100
AcDbBlockEnd
  0
BLOCK
  5
18F
330
18E
100
AcDbEntity
  8
0
100
AcDbBlockBegin
  2
_D_5
 70
     0
 10
0.0
 20
0.0
 30
0.0
  3
_D_5
  1

  0
SOLID
  5
191
330
18E
100
AcDbEntity
  8
DIM
100
AcDbTrace
 10
41.3040117609
 20
50.2596716018
 30
0.0
 11
41.0540117609
 21
49.2596716018
 31
0.0
 12
41.5540117609
 22
49.2596716018
 32
0.0
 13
41.5540117609
 23
49.2596716018
 33
0.0
  0
SOLID
  5
192
330
18E
100
AcDbEntity
  8
DIM
100
AcDbTrace
 10
41.3040117609
 20
11.5314411246
 30
0.0
 11
41.5540117609
 21
12.5314411246
 31
0.0
 12
41.0540117609
 22
12.5314411246
 32
0.0
 13
41.0540117609
 23
12.5314411246
 33
0.0
  0
LINE
  5
193
330
18E
100
AcDbEntity
  8
DIM
100
AcDbLine
 10
42.3935950953
 20
26.3392384535
 30
0.0
 11
40.593595073
 21
23.3392384164
 31
0.0
  0
LINE
  5
194
330
18E
100
AcDbEntity
  8
DIM
100
AcDbLine
 10
64.6266205937
 20
50.2596716018
 30
0.0
 11
41.2646416822
 21
50.2596716018
 31
0.0
  0
LINE
  5
195
330
18E
100
AcDbEntity
  8
DIM
100
AcDbLine
 10
53.4466205937
 20
11.5314411246
 30
0.0
 11
41.2646416822
 21
11.5314411246
 31
0.0
  0
LINE
  5
196
330
18E
100
AcDbEntity
  8
DIM
100
AcDbLine
 10
41.3040117609
 20
50.2596716018
 30
0.0
 11
41.3040117609
 21
26.7788218287
 31
0.0
  0
LINE
  5
197
330
18E
100
AcDbEntity
  8
DIM
100
AcDbLine
 10
41.3040117609
 20
11.5314411246
 30
0.0
 11
41.3040117609
 21
22.8996550412
 31
0.0
  0
MTEXT
  5
198
330
18E
100
AcDbEntity
  8
DIM
100
AcDbMText
 10
38.1685950749
 20
25.6988818244
 30
-10.575155905
 40
1.5
 41
0.0
 71
     1
 72
     1
  1
38
  7
SLDTEXTSTYLE0
 73
     1
 44
1.0
  0
MTEXT
  5
199
330
18E
100
AcDbEntity
  8
DIM
100
AcDbMText
 10
40.3852617477
 20
26.7728400813
 30
-10.575155905
 40
1.5
 41
0.0
 71
     1
 72
     1
  1
3
  7
SLDTEXTSTYLE0
 73
     1
 44
1.0
  0
MTEXT
  5
19A
330
18E
100
AcDbEntity
  8
DIM
100
AcDbMText
 10
41.4935950842
 20
24.8332566875
 30
-10.575155905
 40
1.5
 41
0.0
 71
     1
 72
     1
  1
4
  7
SLDTEXTSTYLE0
 73
     1
 44
1.0
  0
MTEXT
  5
19B
330
18E
100
AcDbEntity
  8
DIM
100
AcDbMText
 10
42.6019284206
 20
25.6988818244
 30
-10.575155905
 40
1.5
 41
0.0
 71
     1
 72
     1
  1
"
  7
SLDTEXTSTYLE0
 73
     1
 44
1.0
  0
ENDBLK
  5
190
330
18E
100
AcDbEntity
  8
0
100
AcDbBlockEnd
  0
BLOCK
  5
2A5
330
2A4
100
AcDbEntity
  8
0
100
AcDbBlockBegin
  2
_D_6
 70
     0
 10
0.0
 20
0.0
 30
0.0
  3
_D_6
  1

  0
SOLID
  5
2A7
330
2A4
100
AcDbEntity
  8
DIM
100
AcDbTrace
 10
56.9159906724
 20
89.2366228233
 30
0.0
 11
57.9159906724
 21
88.9866228233
 31
0.0
 12
57.9159906724
 22
89.4866228233
 32
0.0
 13
57.9159906724
 23
89.4866228233
 33
0.0
  0
SOLID
  5
2A8
330
2A4
100
AcDbEntity
  8
DIM
100
AcDbTrace
 10
93.0559906724
 20
89.2366228233
 30
0.0
 11
92.0559906724
 21
89.4866228233
 31
0.0
 12
92.0559906724
 22
88.9866228233
 32
0.0
 13
92.0559906724
 23
88.9866228233
 33
0.0
  0
LINE
  5
2A9
330
2A4
100
AcDbEntity
  8
DIM
100
AcDbLine
 10
76.0755740068
 20
90.7366228418
 30
0.0
 11
74.2755739845
 21
87.7366228048
 31
0.0
  0
LINE
  5
2AA
330
2A4
100
AcDbEntity
  8
DIM
100
AcDbLine
 10
56.9159906724
 20
84.7007497434
 30
0.0
 11
56.9159906724
 21
89.275992902
 31
0.0
  0
LINE
  5
2AB
330
2A4
100
AcDbEntity
  8
DIM
100
AcDbLine
 10
93.0559906724
 20
84.7007497434
 30
0.0
 11
93.0559906724
 21
89.275992902
 31
0.0
  0
LINE
  5
2AC
330
2A4
100
AcDbEntity
  8
DIM
100
AcDbLine
 10
56.9159906724
 20
89.2366228233
 30
0.0
 11
71.8505739863
 21
89.2366228233
 31
0.0
  0
LINE
  5
2AD
330
2A4
100
AcDbEntity
  8
DIM
100
AcDbLine
 10
93.0559906724
 20
89.2366228233
 30
0.0
 11
78.1214073585
 21
89.2366228233
 31
0.0
  0
MTEXT
  5
2AE
330
2A4
100
AcDbEntity
  8
DIM
100
AcDbMText
 10
71.8505739863
 20
90.0962662128
 30
-18.268828526
 40
1.5
 41
0.0
 71
     1
 72
     1
  1
36
  7
SLDTEXTSTYLE0
 73
     1
 44
1.0
  0
MTEXT
  5
2AF
330
2A4
100
AcDbEntity
  8
DIM
100
AcDbMText
 10
74.0672406592
 20
91.1702244696
 30
-18.268828526
 40
1.5
 41
0.0
 71
     1
 72
     1
  1
1
  7
SLDTEXTSTYLE0
 73
     1
 44
1.0
  0
MTEXT
  5
2B0
330
2A4
100
AcDbEntity
  8
DIM
100
AcDbMText
 10
75.1755739957
 20
89.2306410759
 30
-18.268828526
 40
1.5
 41
0.0
 71
     1
 72
     1
  1
8
  7
SLDTEXTSTYLE0
 73
     1
 44
1.0
  0
MTEXT
  5
2B1
330
2A4
100
AcDbEntity
  8
DIM
100
AcDbMText
 10
76.2839073321
 20
90.0962662128
 30
-18.268828526
 40
1.5
 41
0.0
 71
     1
 72
     1
  1
"
  7
SLDTEXTSTYLE0
 73
     1
 44
1.0
  0
ENDBLK
  5
2A6
330
2A4
100
AcDbEntity
  8
0
100
AcDbBlockEnd
  0
BLOCK
  5
2B5
330
2B4
100
AcDbEntity
  8
0
100
AcDbBlockBegin
  2
_D_7
 70
     0
 10
0.0
 20
0.0
 30
0.0
  3
_D_7
  1

  0
SOLID
  5
2B7
330
2B4
100
AcDbEntity
  8
DIM
100
AcDbTrace
 10
96.5634906724
 20
58.7705506802
 30
0.0
 11
95.5634906724
 21
59.0205506802
 31
0.0
 12
95.5634906724
 22
58.5205506802
 32
0.0
 13
95.5634906724
 23
58.5205506802
 33
0.0
  0
SOLID
  5
2B8
330
2B4
100
AcDbEntity
  8
DIM
100
AcDbTrace
 10
97.4883340024
 20
58.7705506802
 30
0.0
 11
98.4883340024
 21
58.5205506802
 31
0.0
 12
98.4883340024
 22
59.0205506802
 32
0.0
 13
98.4883340024
 23
59.0205506802
 33
0.0
  0
LINE
  5
2B9
330
2B4
100
AcDbEntity
  8
DIM
100
AcDbLine
 10
102.8414487251
 20
60.2705506987
 30
0.0
 11
101.0414487029
 21
57.2705506617
 31
0.0
  0
LINE
  5
2BA
330
2B4
100
AcDbEntity
  8
DIM
100
AcDbLine
 10
96.5634906724
 20
65.4186095859
 30
0.0
 11
96.5634906724
 21
58.7311806015
 31
0.0
  0
LINE
  5
2BB
330
2B4
100
AcDbEntity
  8
DIM
100
AcDbLine
 10
97.4883340024
 20
66.1416845859
 30
0.0
 11
97.4883340024
 21
58.7311806015
 31
0.0
  0
LINE
  5
2BC
330
2B4
100
AcDbEntity
  8
DIM
100
AcDbLine
 10
96.5634906724
 20
58.7705506802
 30
0.0
 11
95.0634906724
 21
58.7705506802
 31
0.0
  0
LINE
  5
2BD
330
2B4
100
AcDbEntity
  8
DIM
100
AcDbLine
 10
97.4883340024
 20
58.7705506802
 30
0.0
 11
99.7247820411
 21
58.7705506802
 31
0.0
  0
MTEXT
  5
2BE
330
2B4
100
AcDbEntity
  8
DIM
100
AcDbMText
 10
99.7247820411
 20
60.7041523265
 30
-18.268828526
 40
1.5
 41
0.0
 71
     1
 72
     1
  1
15
  7
SLDTEXTSTYLE0
 73
     1
 44
1.0
  0
MTEXT
  5
2BF
330
2B4
100
AcDbEntity
  8
DIM
100
AcDbMText
 10
101.941448714
 20
58.7645689328
 30
-18.268828526
 40
1.5
 41
0.0
 71
     1
 72
     1
  1
16
  7
SLDTEXTSTYLE0
 73
     1
 44
1.0
  0
MTEXT
  5
2C0
330
2B4
100
AcDbEntity
  8
DIM
100
AcDbMText
 10
104.1581153869
 20
59.6301940697
 30
-18.268828526
 40
1.5
 41
0.0
 71
     1
 72
     1
  1
"
  7
SLDTEXTSTYLE0
 73
     1
 44
1.0
  0
ENDBLK
  5
2B6
330
2B4
100
AcDbEntity
  8
0
100
AcDbBlockEnd
  0
BLOCK
  5
2C3
330
2C2
100
AcDbEntity
  8
0
100
AcDbBlockBegin
  2
_D_8
 70
     0
 10
0.0
 20
0.0
 30
0.0
  3
_D_8
  1

  0
SOLID
  5
2C5
330
2C2
100
AcDbEntity
  8
DIM
100
AcDbTrace
 10
94.9358906724
 20
58.7705506802
 30
0.0
 11
93.9358906724
 21
59.0205506802
 31
0.0
 12
93.9358906724
 22
58.5205506802
 32
0.0
 13
93.9358906724
 23
58.5205506802
 33
0.0
  0
SOLID
  5
2C6
330
2C2
100
AcDbEntity
  8
DIM
100
AcDbTrace
 10
55.0360906724
 20
58.7705506802
 30
0.0
 11
56.0360906724
 21
58.5205506802
 31
0.0
 12
56.0360906724
 22
59.0205506802
 32
0.0
 13
56.0360906724
 23
59.0205506802
 33
0.0
  0
LINE
  5
2C7
330
2C2
100
AcDbEntity
  8
DIM
100
AcDbLine
 10
76.0755740068
 20
60.2705506987
 30
0.0
 11
74.2755739845
 21
57.2705506617
 31
0.0
  0
LINE
  5
2C8
330
2C2
100
AcDbEntity
  8
DIM
100
AcDbLine
 10
94.9358906724
 20
62.8056282758
 30
0.0
 11
94.9358906724
 21
58.7311806015
 31
0.0
  0
LINE
  5
2C9
330
2C2
100
AcDbEntity
  8
DIM
100
AcDbLine
 10
55.0360906724
 20
62.8056282758
 30
0.0
 11
55.0360906724
 21
58.7311806015
 31
0.0
  0
LINE
  5
2CA
330
2C2
100
AcDbEntity
  8
DIM
100
AcDbLine
 10
94.9358906724
 20
58.7705506802
 30
0.0
 11
78.1214073585
 21
58.7705506802
 31
0.0
  0
LINE
  5
2CB
330
2C2
100
AcDbEntity
  8
DIM
100
AcDbLine
 10
55.0360906724
 20
58.7705506802
 30
0.0
 11
71.8505739863
 21
58.7705506802
 31
0.0
  0
MTEXT
  5
2CC
330
2C2
100
AcDbEntity
  8
DIM
100
AcDbMText
 10
71.8505739863
 20
59.6301940697
 30
-18.268828526
 40
1.5
 41
0.0
 71
     1
 72
     1
  1
39
  7
SLDTEXTSTYLE0
 73
     1
 44
1.0
  0
MTEXT
  5
2CD
330
2C2
100
AcDbEntity
  8
DIM
100
AcDbMText
 10
74.0672406592
 20
60.7041523265
 30
-18.268828526
 40
1.5
 41
0.0
 71
     1
 72
     1
  1
7
  7
SLDTEXTSTYLE0
 73
     1
 44
1.0
  0
MTEXT
  5
2CE
330
2C2
100
AcDbEntity
  8
DIM
100
AcDbMText
 10
75.1755739957
 20
58.7645689328
 30
-18.268828526
 40
1.5
 41
0.0
 71
     1
 72
     1
  1
8
  7
SLDTEXTSTYLE0
 73
     1
 44
1.0
  0
MTEXT
  5
2CF
330
2C2
100
AcDbEntity
  8
DIM
100
AcDbMText
 10
76.2839073321
 20
59.6301940697
 30
-18.268828526
 40
1.5
 41
0.0
 71
     1
 72
     1
  1
"
  7
SLDTEXTSTYLE0
 73
     1
 44
1.0
  0
ENDBLK
  5
2C4
330
2C2
100
AcDbEntity
  8
0
100
AcDbBlockEnd
  0
BLOCK
  5
2D2
330
2D1
100
AcDbEntity
  8
0
100
AcDbBlockBegin
  2
_D_9
 70
     0
 10
0.0
 20
0.0
 30
0.0
  3
_D_9
  1

  0
SOLID
  5
2D4
330
2D1
100
AcDbEntity
  8
DIM
100
AcDbTrace
 10
48.4836473424
 20
65.3933796647
 30
0.0
 11
48.7336473424
 21
66.3933796647
 31
0.0
 12
48.2336473424
 22
66.3933796647
 32
0.0
 13
48.2336473424
 23
66.3933796647
 33
0.0
  0
SOLID
  5
2D5
330
2D1
100
AcDbEntity
  8
DIM
100
AcDbTrace
 10
48.4836473424
 20
62.7706491054
 30
0.0
 11
48.2336473424
 21
61.7706491054
 31
0.0
 12
48.7336473424
 22
61.7706491054
 32
0.0
 13
48.7336473424
 23
61.7706491054
 33
0.0
  0
LINE
  5
2D6
330
2D1
100
AcDbEntity
  8
DIM
100
AcDbLine
 10
45.3011652529
 20
60.2705506987
 30
0.0
 11
43.5011652306
 21
57.2705506617
 31
0.0
  0
LINE
  5
2D7
330
2D1
100
AcDbEntity
  8
DIM
100
AcDbLine
 10
53.433833292
 20
65.3933796647
 30
0.0
 11
48.4442772637
 21
65.3933796647
 31
0.0
  0
LINE
  5
2D8
330
2D1
100
AcDbEntity
  8
DIM
100
AcDbLine
 10
55.0549083556
 20
62.7706491054
 30
0.0
 11
48.4442772637
 21
62.7706491054
 31
0.0
  0
LINE
  5
2D9
330
2D1
100
AcDbEntity
  8
DIM
100
AcDbLine
 10
47.3469988246
 20
58.7705506802
 30
0.0
 11
48.4836473424
 21
58.7705506802
 31
0.0
  0
LINE
  5
2DA
330
2D1
100
AcDbEntity
  8
DIM
100
AcDbLine
 10
48.4836473424
 20
58.7705506802
 30
0.0
 11
48.4836473424
 21
62.7706491054
 31
0.0
  0
LINE
  5
2DB
330
2D1
100
AcDbEntity
  8
DIM
100
AcDbLine
 10
48.4836473424
 20
65.3933796647
 30
0.0
 11
48.4836473424
 21
66.8933796647
 31
0.0
  0
MTEXT
  5
2DC
330
2D1
100
AcDbEntity
  8
DIM
100
AcDbMText
 10
42.1844985689
 20
59.6301940697
 30
-18.268828526
 40
1.5
 41
0.0
 71
     1
 72
     1
  1
2
  7
SLDTEXTSTYLE0
 73
     1
 44
1.0
  0
MTEXT
  5
2DD
330
2D1
100
AcDbEntity
  8
DIM
100
AcDbMText
 10
43.2928319053
 20
60.7041523265
 30
-18.268828526
 40
1.5
 41
0.0
 71
     1
 72
     1
  1
5
  7
SLDTEXTSTYLE0
 73
     1
 44
1.0
  0
MTEXT
  5
2DE
330
2D1
100
AcDbEntity
  8
DIM
100
AcDbMText
 10
44.4011652418
 20
58.7645689328
 30
-18.268828526
 40
1.5
 41
0.0
 71
     1
 72
     1
  1
8
  7
SLDTEXTSTYLE0
 73
     1
 44
1.0
  0
MTEXT
  5
2DF
330
2D1
100
AcDbEntity
  8
DIM
100
AcDbMText
 10
45.5094985049
 20
59.6301940697
 30
-18.268828526
 40
1.5
 41
0.0
 71
     1
 72
     1
  1
"
  7
SLDTEXTSTYLE0
 73
     1
 44
1.0
  0
ENDBLK
  5
2D3
330
2D1
100
AcDbEntity
  8
0
100
AcDbBlockEnd
  0
BLOCK
  5
2E2
330
2E1
100
AcDbEntity
  8
0
100
AcDbBlockBegin
  2
_D_10
 70
     0
 10
0.0
 20
0.0
 30
0.0
  3
_D_10
  1

  0
SOLID
  5
2E4
330
2E1
100
AcDbEntity
  8
DIM
100
AcDbTrace
 10
48.4836473424
 20
65.3933796647
 30
0.0
 11
48.7336473424
 21
66.3933796647
 31
0.0
 12
48.2336473424
 22
66.3933796647
 32
0.0
 13
48.2336473424
 23
66.3933796647
 33
0.0
  0
SOLID
  5
2E5
330
2E1
100
AcDbEntity
  8
DIM
100
AcDbTrace
 10
48.4836473424
 20
84.6613796647
 30
0.0
 11
48.2336473424
 21
83.6613796647
 31
0.0
 12
48.7336473424
 22
83.6613796647
 32
0.0
 13
48.7336473424
 23
83.6613796647
 33
0.0
  0
LINE
  5
2E6
330
2E1
100
AcDbEntity
  8
DIM
100
AcDbLine
 10
49.5732306768
 20
76.5273796832
 30
0.0
 11
47.7732306545
 21
73.5273796461
 31
0.0
  0
LINE
  5
2E7
330
2E1
100
AcDbEntity
  8
DIM
100
AcDbLine
 10
53.433833292
 20
65.3933796647
 30
0.0
 11
48.4442772637
 21
65.3933796647
 31
0.0
  0
LINE
  5
2E8
330
2E1
100
AcDbEntity
  8
DIM
100
AcDbLine
 10
56.8766205937
 20
84.6613796647
 30
0.0
 11
48.4442772637
 21
84.6613796647
 31
0.0
  0
LINE
  5
2E9
330
2E1
100
AcDbEntity
  8
DIM
100
AcDbLine
 10
48.4836473424
 20
65.3933796647
 30
0.0
 11
48.4836473424
 21
73.0877962709
 31
0.0
  0
LINE
  5
2EA
330
2E1
100
AcDbEntity
  8
DIM
100
AcDbLine
 10
48.4836473424
 20
84.6613796647
 30
0.0
 11
48.4836473424
 21
76.9669630584
 31
0.0
  0
MTEXT
  5
2EB
330
2E1
100
AcDbEntity
  8
DIM
100
AcDbMText
 10
45.3482306563
 20
75.8870230541
 30
-18.268828526
 40
1.5
 41
0.0
 71
     1
 72
     1
  1
19
  7
SLDTEXTSTYLE0
 73
     1
 44
1.0
  0
MTEXT
  5
2EC
330
2E1
100
AcDbEntity
  8
DIM
100
AcDbMText
 10
47.5648973292
 20
76.960981311
 30
-18.268828526
 40
1.5
 41
0.0
 71
     1
 72
     1
  1
1
  7
SLDTEXTSTYLE0
 73
     1
 44
1.0
  0
MTEXT
  5
2ED
330
2E1
100
AcDbEntity
  8
DIM
100
AcDbMText
 10
48.6732306657
 20
75.0213979172
 30
-18.268828526
 40
1.5
 41
0.0
 71
     1
 72
     1
  1
4
  7
SLDTEXTSTYLE0
 73
     1
 44
1.0
  0
MTEXT
  5
2EE
330
2E1
100
AcDbEntity
  8
DIM
100
AcDbMText
 10
49.7815640021
 20
75.8870230541
 30
-18.268828526
 40
1.5
 41
0.0
 71
     1
 72
     1
  1
"
  7
SLDTEXTSTYLE0
 73
     1
 44
1.0
  0
ENDBLK
  5
2E3
330
2E1
100
AcDbEntity
  8
0
100
AcDbBlockEnd
  0
BLOCK
  5
424
330
423
100
AcDbEntity
  8
0
100
AcDbBlockBegin
  2
_D_11
 70
     0
 10
0.0
 20
0.0
 30
0.0
  3
_D_11
  1

  0
SOLID
  5
426
330
423
100
AcDbEntity
  8
DIM
100
AcDbTrace
 10
134.7187938895
 20
7.5313417152
 30
0.0
 11
133.7187938895
 21
7.7813417152
 31
0.0
 12
133.7187938895
 22
7.2813417152
 32
0.0
 13
133.7187938895
 23
7.2813417152
 33
0.0
  0
SOLID
  5
427
330
423
100
AcDbEntity
  8
DIM
100
AcDbTrace
 10
142.8784581256
 20
7.5313417152
 30
0.0
 11
143.8784581256
 21
7.2813417152
 31
0.0
 12
143.8784581256
 22
7.7813417152
 32
0.0
 13
143.8784581256
 23
7.7813417152
 33
0.0
  0
LINE
  5
428
330
423
100
AcDbEntity
  8
DIM
100
AcDbLine
 10
138.7798760054
 20
9.0313417337
 30
0.0
 11
136.9798759832
 21
6.0313416967
 31
0.0
  0
LINE
  5
429
330
423
100
AcDbEntity
  8
DIM
100
AcDbLine
 10
134.7187938895
 20
14.1932015851
 30
0.0
 11
134.7187938895
 21
7.4919716365
 31
0.0
  0
LINE
  5
42A
330
423
100
AcDbEntity
  8
DIM
100
AcDbLine
 10
142.8784581256
 20
11.5590710459
 30
0.0
 11
142.8784581256
 21
7.4919716365
 31
0.0
  0
LINE
  5
42B
330
423
100
AcDbEntity
  8
DIM
100
AcDbLine
 10
134.7187938895
 20
7.5313417152
 30
0.0
 11
133.2187938895
 21
7.5313417152
 31
0.0
  0
LINE
  5
42C
330
423
100
AcDbEntity
  8
DIM
100
AcDbLine
 10
142.8784581256
 20
7.5313417152
 30
0.0
 11
144.3784581256
 21
7.5313417152
 31
0.0
  0
MTEXT
  5
42D
330
423
100
AcDbEntity
  8
DIM
100
AcDbMText
 10
135.6632093214
 20
8.3909851046
 30
0.0039370079
 40
1.5
 41
0.0
 71
     1
 72
     1
  1
8
  7
SLDTEXTSTYLE0
 73
     1
 44
1.0
  0
MTEXT
  5
42E
330
423
100
AcDbEntity
  8
DIM
100
AcDbMText
 10
136.7715426579
 20
9.4649433615
 30
0.0039370079
 40
1.5
 41
0.0
 71
     1
 72
     1
  1
3
  7
SLDTEXTSTYLE0
 73
     1
 44
1.0
  0
MTEXT
  5
42F
330
423
100
AcDbEntity
  8
DIM
100
AcDbMText
 10
137.8798759943
 20
7.5253599678
 30
0.0039370079
 40
1.5
 41
0.0
 71
     1
 72
     1
  1
16
  7
SLDTEXTSTYLE0
 73
     1
 44
1.0
  0
MTEXT
  5
430
330
423
100
AcDbEntity
  8
DIM
100
AcDbMText
 10
140.0965426672
 20
8.3909851046
 30
0.0039370079
 40
1.5
 41
0.0
 71
     1
 72
     1
  1
"
  7
SLDTEXTSTYLE0
 73
     1
 44
1.0
  0
ENDBLK
  5
425
330
423
100
AcDbEntity
  8
0
100
AcDbBlockEnd
  0
BLOCK
  5
433
330
432
100
AcDbEntity
  8
0
100
AcDbBlockBegin
  2
_D_12
 70
     0
 10
0.0
 20
0.0
 30
0.0
  3
_D_12
  1

  0
SOLID
  5
435
330
432
100
AcDbEntity
  8
DIM
100
AcDbTrace
 10
116.9876291411
 20
11.5314411246
 30
0.0
 11
116.7376291411
 21
10.5314411246
 31
0.0
 12
117.2376291411
 22
10.5314411246
 32
0.0
 13
117.2376291411
 23
10.5314411246
 33
0.0
  0
SOLID
  5
436
330
432
100
AcDbEntity
  8
DIM
100
AcDbTrace
 10
116.9876291411
 20
15.2787411246
 30
0.0
 11
117.2376291411
 21
16.2787411246
 31
0.0
 12
116.7376291411
 22
16.2787411246
 32
0.0
 13
116.7376291411
 23
16.2787411246
 33
0.0
  0
LINE
  5
437
330
432
100
AcDbEntity
  8
DIM
100
AcDbLine
 10
113.7195470105
 20
9.0313417337
 30
0.0
 11
111.9195469882
 21
6.0313416967
 31
0.0
  0
LINE
  5
438
330
432
100
AcDbEntity
  8
DIM
100
AcDbLine
 10
123.6380880468
 20
11.5314411246
 30
0.0
 11
116.9482590624
 21
11.5314411246
 31
0.0
  0
LINE
  5
439
330
432
100
AcDbEntity
  8
DIM
100
AcDbLine
 10
133.523446985
 20
15.2787411246
 30
0.0
 11
116.9482590624
 21
15.2787411246
 31
0.0
  0
LINE
  5
43A
330
432
100
AcDbEntity
  8
DIM
100
AcDbLine
 10
115.7653805822
 20
7.5313417152
 30
0.0
 11
116.9876291411
 21
7.5313417152
 31
0.0
  0
LINE
  5
43B
330
432
100
AcDbEntity
  8
DIM
100
AcDbLine
 10
116.9876291411
 20
7.5313417152
 30
0.0
 11
116.9876291411
 21
11.5314411246
 31
0.0
  0
LINE
  5
43C
330
432
100
AcDbEntity
  8
DIM
100
AcDbLine
 10
116.9876291411
 20
15.2787411246
 30
0.0
 11
116.9876291411
 21
16.7787411246
 31
0.0
  0
MTEXT
  5
43D
330
432
100
AcDbEntity
  8
DIM
100
AcDbMText
 10
110.6028803265
 20
8.3909851046
 30
0.0039370079
 40
1.5
 41
0.0
 71
     1
 72
     1
  1
3
  7
SLDTEXTSTYLE0
 73
     1
 44
1.0
  0
MTEXT
  5
43E
330
432
100
AcDbEntity
  8
DIM
100
AcDbMText
 10
111.7112136629
 20
9.4649433615
 30
0.0039370079
 40
1.5
 41
0.0
 71
     1
 72
     1
  1
3
  7
SLDTEXTSTYLE0
 73
     1
 44
1.0
  0
MTEXT
  5
43F
330
432
100
AcDbEntity
  8
DIM
100
AcDbMText
 10
112.8195469994
 20
7.5253599678
 30
0.0039370079
 40
1.5
 41
0.0
 71
     1
 72
     1
  1
4
  7
SLDTEXTSTYLE0
 73
     1
 44
1.0
  0
MTEXT
  5
440
330
432
100
AcDbEntity
  8
DIM
100
AcDbMText
 10
113.9278802625
 20
8.3909851046
 30
0.0039370079
 40
1.5
 41
0.0
 71
     1
 72
     1
  1
"
  7
SLDTEXTSTYLE0
 73
     1
 44
1.0
  0
ENDBLK
  5
434
330
432
100
AcDbEntity
  8
0
100
AcDbBlockEnd
  0
BLOCK
  5
443
330
442
100
AcDbEntity
  8
0
100
AcDbBlockBegin
  2
_D_13
 70
     0
 10
0.0
 20
0.0
 30
0.0
  3
_D_13
  1

  0
SOLID
  5
445
330
442
100
AcDbEntity
  8
DIM
100
AcDbTrace
 10
147.4537012842
 20
50.2596716018
 30
0.0
 11
147.7037012842
 21
51.2596716018
 31
0.0
 12
147.2037012842
 22
51.2596716018
 32
0.0
 13
147.2037012842
 23
51.2596716018
 33
0.0
  0
SOLID
  5
446
330
442
100
AcDbEntity
  8
DIM
100
AcDbTrace
 10
147.4537012842
 20
47.2444411246
 30
0.0
 11
147.2037012842
 21
46.2444411246
 31
0.0
 12
147.7037012842
 22
46.2444411246
 32
0.0
 13
147.7037012842
 23
46.2444411246
 33
0.0
  0
LINE
  5
447
330
442
100
AcDbEntity
  8
DIM
100
AcDbLine
 10
141.2545282043
 20
50.2596716018
 30
0.0
 11
147.4930713629
 21
50.2596716018
 31
0.0
  0
LINE
  5
448
330
442
100
AcDbEntity
  8
DIM
100
AcDbLine
 10
142.8391282043
 20
47.2444411246
 30
0.0
 11
147.4930713629
 21
47.2444411246
 31
0.0
  0
LINE
  5
449
330
442
100
AcDbEntity
  8
DIM
100
AcDbLine
 10
147.4537012842
 20
50.2596716018
 30
0.0
 11
147.4537012842
 21
51.7596716018
 31
0.0
  0
LINE
  5
44A
330
442
100
AcDbEntity
  8
DIM
100
AcDbLine
 10
147.4537012842
 20
47.2444411246
 30
0.0
 11
147.4537012842
 21
45.7444411246
 31
0.0
  0
MTEXT
  5
44B
330
442
100
AcDbEntity
  8
DIM
100
AcDbMText
 10
145.9807845661
 20
49.4950329738
 30
0.0039370079
 40
1.5
 41
0.0
 71
     1
 72
     1
  1
3"
  7
SLDTEXTSTYLE0
 73
     1
 44
1.0
  0
ENDBLK
  5
444
330
442
100
AcDbEntity
  8
0
100
AcDbBlockEnd
  0
ENDSEC
  0
SECTION
  2
ENTITIES
  0
INSERT
  5
4D
330
1F
100
AcDbEntity
  8
NOTES
100
AcDbBlockReference
  2
SW_NOTE_0
 10
3.5137949836
 20
89.0313916079
 30
0.0
  0
LINE
  5
4E
330
1F
100
AcDbEntity
  8
SLD-0
  6
Continuous
370
    15
100
AcDbLine
 10
55.1208537562
 20
40.7547653678
 30
0.0
 11
94.8511275886
 21
40.7547653678
 31
0.0
  0
SPLINE
  5
4F
330
1F
100
AcDbEntity
  8
SLD-0
  6
Continuous
370
    15
100
AcDbSpline
210
0.0
220
0.0
230
1.0
 70
     8
 71
     3
 72
    11
 73
     7
 74
     0
 42
0.00000001
 43
0.00000001
 12
1.0
 22
0.0
 32
0.0
 13
1.0
 23
0.0
 33
0.0
 40
0.0
 40
0.0
 40
0.0
 40
0.0
 40
0.332888531215581
 40
0.5430803218127351
 40
0.7123222011163808
 40
1.0
 40
1.0
 40
1.0
 40
1.0
 10
55.05104122930976
 20
40.81068578843711
 30
0.0
 10
55.0519976009455
 20
40.81062715650917
 30
0.0
 10
55.05355784278929
 20
40.81053150333007
 30
0.0
 10
55.05926081515105
 20
40.8086034475274
 30
0.0
 10
55.06608858299079
 20
40.80509842773344
 30
0.0
 10
55.07061553583149
 20
40.80057393215472
 30
0.0
 10
55.07346571692683
 20
40.7977252981578
 30
0.0
  0
SPLINE
  5
50
330
1F
100
AcDbEntity
  8
SLD-0
  6
Continuous
370
    15
100
AcDbSpline
210
0.0
220
0.0
230
1.0
 70
     8
 71
     3
 72
    11
 73
     7
 74
     0
 42
0.00000001
 43
0.00000001
 12
1.0
 22
0.0
 32
0.0
 13
1.0
 23
0.0
 33
0.0
 40
0.0
 40
0.0
 40
0.0
 40
0.0
 40
0.2876777988836192
 40
0.4569196781872649
 40
0.667111468784419
 40
1.0
 40
1.0
 40
1.0
 40
1.0
 10
94.89851562788519
 20
40.7977252981578
 30
0.0
 10
94.90136580898054
 20
40.80057393215472
 30
0.0
 10
94.90589276182124
 20
40.80509842773345
 30
0.0
 10
94.91272052966099
 20
40.8086034475274
 30
0.0
 10
94.91842350202275
 20
40.81053150333006
 30
0.0
 10
94.91998374386652
 20
40.81062715650917
 30
0.0
 10
94.92094011550226
 20
40.81068578843711
 30
0.0
  0
LINE
  5
51
330
1F
100
AcDbEntity
  8
SLD-0
  6
Continuous
370
    15
100
AcDbLine
 10
53.4859898689
 20
12.5004411275
 30
0.0
 11
53.4859898689
 21
12.5674411243
 31
0.0
  0
LINE
  5
52
330
1F
100
AcDbEntity
  8
SLD-0
  6
Continuous
370
    15
100
AcDbLine
 10
96.4859914759
 20
12.5004411275
 30
0.0
 11
53.4859898689
 21
12.5004411275
 31
0.0
  0
LINE
  5
53
330
1F
100
AcDbEntity
  8
SLD-0
  6
Continuous
370
    15
100
AcDbLine
 10
96.4859914759
 20
12.5674411243
 30
0.0
 11
96.4859914759
 21
12.5004411275
 31
0.0
  0
LINE
  5
54
330
1F
100
AcDbEntity
  8
SLD-0
  6
Continuous
370
    15
100
AcDbLine
 10
96.4859914759
 20
11.5984410974
 30
0.0
 11
53.4859898689
 21
11.5984410974
 31
0.0
  0
LINE
  5
55
330
1F
100
AcDbEntity
  8
SLD-0
  6
Continuous
370
    15
100
AcDbLine
 10
53.4859898689
 20
12.5004411275
 30
0.0
 11
53.4859898689
 21
11.5984410974
 31
0.0
  0
LINE
  5
56
330
1F
100
AcDbEntity
  8
SLD-0
  6
Continuous
370
    15
100
AcDbLine
 10
96.4859914759
 20
11.5984410974
 30
0.0
 11
96.4859914759
 21
12.5004411275
 31
0.0
  0
LINE
  5
57
330
1F
100
AcDbEntity
  8
SLD-0
  6
Continuous
370
    15
100
AcDbLine
 10
53.4859898689
 20
11.5314410914
 30
0.0
 11
53.4859898689
 21
11.5984410974
 31
0.0
  0
LINE
  5
58
330
1F
100
AcDbEntity
  8
SLD-0
  6
Continuous
370
    15
100
AcDbLine
 10
53.4859898689
 20
11.5314410914
 30
0.0
 11
96.4859914759
 21
11.5314410914
 31
0.0
  0
LINE
  5
59
330
1F
100
AcDbEntity
  8
SLD-0
  6
Continuous
370
    15
100
AcDbLine
 10
96.4859914759
 20
11.5984410974
 30
0.0
 11
96.4859914759
 21
11.5314410914
 31
0.0
  0
LINE
  5
5A
330
1F
100
AcDbEntity
  8
SLD-0
  6
Continuous
370
    15
100
AcDbLine
 10
53.4549907604
 20
11.5984410974
 30
0.0
 11
53.4189909629
 21
11.5984410974
 31
0.0
  0
LINE
  5
5B
330
1F
100
AcDbEntity
  8
SLD-0
  6
Continuous
370
    15
100
AcDbLine
 10
53.4189909629
 20
12.5674411243
 30
0.0
 11
53.4549907604
 21
12.5674411243
 31
0.0
  0
LINE
  5
5C
330
1F
100
AcDbEntity
  8
SLD-0
  6
Continuous
370
    15
100
AcDbLine
 10
53.4189909629
 20
11.5984410974
 30
0.0
 11
53.4189909629
 21
12.5674411243
 31
0.0
  0
LINE
  5
5D
330
1F
100
AcDbEntity
  8
SLD-0
  6
Continuous
370
    15
100
AcDbLine
 10
53.4549907604
 20
11.5984410974
 30
0.0
 11
53.4549907604
 21
12.5674411243
 31
0.0
  0
ARC
  5
5E
330
1F
100
AcDbEntity
  8
SLD-0
  6
Continuous
370
    15
100
AcDbCircle
 10
53.4859906724
 20
11.5984411246
 30
0.0
 40
0.0669999999999984
100
AcDbArc
 50
180.0
 51
270.0
  0
ARC
  5
5F
330
1F
100
AcDbEntity
  8
SLD-0
  6
Continuous
370
    15
100
AcDbCircle
 10
53.4859906724
 20
11.5984411246
 30
0.0
 40
0.0310000000000059
100
AcDbArc
 50
180.0
 51
270.0
  0
LINE
  5
60
330
1F
100
AcDbEntity
  8
SLD-0
  6
Continuous
370
    15
100
AcDbLine
 10
96.5169905845
 20
11.5984410974
 30
0.0
 11
96.5529903819
 21
11.5984410974
 31
0.0
  0
ARC
  5
61
330
1F
100
AcDbEntity
  8
SLD-0
  6
Continuous
370
    15
100
AcDbCircle
 10
96.4859906724
 20
11.5984411246
 30
0.0
 40
0.0669999999999984
100
AcDbArc
 50
270.0
 51
0.0
  0
ARC
  5
62
330
1F
100
AcDbEntity
  8
SLD-0
  6
Continuous
370
    15
100
AcDbCircle
 10
96.4859906724
 20
11.5984411246
 30
0.0
 40
0.0310000000000059
100
AcDbArc
 50
270.0
 51
360.0
  0
LINE
  5
63
330
1F
100
AcDbEntity
  8
SLD-0
  6
Continuous
370
    15
100
AcDbLine
 10
96.5529903819
 20
12.5674411243
 30
0.0
 11
96.5169905845
 21
12.5674411243
 31
0.0
  0
LINE
  5
64
330
1F
100
AcDbEntity
  8
SLD-0
  6
Continuous
370
    15
100
AcDbLine
 10
96.5169905845
 20
11.5984410974
 30
0.0
 11
96.5169905845
 21
12.5674411243
 31
0.0
  0
LINE
  5
65
330
1F
100
AcDbEntity
  8
SLD-0
  6
Continuous
370
    15
100
AcDbLine
 10
96.5529903819
 20
11.5984410974
 30
0.0
 11
96.5529903819
 21
12.5674411243
 31
0.0
  0
ARC
  5
66
330
1F
100
AcDbEntity
  8
SLD-0
  6
Continuous
370
    15
100
AcDbCircle
 10
96.4751883842
 20
11.5982559101
 30
0.0
 40
0.0309683190989403
100
AcDbArc
 50
290.4165845464
 51
0.342624809
  0
ARC
  5
67
330
1F
100
AcDbEntity
  8
SLD-0
  6
Continuous
370
    15
100
AcDbCircle
 10
53.4967013306
 20
11.5981926507
 30
0.0
 40
0.0308771349547151
100
AcDbArc
 50
179.5389758696
 51
249.701814775
  0
LINE
  5
68
330
1F
100
AcDbEntity
  8
SLD-0
  6
Continuous
370
    15
100
AcDbLine
 10
53.4658251952
 20
11.5984410974
 30
0.0
 11
53.4658251952
 21
12.5674411243
 31
0.0
  0
LINE
  5
69
330
1F
100
AcDbEntity
  8
SLD-0
  6
Continuous
370
    15
100
AcDbLine
 10
53.4658251952
 20
12.5674411243
 30
0.0
 11
53.47320303
 21
12.5674411243
 31
0.0
  0
LINE
  5
6A
330
1F
100
AcDbEntity
  8
SLD-0
  6
Continuous
370
    15
100
AcDbLine
 10
53.4549907604
 20
12.5674411243
 30
0.0
 11
53.4658251952
 21
12.5674411243
 31
0.0
  0
LINE
  5
6B
330
1F
100
AcDbEntity
  8
SLD-0
  6
Continuous
370
    15
100
AcDbLine
 10
96.5061561496
 20
12.5674411243
 30
0.0
 11
96.4987783148
 21
12.5674411243
 31
0.0
  0
LINE
  5
6C
330
1F
100
AcDbEntity
  8
SLD-0
  6
Continuous
370
    15
100
AcDbLine
 10
96.5061561496
 20
12.5674411243
 30
0.0
 11
96.5061561496
 21
11.5984410974
 31
0.0
  0
LINE
  5
6D
330
1F
100
AcDbEntity
  8
SLD-0
  6
Continuous
370
    15
100
AcDbLine
 10
96.5169905845
 20
12.5674411243
 30
0.0
 11
96.5061561496
 21
12.5674411243
 31
0.0
  0
LINE
  5
6E
330
1F
100
AcDbEntity
  8
SLD-0
  6
Continuous
370
    15
100
AcDbLine
 10
55.208758874
 20
40.7547653678
 30
0.0
 11
55.208758874
 21
18.6591410983
 31
0.0
  0
LINE
  5
6F
330
1F
100
AcDbEntity
  8
SLD-0
  6
Continuous
370
    15
100
AcDbLine
 10
55.1736437597
 20
40.7547653678
 30
0.0
 11
55.1736437597
 21
18.6591410983
 31
0.0
  0
LINE
  5
70
330
1F
100
AcDbEntity
  8
SLD-0
  6
Continuous
370
    15
100
AcDbLine
 10
94.7632224708
 20
40.7547653678
 30
0.0
 11
94.7632224708
 21
18.6591410983
 31
0.0
  0
LINE
  5
71
330
1F
100
AcDbEntity
  8
SLD-0
  6
Continuous
370
    15
100
AcDbLine
 10
94.7983375852
 20
40.7547653678
 30
0.0
 11
94.7983375852
 21
18.6591410983
 31
0.0
  0
LINE
  5
72
330
1F
100
AcDbEntity
  8
SLD-0
  6
Continuous
370
    15
100
AcDbLine
 10
94.8909899548
 20
40.7880266369
 30
0.0
 11
94.8909899548
 21
40.8091698593
 31
0.0
  0
LINE
  5
73
330
1F
100
AcDbEntity
  8
SLD-0
  6
Continuous
370
    15
100
AcDbLine
 10
94.8909899548
 20
40.7880266369
 30
0.0
 11
94.8777032816
 21
40.7866350796
 31
0.0
  0
SPLINE
  5
74
330
1F
100
AcDbEntity
  8
SLD-0
  6
Continuous
370
    15
100
AcDbSpline
210
0.0
220
0.0
230
1.0
 70
     8
 71
     3
 72
    13
 73
     9
 74
     0
 42
0.00000001
 43
0.00000001
 12
1.0
 22
0.0
 32
0.0
 13
1.0
 23
0.0
 33
0.0
 40
0.0
 40
0.0
 40
0.0
 40
0.0
 40
0.1666668045400014
 40
0.3333289753460418
 40
0.4999911461520823
 40
0.6666710246539581
 40
0.8333378291939595
 40
1.0
 40
1.0
 40
1.0
 40
1.0
 10
94.89098995482242
 20
40.80916985928258
 30
0.0
 10
94.8887755395061
 20
40.80588129064528
 30
0.0
 10
94.88434677043946
 20
40.79930424480068
 30
0.0
 10
94.8777031038003
 20
40.78659728603024
 30
0.0
 10
94.87106033054319
 20
40.77411676448069
 30
0.0
 10
94.86441377090847
 20
40.76357064052777
 30
0.0
 10
94.8577711991275
 20
40.75620380708968
 30
0.0
 10
94.85334210495179
 20
40.7552448430982
 30
0.0
 10
94.85112758864919
 20
40.75476536776792
 30
0.0
  0
LINE
  5
75
330
1F
100
AcDbEntity
  8
SLD-0
  6
Continuous
370
    15
100
AcDbLine
 10
55.0942780632
 20
40.7866350796
 30
0.0
 11
55.08099139
 21
40.7880266369
 31
0.0
  0
LINE
  5
76
330
1F
100
AcDbEntity
  8
SLD-0
  6
Continuous
370
    15
100
AcDbLine
 10
55.08099139
 20
40.7880266369
 30
0.0
 11
55.08099139
 21
40.8091698593
 31
0.0
  0
SPLINE
  5
77
330
1F
100
AcDbEntity
  8
SLD-0
  6
Continuous
370
    15
100
AcDbSpline
210
0.0
220
0.0
230
1.0
 70
     8
 71
     3
 72
    13
 73
     9
 74
     0
 42
0.00000001
 43
0.00000001
 12
1.0
 22
0.0
 32
0.0
 13
1.0
 23
0.0
 33
0.0
 40
0.0
 40
0.0
 40
0.0
 40
0.0
 40
0.1666621708060405
 40
0.3333289753460418
 40
0.5000088538479177
 40
0.6666710246539581
 40
0.8333331954599985
 40
1.0
 40
1.0
 40
1.0
 40
1.0
 10
55.12085375616282
 20
40.75476536776792
 30
0.0
 10
55.11863923986024
 20
40.75524484309819
 30
0.0
 10
55.11421014568453
 20
40.75620380708966
 30
0.0
 10
55.10756757390357
 20
40.76357064052777
 30
0.0
 10
55.10092101426886
 20
40.77411676448069
 30
0.0
 10
55.09427824101173
 20
40.78659728603025
 30
0.0
 10
55.08763457437256
 20
40.7993042448007
 30
0.0
 10
55.08320580530594
 20
40.80588129064529
 30
0.0
 10
55.08099138998961
 20
40.80916985928258
 30
0.0
  0
LINE
  5
78
330
1F
100
AcDbEntity
  8
SLD-0
  6
Continuous
370
    15
100
AcDbLine
 10
94.8909899548
 20
40.8091698593
 30
0.0
 11
55.08099139
 21
40.8091698593
 31
0.0
  0
LINE
  5
79
330
1F
100
AcDbEntity
  8
SLD-0
  6
Continuous
370
    15
100
AcDbLine
 10
94.8909899548
 20
42.9260945244
 30
0.0
 11
55.08099139
 21
42.9260945244
 31
0.0
  0
LINE
  5
7A
330
1F
100
AcDbEntity
  8
SLD-0
  6
Continuous
370
    15
100
AcDbLine
 10
94.8909899548
 20
42.9260945244
 30
0.0
 11
94.8909899548
 21
40.8091698593
 31
0.0
  0
LINE
  5
7B
330
1F
100
AcDbEntity
  8
SLD-0
  6
Continuous
370
    15
100
AcDbLine
 10
55.08099139
 20
42.9260945244
 30
0.0
 11
55.08099139
 21
40.8091698593
 31
0.0
  0
ARC
  5
7C
330
1F
100
AcDbEntity
  8
SLD-0
  6
Continuous
370
    15
100
AcDbCircle
 10
55.0753748494
 20
42.8864127748
 30
0.0
 40
0.0400772601162458
100
AcDbArc
 50
81.9438887399
 51
168.5817717427
  0
SPLINE
  5
7D
330
1F
100
AcDbEntity
  8
SLD-0
  6
Continuous
370
    15
100
AcDbSpline
210
0.0
220
0.0
230
1.0
 70
     8
 71
     3
 72
    11
 73
     7
 74
     0
 42
0.00000001
 43
0.00000001
 12
1.0
 22
0.0
 32
0.0
 13
1.0
 23
0.0
 33
0.0
 40
0.0
 40
0.0
 40
0.0
 40
0.0
 40
0.2582634593861957
 40
0.5167414318933885
 40
0.7751966606334798
 40
1.0
 40
1.0
 40
1.0
 40
1.0
 10
55.08099138998961
 20
40.80916985928258
 30
0.0
 10
55.07491212574579
 20
40.81152401258101
 30
0.0
 10
55.06274854783321
 20
40.81623427453296
 30
0.0
 10
55.04758583302685
 20
40.81700639139238
 30
0.0
 10
55.03781375801881
 20
40.81461428878179
 30
0.0
 10
55.0366378160789
 20
40.81193305225242
 30
0.0
 10
55.03609078868519
 20
40.81068578843711
 30
0.0
  0
LINE
  5
7E
330
1F
100
AcDbEntity
  8
SLD-0
  6
Continuous
370
    15
100
AcDbLine
 10
55.0360907887
 20
42.8943468378
 30
0.0
 11
55.0360907887
 21
40.8106857884
 31
0.0
  0
LINE
  5
7F
330
1F
100
AcDbEntity
  8
SLD-0
  6
Continuous
370
    15
100
AcDbLine
 10
55.08099139
 20
40.7880266369
 30
0.0
 11
55.0730527084
 21
40.7981500399
 31
0.0
  0
LINE
  5
80
330
1F
100
AcDbEntity
  8
SLD-0
  6
Continuous
370
    15
100
AcDbLine
 10
55.0510412293
 20
40.8106857884
 30
0.0
 11
55.0360907887
 21
40.8106857884
 31
0.0
  0
LINE
  5
81
330
1F
100
AcDbEntity
  8
SLD-0
  6
Continuous
370
    15
100
AcDbLine
 10
94.8989286364
 20
40.7981500399
 30
0.0
 11
94.8909899548
 21
40.7880266369
 31
0.0
  0
SPLINE
  5
82
330
1F
100
AcDbEntity
  8
SLD-0
  6
Continuous
370
    15
100
AcDbSpline
210
0.0
220
0.0
230
1.0
 70
     8
 71
     3
 72
    11
 73
     7
 74
     0
 42
0.00000001
 43
0.00000001
 12
1.0
 22
0.0
 32
0.0
 13
1.0
 23
0.0
 33
0.0
 40
0.0
 40
0.0
 40
0.0
 40
0.0
 40
0.2582975151661717
 40
0.5167611153887499
 40
0.7752138868728923
 40
1.0
 40
1.0
 40
1.0
 40
1.0
 10
94.93589055612684
 20
40.81068578843711
 30
0.0
 10
94.93516922472202
 20
40.81212025574349
 30
0.0
 10
94.93372609809704
 20
40.81499011271734
 30
0.0
 10
94.92265855412266
 20
40.81711332915867
 30
0.0
 10
94.90763540699383
 20
40.8157905569699
 30
0.0
 10
94.89627460791631
 20
40.81127182023605
 30
0.0
 10
94.89098995482242
 20
40.80916985928258
 30
0.0
  0
LINE
  5
83
330
1F
100
AcDbEntity
  8
SLD-0
  6
Continuous
370
    15
100
AcDbLine
 10
94.9358905561
 20
40.8106857884
 30
0.0
 11
94.9209401155
 21
40.8106857884
 31
0.0
  0
ARC
  5
84
330
1F
100
AcDbEntity
  8
SLD-0
  6
Continuous
370
    15
100
AcDbCircle
 10
94.8966064955
 20
42.8864127748
 30
0.0
 40
0.0400772601162696
100
AcDbArc
 50
11.4182282573
 51
98.0561112601
  0
LINE
  5
85
330
1F
100
AcDbEntity
  8
SLD-0
  6
Continuous
370
    15
100
AcDbLine
 10
94.9358905561
 20
40.8106857884
 30
0.0
 11
94.9358905561
 21
42.8943468378
 31
0.0
  0
LINE
  5
86
330
1F
100
AcDbEntity
  8
SLD-0
  6
Continuous
370
    15
100
AcDbLine
 10
94.8909899548
 20
42.9392474391
 30
0.0
 11
55.08099139
 21
42.9392474391
 31
0.0
  0
LINE
  5
87
330
1F
100
AcDbEntity
  8
SLD-0
  6
Continuous
370
    15
100
AcDbLine
 10
94.8909899548
 20
42.9392474391
 30
0.0
 11
94.8909899548
 21
42.9260945244
 31
0.0
  0
LINE
  5
88
330
1F
100
AcDbEntity
  8
SLD-0
  6
Continuous
370
    15
100
AcDbLine
 10
55.08099139
 20
42.9260945244
 30
0.0
 11
55.08099139
 21
42.9392474391
 31
0.0
  0
CIRCLE
  5
89
330
1F
100
AcDbEntity
  8
SLD-0
  6
Continuous
370
    15
100
AcDbCircle
 10
97.3013340024
 20
39.6292411246
 30
0.0
 40
0.09375
  0
LINE
  5
8A
330
1F
100
AcDbEntity
  8
SLD-0
  6
Continuous
370
    15
100
AcDbLine
 10
97.4883350967
 20
41.1917401598
 30
0.0
 11
96.5634915939
 21
41.1917401598
 31
0.0
  0
LINE
  5
8B
330
1F
100
AcDbEntity
  8
SLD-0
  6
Continuous
370
    15
100
AcDbLine
 10
97.4883350967
 20
38.0667413801
 30
0.0
 11
96.5634915939
 21
38.0667413801
 31
0.0
  0
LINE
  5
8C
330
1F
100
AcDbEntity
  8
SLD-0
  6
Continuous
370
    15
100
AcDbLine
 10
97.4883350967
 20
41.1917401598
 30
0.0
 11
97.4883350967
 21
38.0667413801
 31
0.0
  0
LINE
  5
8D
330
1F
100
AcDbEntity
  8
SLD-0
  6
Continuous
370
    15
100
AcDbLine
 10
52.4836462481
 20
18.653740894
 30
0.0
 11
53.4084897509
 21
18.653740894
 31
0.0
  0
LINE
  5
8E
330
1F
100
AcDbEntity
  8
SLD-0
  6
Continuous
370
    15
100
AcDbLine
 10
52.4836462481
 20
18.653740894
 30
0.0
 11
52.4836462481
 21
21.7787408471
 31
0.0
  0
LINE
  5
8F
330
1F
100
AcDbEntity
  8
SLD-0
  6
Continuous
370
    15
100
AcDbLine
 10
52.4836462481
 20
21.7787408471
 30
0.0
 11
53.4084897509
 21
21.7787408471
 31
0.0
  0
CIRCLE
  5
90
330
1F
100
AcDbEntity
  8
SLD-0
  6
Continuous
370
    15
100
AcDbCircle
 10
52.6706473424
 20
20.2162411246
 30
0.0
 40
0.09375
  0
LINE
  5
91
330
1F
100
AcDbEntity
  8
SLD-0
  6
Continuous
370
    15
100
AcDbLine
 10
52.4836462481
 20
38.5667422173
 30
0.0
 11
53.4084897509
 21
38.5667422173
 31
0.0
  0
LINE
  5
92
330
1F
100
AcDbEntity
  8
SLD-0
  6
Continuous
370
    15
100
AcDbLine
 10
52.4836462481
 20
38.5667422173
 30
0.0
 11
52.4836462481
 21
41.6917409971
 31
0.0
  0
LINE
  5
93
330
1F
100
AcDbEntity
  8
SLD-0
  6
Continuous
370
    15
100
AcDbLine
 10
52.4836462481
 20
41.6917409971
 30
0.0
 11
53.4084897509
 21
41.6917409971
 31
0.0
  0
CIRCLE
  5
94
330
1F
100
AcDbEntity
  8
SLD-0
  6
Continuous
370
    15
100
AcDbCircle
 10
52.6706473424
 20
40.1292411246
 30
0.0
 40
0.09375
  0
LINE
  5
95
330
1F
100
AcDbEntity
  8
SLD-0
  6
Continuous
370
    15
100
AcDbLine
 10
97.4883350967
 20
18.1537412301
 30
0.0
 11
96.5634915939
 21
18.1537412301
 31
0.0
  0
CIRCLE
  5
96
330
1F
100
AcDbEntity
  8
SLD-0
  6
Continuous
370
    15
100
AcDbCircle
 10
97.3013340024
 20
19.7162411246
 30
0.0
 40
0.09375
  0
LINE
  5
97
330
1F
100
AcDbEntity
  8
SLD-0
  6
Continuous
370
    15
100
AcDbLine
 10
97.4883350967
 20
21.2787411831
 30
0.0
 11
96.5634915939
 21
21.2787411831
 31
0.0
  0
LINE
  5
98
330
1F
100
AcDbEntity
  8
SLD-0
  6
Continuous
370
    15
100
AcDbLine
 10
97.4883350967
 20
21.2787411831
 30
0.0
 11
97.4883350967
 21
18.1537412301
 31
0.0
  0
SPLINE
  5
99
330
1F
100
AcDbEntity
  8
SLD-0
  6
Continuous
370
    15
100
AcDbSpline
210
0.0
220
0.0
230
1.0
 70
     8
 71
     3
 72
    11
 73
     7
 74
     0
 42
0.00000001
 43
0.00000001
 12
1.0
 22
0.0
 32
0.0
 13
1.0
 23
0.0
 33
0.0
 40
0.0
 40
0.0
 40
0.0
 40
0.0
 40
0.2500039819398441
 40
0.5000054576041462
 40
0.7500022452690907
 40
1.0
 40
1.0
 40
1.0
 40
1.0
 10
53.47309039126583
 20
13.06976653723686
 30
0.0
 10
53.4646252506435
 20
13.07527582441617
 30
0.0
 10
53.44769505426138
 20
13.08629434354449
 30
0.0
 10
53.42634133306171
 20
13.10282219649219
 30
0.0
 10
53.41140469329434
 20
13.11935030562924
 30
0.0
 10
53.40946139959851
 20
13.13036889044545
 30
0.0
 10
53.40848975087127
 20
13.13587819350936
 30
0.0
  0
LINE
  5
9A
330
1F
100
AcDbEntity
  8
SLD-0
  6
Continuous
370
    15
100
AcDbLine
 10
53.4084897509
 20
46.7690030908
 30
0.0
 11
53.4084897509
 21
13.1358781935
 31
0.0
  0
SPLINE
  5
9B
330
1F
100
AcDbEntity
  8
SLD-0
  6
Continuous
370
    15
100
AcDbSpline
210
0.0
220
0.0
230
1.0
 70
     8
 71
     3
 72
    11
 73
     7
 74
     0
 42
0.00000001
 43
0.00000001
 12
1.0
 22
0.0
 32
0.0
 13
1.0
 23
0.0
 33
0.0
 40
0.0
 40
0.0
 40
0.0
 40
0.0
 40
0.2500056762961815
 40
0.4999998789945847
 40
0.7499986029667137
 40
1.0
 40
1.0
 40
1.0
 40
1.0
 10
53.40848975087127
 20
46.76900309078052
 30
0.0
 10
53.40946134049207
 20
46.77451313619599
 30
0.0
 10
53.41140447514415
 20
46.78553297415249
 30
0.0
 10
53.42634132706544
 20
46.8020602612181
 30
0.0
 10
53.44769506367215
 20
46.81858769788946
 30
0.0
 10
53.46462525189767
 20
46.82960585769533
 30
0.0
 10
53.47309039126583
 20
46.83511496705049
 30
0.0
  0
LINE
  5
9C
330
1F
100
AcDbEntity
  8
SLD-0
  6
Continuous
370
    15
100
AcDbLine
 10
53.4730903913
 20
13.0697665372
 30
0.0
 11
53.4730903913
 21
46.8351149671
 31
0.0
  0
LINE
  5
9D
330
1F
100
AcDbEntity
  8
SLD-0
  6
Continuous
370
    15
100
AcDbLine
 10
53.47320303
 20
47.2728406837
 30
0.0
 11
53.47320303
 21
46.8352276057
 31
0.0
  0
LINE
  5
9E
330
1F
100
AcDbEntity
  8
SLD-0
  6
Continuous
370
    15
100
AcDbLine
 10
53.47320303
 20
47.2728406837
 30
0.0
 11
96.4987783148
 21
47.2728406837
 31
0.0
  0
LINE
  5
9F
330
1F
100
AcDbEntity
  8
SLD-0
  6
Continuous
370
    15
100
AcDbLine
 10
96.4987783148
 20
46.8352276057
 30
0.0
 11
96.4987783148
 21
47.2728406837
 31
0.0
  0
LINE
  5
A0
330
1F
100
AcDbEntity
  8
SLD-0
  6
Continuous
370
    15
100
AcDbLine
 10
96.4988909535
 20
46.8351149671
 30
0.0
 11
96.4987783148
 21
46.8352276057
 31
0.0
  0
LINE
  5
A1
330
1F
100
AcDbEntity
  8
SLD-0
  6
Continuous
370
    15
100
AcDbLine
 10
96.4988909535
 20
46.8351149671
 30
0.0
 11
96.4988909535
 21
13.0697665372
 31
0.0
  0
LINE
  5
A2
330
1F
100
AcDbEntity
  8
SLD-0
  6
Continuous
370
    15
100
AcDbLine
 10
96.4987783148
 20
12.6320411248
 30
0.0
 11
96.4987783148
 21
13.0696538252
 31
0.0
  0
LINE
  5
A3
330
1F
100
AcDbEntity
  8
SLD-0
  6
Continuous
370
    15
100
AcDbLine
 10
96.4987783148
 20
12.6320411248
 30
0.0
 11
53.47320303
 21
12.6320411248
 31
0.0
  0
LINE
  5
A4
330
1F
100
AcDbEntity
  8
SLD-0
  6
Continuous
370
    15
100
AcDbLine
 10
53.47320303
 20
13.0696538252
 30
0.0
 11
53.47320303
 21
12.6320411248
 31
0.0
  0
LINE
  5
A5
330
1F
100
AcDbEntity
  8
SLD-0
  6
Continuous
370
    15
100
AcDbLine
 10
53.4730903913
 20
13.0697665372
 30
0.0
 11
53.47320303
 21
13.0696538252
 31
0.0
  0
LINE
  5
A6
330
1F
100
AcDbEntity
  8
SLD-0
  6
Continuous
370
    15
100
AcDbLine
 10
95.0505896044
 20
42.3810921803
 30
0.0
 11
95.0505896044
 21
19.2539408938
 31
0.0
  0
LINE
  5
A7
330
1F
100
AcDbEntity
  8
SLD-0
  6
Continuous
370
    15
100
AcDbLine
 10
95.0505896044
 20
42.3810921803
 30
0.0
 11
95.0505896044
 21
43.0068400449
 31
0.0
  0
LINE
  5
A8
330
1F
100
AcDbEntity
  8
SLD-0
  6
Continuous
370
    15
100
AcDbLine
 10
95.0505896044
 20
43.0068400449
 30
0.0
 11
94.4248417398
 21
43.0068400449
 31
0.0
  0
LINE
  5
A9
330
1F
100
AcDbEntity
  8
SLD-0
  6
Continuous
370
    15
100
AcDbLine
 10
55.547139605
 20
43.0068400449
 30
0.0
 11
94.4248417398
 21
43.0068400449
 31
0.0
  0
LINE
  5
AA
330
1F
100
AcDbEntity
  8
SLD-0
  6
Continuous
370
    15
100
AcDbLine
 10
55.547139605
 20
43.0068400449
 30
0.0
 11
54.9213917404
 21
43.0068400449
 31
0.0
  0
LINE
  5
AB
330
1F
100
AcDbEntity
  8
SLD-0
  6
Continuous
370
    15
100
AcDbLine
 10
54.9213917404
 20
43.0068400449
 30
0.0
 11
54.9213917404
 21
42.3810921803
 31
0.0
  0
LINE
  5
AC
330
1F
100
AcDbEntity
  8
SLD-0
  6
Continuous
370
    15
100
AcDbLine
 10
54.9213917404
 20
19.2539408938
 30
0.0
 11
54.9213917404
 21
42.3810921803
 31
0.0
  0
LINE
  5
AD
330
1F
100
AcDbEntity
  8
SLD-0
  6
Continuous
370
    15
100
AcDbLine
 10
54.9213917404
 20
19.2539408938
 30
0.0
 11
54.9213917404
 21
18.6284411863
 31
0.0
  0
LINE
  5
AE
330
1F
100
AcDbEntity
  8
SLD-0
  6
Continuous
370
    15
100
AcDbLine
 10
54.9213917404
 20
18.6284411863
 30
0.0
 11
55.9218909025
 21
18.6284411863
 31
0.0
  0
LINE
  5
AF
330
1F
100
AcDbEntity
  8
SLD-0
  6
Continuous
370
    15
100
AcDbLine
 10
94.0500904423
 20
18.6284411863
 30
0.0
 11
55.9218909025
 21
18.6284411863
 31
0.0
  0
LINE
  5
B0
330
1F
100
AcDbEntity
  8
SLD-0
  6
Continuous
370
    15
100
AcDbLine
 10
94.0500904423
 20
18.6284411863
 30
0.0
 11
95.0505896044
 21
18.6284411863
 31
0.0
  0
LINE
  5
B1
330
1F
100
AcDbEntity
  8
SLD-0
  6
Continuous
370
    15
100
AcDbLine
 10
95.0505896044
 20
18.6284411863
 30
0.0
 11
95.0505896044
 21
19.2539408938
 31
0.0
  0
LINE
  5
B2
330
1F
100
AcDbEntity
  8
SLD-0
  6
Continuous
370
    15
100
AcDbLine
 10
96.4987783148
 20
13.0696538252
 30
0.0
 11
96.4988909535
 21
13.0697665372
 31
0.0
  0
LINE
  5
B3
330
1F
100
AcDbEntity
  8
SLD-0
  6
Continuous
370
    15
100
AcDbLine
 10
53.47320303
 20
46.8352276057
 30
0.0
 11
53.4730903913
 21
46.8351149671
 31
0.0
  0
SPLINE
  5
B4
330
1F
100
AcDbEntity
  8
SLD-0
  6
Continuous
370
    15
100
AcDbSpline
210
0.0
220
0.0
230
1.0
 70
     8
 71
     3
 72
    11
 73
     7
 74
     0
 42
0.00000001
 43
0.00000001
 12
1.0
 22
0.0
 32
0.0
 13
1.0
 23
0.0
 33
0.0
 40
0.0
 40
0.0
 40
0.0
 40
0.0
 40
0.2500013970332862
 40
0.5000001210054152
 40
0.7499943237038185
 40
1.0
 40
1.0
 40
1.0
 40
1.0
 10
96.4988909535462
 20
46.83511496705049
 30
0.0
 10
96.50735609291438
 20
46.82960585769534
 30
0.0
 10
96.52428628113988
 20
46.81858769788947
 30
0.0
 10
96.54564001774659
 20
46.8020602612181
 30
0.0
 10
96.56057686966788
 20
46.78553297415249
 30
0.0
 10
96.56252000431996
 20
46.77451313619599
 30
0.0
 10
96.56349159394075
 20
46.76900309078052
 30
0.0
  0
LINE
  5
B5
330
1F
100
AcDbEntity
  8
SLD-0
  6
Continuous
370
    15
100
AcDbLine
 10
96.5634915939
 20
13.1358781935
 30
0.0
 11
96.5634915939
 21
46.7690030908
 31
0.0
  0
SPLINE
  5
B6
330
1F
100
AcDbEntity
  8
SLD-0
  6
Continuous
370
    15
100
AcDbSpline
210
0.0
220
0.0
230
1.0
 70
     8
 71
     3
 72
    11
 73
     7
 74
     0
 42
0.00000001
 43
0.00000001
 12
1.0
 22
0.0
 32
0.0
 13
1.0
 23
0.0
 33
0.0
 40
0.0
 40
0.0
 40
0.0
 40
0.0
 40
0.2499977547309094
 40
0.4999945423958539
 40
0.7499960180601559
 40
1.0
 40
1.0
 40
1.0
 40
1.0
 10
96.56349159394075
 20
13.13587819350936
 30
0.0
 10
96.56251994521352
 20
13.13036889044545
 30
0.0
 10
96.56057665151769
 20
13.11935030562924
 30
0.0
 10
96.54564001175034
 20
13.10282219649219
 30
0.0
 10
96.52428629055063
 20
13.08629434354449
 30
0.0
 10
96.50735609416853
 20
13.07527582441617
 30
0.0
 10
96.4988909535462
 20
13.06976653723686
 30
0.0
  0
LINE
  5
B7
330
1F
100
AcDbEntity
  8
SLD-0
  6
Continuous
370
    15
100
AcDbLine
 10
94.9859913107
 20
19.2539408938
 30
0.0
 11
94.9859913107
 21
42.3810921803
 31
0.0
  0
LINE
  5
B8
330
1F
100
AcDbEntity
  8
SLD-0
  6
Continuous
370
    15
100
AcDbLine
 10
94.9859913107
 20
42.3810921803
 30
0.0
 11
95.0505896044
 21
42.3810921803
 31
0.0
  0
LINE
  5
B9
330
1F
100
AcDbEntity
  8
SLD-0
  6
Continuous
370
    15
100
AcDbLine
 10
95.0505896044
 20
19.2539408938
 30
0.0
 11
94.9859913107
 21
19.2539408938
 31
0.0
  0
LINE
  5
BA
330
1F
100
AcDbEntity
  8
SLD-0
  6
Continuous
370
    15
100
AcDbLine
 10
94.4248417398
 20
43.0068400449
 30
0.0
 11
94.4248417398
 21
42.9422417512
 31
0.0
  0
LINE
  5
BB
330
1F
100
AcDbEntity
  8
SLD-0
  6
Continuous
370
    15
100
AcDbLine
 10
94.4248417398
 20
42.9422417512
 30
0.0
 11
55.547139605
 21
42.9422417512
 31
0.0
  0
LINE
  5
BC
330
1F
100
AcDbEntity
  8
SLD-0
  6
Continuous
370
    15
100
AcDbLine
 10
55.547139605
 20
42.9422417512
 30
0.0
 11
55.547139605
 21
43.0068400449
 31
0.0
  0
LINE
  5
BD
330
1F
100
AcDbEntity
  8
SLD-0
  6
Continuous
370
    15
100
AcDbLine
 10
94.0500904423
 20
18.69304124
 30
0.0
 11
94.0500904423
 21
18.6284411863
 31
0.0
  0
LINE
  5
BE
330
1F
100
AcDbEntity
  8
SLD-0
  6
Continuous
370
    15
100
AcDbLine
 10
55.9218909025
 20
18.6284411863
 30
0.0
 11
55.9218909025
 21
18.69304124
 31
0.0
  0
LINE
  5
BF
330
1F
100
AcDbEntity
  8
SLD-0
  6
Continuous
370
    15
100
AcDbLine
 10
94.0500904423
 20
18.69304124
 30
0.0
 11
55.9218909025
 21
18.69304124
 31
0.0
  0
LINE
  5
C0
330
1F
100
AcDbEntity
  8
SLD-0
  6
Continuous
370
    15
100
AcDbLine
 10
53.47320303
 20
12.5674411243
 30
0.0
 11
96.4987783148
 21
12.5674411243
 31
0.0
  0
LINE
  5
C1
330
1F
100
AcDbEntity
  8
SLD-0
  6
Continuous
370
    15
100
AcDbLine
 10
53.47320303
 20
12.5674411243
 30
0.0
 11
53.47320303
 21
12.6320411248
 31
0.0
  0
LINE
  5
C2
330
1F
100
AcDbEntity
  8
SLD-0
  6
Continuous
370
    15
100
AcDbLine
 10
96.4987783148
 20
12.6320411248
 30
0.0
 11
96.4987783148
 21
12.5674411243
 31
0.0
  0
LINE
  5
C3
330
1F
100
AcDbEntity
  8
SLD-0
  6
Continuous
370
    15
100
AcDbLine
 10
54.9213917404
 20
42.3810921803
 30
0.0
 11
54.9859900341
 21
42.3810921803
 31
0.0
  0
LINE
  5
C4
330
1F
100
AcDbEntity
  8
SLD-0
  6
Continuous
370
    15
100
AcDbLine
 10
54.9859900341
 20
42.3810921803
 30
0.0
 11
54.9859900341
 21
19.2539408938
 31
0.0
  0
SPLINE
  5
C5
330
1F
100
AcDbEntity
  8
SLD-0
  6
Continuous
370
    15
100
AcDbSpline
210
0.0
220
0.0
230
1.0
 70
    24
 71
     3
 72
    11
 73
     7
 74
     0
 42
0.00000001
 43
0.00000001
 12
1.0
 22
0.0
 32
0.0
 13
1.0
 23
0.0
 33
0.0
 40
0.0
 40
0.0
 40
0.0
 40
0.0
 40
0.2499957386082451
 40
0.5000078047835959
 40
0.7500134052301316
 40
1.0
 40
1.0
 40
1.0
 40
1.0
 10
54.98599003412005
 20
19.25394089379364
 30
0.0
 10
54.98501952059829
 20
19.25394089379364
 30
0.0
 10
54.98307843016919
 20
19.25394089379364
 30
0.0
 10
54.96813795926725
 20
19.25394089379364
 30
0.0
 10
54.9467855198484
 20
19.25394089379364
 30
0.0
 10
54.92985611901968
 20
19.25394089379364
 30
0.0
 10
54.92139174036505
 20
19.25394089379364
 30
0.0
  0
LINE
  5
C6
330
1F
100
AcDbEntity
  8
SLD-0
  6
Continuous
370
    15
100
AcDbLine
 10
96.4987783148
 20
47.3374413241
 30
0.0
 11
53.47320303
 21
47.3374413241
 31
0.0
  0
LINE
  5
C7
330
1F
100
AcDbEntity
  8
SLD-0
  6
Continuous
370
    15
100
AcDbLine
 10
53.47320303
 20
47.2728406837
 30
0.0
 11
53.47320303
 21
47.3374413241
 31
0.0
  0
LINE
  5
C8
330
1F
100
AcDbEntity
  8
SLD-0
  6
Continuous
370
    15
100
AcDbLine
 10
96.4987783148
 20
47.3374413241
 30
0.0
 11
96.4987783148
 21
47.2728406837
 31
0.0
  0
LINE
  5
C9
330
1F
100
AcDbEntity
  8
SLD-0
  6
Continuous
370
    15
100
AcDbLine
 10
55.7659907302
 20
18.6591410983
 30
0.0
 11
55.7659907302
 21
18.9479050691
 31
0.0
  0
LINE
  5
CA
330
1F
100
AcDbEntity
  8
SLD-0
  6
Continuous
370
    15
100
AcDbLine
 10
55.7659907302
 20
18.9479050691
 30
0.0
 11
94.2059906147
 21
18.9479050691
 31
0.0
  0
LINE
  5
CB
330
1F
100
AcDbEntity
  8
SLD-0
  6
Continuous
370
    15
100
AcDbLine
 10
94.2059906147
 20
18.9479050691
 30
0.0
 11
94.2059906147
 21
18.6591410983
 31
0.0
  0
LINE
  5
CC
330
1F
100
AcDbEntity
  8
SLD-0
  6
Continuous
370
    15
100
AcDbLine
 10
55.7659907302
 20
19.0294725002
 30
0.0
 11
94.2059906147
 21
19.0294725002
 31
0.0
  0
LINE
  5
CD
330
1F
100
AcDbEntity
  8
SLD-0
  6
Continuous
370
    15
100
AcDbLine
 10
94.2059906147
 20
18.9479050691
 30
0.0
 11
94.2059906147
 21
19.0294725002
 31
0.0
  0
LINE
  5
CE
330
1F
100
AcDbEntity
  8
SLD-0
  6
Continuous
370
    15
100
AcDbLine
 10
55.7659907302
 20
19.0294725002
 30
0.0
 11
55.7659907302
 21
18.9479050691
 31
0.0
  0
LINE
  5
CF
330
1F
100
AcDbEntity
  8
SLD-0
  6
Continuous
370
    15
100
AcDbLine
 10
55.0949726685
 20
42.9461700258
 30
0.0
 11
55.0949726685
 21
42.9392474391
 31
0.0
  0
LINE
  5
D0
330
1F
100
AcDbEntity
  8
SLD-0
  6
Continuous
370
    15
100
AcDbLine
 10
55.0949726685
 20
42.9461700258
 30
0.0
 11
55.547139605
 21
42.9461700258
 31
0.0
  0
LINE
  5
D1
330
1F
100
AcDbEntity
  8
SLD-0
  6
Continuous
370
    15
100
AcDbLine
 10
72.4859905926
 20
42.9392474391
 30
0.0
 11
72.4859905926
 21
42.9422417512
 31
0.0
  0
SPLINE
  5
D2
330
1F
100
AcDbEntity
  8
SLD-0
  6
Continuous
370
    15
100
AcDbSpline
210
0.0
220
0.0
230
1.0
 70
     8
 71
     3
 72
    10
 73
     6
 74
     0
 42
0.00000001
 43
0.00000001
 12
1.0
 22
0.0
 32
0.0
 13
1.0
 23
0.0
 33
0.0
 40
0.0
 40
0.0
 40
0.0
 40
0.0
 40
0.1702362921134507
 40
0.585113952411149
 40
1.0
 40
1.0
 40
1.0
 40
1.0
 10
55.05282936865302
 20
42.91854303829029
 30
0.0
 10
55.05410681307649
 20
42.92152349478339
 30
0.0
 10
55.05849747822971
 20
42.93176753062919
 30
0.0
 10
55.0738134328224
 20
42.94305510848451
 30
0.0
 10
55.08791954239685
 20
42.94513171303646
 30
0.0
 10
55.09497266847669
 20
42.94617002580765
 30
0.0
  0
SPLINE
  5
D3
330
1F
100
AcDbEntity
  8
SLD-0
  6
Continuous
370
    15
100
AcDbSpline
210
0.0
220
0.0
230
1.0
 70
     8
 71
     3
 72
    10
 73
     6
 74
     0
 42
0.00000001
 43
0.00000001
 12
1.0
 22
0.0
 32
0.0
 13
1.0
 23
0.0
 33
0.0
 40
0.0
 40
0.0
 40
0.0
 40
0.0
 40
0.4135426460546022
 40
0.8270769319761108
 40
1.0
 40
1.0
 40
1.0
 40
1.0
 10
94.87700867633534
 20
42.94617002580764
 30
0.0
 10
94.88406308674716
 20
42.94513267327381
 30
0.0
 10
94.89817176495963
 20
42.94305798917716
 30
0.0
 10
94.91352194551423
 20
42.93172213364569
 30
0.0
 10
94.91793335765834
 20
42.9214172700425
 30
0.0
 10
94.91923410854353
 20
42.91837877352123
 30
0.0
  0
LINE
  5
D4
330
1F
100
AcDbEntity
  8
SLD-0
  6
Continuous
370
    15
100
AcDbLine
 10
94.8770086763
 20
42.9461700258
 30
0.0
 11
94.8770086763
 21
42.9392474391
 31
0.0
  0
LINE
  5
D5
330
1F
100
AcDbEntity
  8
SLD-0
  6
Continuous
370
    15
100
AcDbLine
 10
77.4859907522
 20
42.9392474391
 30
0.0
 11
77.4859907522
 21
42.9422417512
 31
0.0
  0
LINE
  5
D6
330
1F
100
AcDbEntity
  8
SLD-0
  6
Continuous
370
    15
100
AcDbLine
 10
94.4248417398
 20
42.9461700258
 30
0.0
 11
94.8770086763
 21
42.9461700258
 31
0.0
  0
ARC
  5
D7
330
1F
100
AcDbEntity
  8
SLD-0
  6
Continuous
370
    15
100
AcDbCircle
 10
55.5886926801
 20
42.1267410919
 30
0.0
 40
0.5559191876263143
100
AcDbArc
 50
173.7376097942
 51
186.2623902058
  0
ARC
  5
D8
330
1F
100
AcDbEntity
  8
SLD-0
  6
Continuous
370
    15
100
AcDbCircle
 10
94.3832886647
 20
42.1267410919
 30
0.0
 40
0.5559191876280236
100
AcDbArc
 50
353.7376097942
 51
6.2623902058
  0
LINE
  5
D9
330
1F
100
AcDbEntity
  8
SLD-0
  6
Continuous
370
    15
100
AcDbLine
 10
55.045991261
 20
18.6284411863
 30
0.0
 11
55.045991261
 21
18.6591410983
 31
0.0
  0
LINE
  5
DA
330
1F
100
AcDbEntity
  8
SLD-0
  6
Continuous
370
    15
100
AcDbLine
 10
55.045991261
 20
18.6591410983
 30
0.0
 11
55.9218909025
 21
18.6591410983
 31
0.0
  0
LINE
  5
DB
330
1F
100
AcDbEntity
  8
SLD-0
  6
Continuous
370
    15
100
AcDbLine
 10
94.0500904423
 20
18.6591410983
 30
0.0
 11
94.9259900838
 21
18.6591410983
 31
0.0
  0
LINE
  5
DC
330
1F
100
AcDbEntity
  8
SLD-0
  6
Continuous
370
    15
100
AcDbLine
 10
94.9259900838
 20
18.6591410983
 30
0.0
 11
94.9259900838
 21
18.6284411863
 31
0.0
  0
LINE
  5
DD
330
1F
100
AcDbEntity
  8
SLD-0
  6
Continuous
370
    15
100
AcDbLine
 10
54.9990256169
 20
42.8849696661
 30
0.0
 11
55.0360907887
 21
42.8849696661
 31
0.0
  0
LINE
  5
DE
330
1F
100
AcDbEntity
  8
SLD-0
  6
Continuous
370
    15
100
AcDbLine
 10
54.9990256169
 20
42.9125708406
 30
0.0
 11
55.0442242414
 21
42.9125708406
 31
0.0
  0
LINE
  5
DF
330
1F
100
AcDbEntity
  8
SLD-0
  6
Continuous
370
    15
100
AcDbLine
 10
54.9990256169
 20
42.9125708406
 30
0.0
 11
54.9990256169
 21
42.8849696661
 31
0.0
  0
LINE
  5
E0
330
1F
100
AcDbEntity
  8
SLD-0
  6
Continuous
370
    15
100
AcDbLine
 10
94.9277571034
 20
42.9125708406
 30
0.0
 11
94.9729557279
 21
42.9125708406
 31
0.0
  0
LINE
  5
E1
330
1F
100
AcDbEntity
  8
SLD-0
  6
Continuous
370
    15
100
AcDbLine
 10
94.9358905561
 20
42.8849696661
 30
0.0
 11
94.9729557279
 21
42.8849696661
 31
0.0
  0
LINE
  5
E2
330
1F
100
AcDbEntity
  8
SLD-0
  6
Continuous
370
    15
100
AcDbLine
 10
94.9729557279
 20
42.9125708406
 30
0.0
 11
94.9729557279
 21
42.8849696661
 31
0.0
  0
LINE
  5
E3
330
1F
100
AcDbEntity
  8
SLD-0
  6
Continuous
370
    15
100
AcDbLine
 10
85.2930335246
 20
50.2222286922
 30
0.0
 11
85.2671207572
 21
50.2373457442
 31
0.0
  0
LINE
  5
E4
330
1F
100
AcDbEntity
  8
SLD-0
  6
Continuous
370
    15
100
AcDbLine
 10
85.2930335246
 20
50.2222286922
 30
0.0
 11
84.5569584011
 21
48.9603866291
 31
0.0
  0
LINE
  5
E5
330
1F
100
AcDbEntity
  8
SLD-0
  6
Continuous
370
    15
100
AcDbLine
 10
84.5569584011
 20
48.9603866291
 30
0.0
 11
84.5310450471
 21
48.9755013345
 31
0.0
  0
LINE
  5
E6
330
1F
100
AcDbEntity
  8
SLD-0
  6
Continuous
370
    15
100
AcDbLine
 10
85.2671207572
 20
50.2373457442
 30
0.0
 11
84.5310450471
 21
48.9755013345
 31
0.0
  0
ARC
  5
E7
330
1F
100
AcDbEntity
  8
SLD-0
  6
Continuous
370
    15
100
AcDbCircle
 10
85.3059906724
 20
50.2146716018
 30
0.0
 40
0.0450000000000053
100
AcDbArc
 50
30.2564371635
 51
149.7435628365
  0
LINE
  5
E8
330
1F
100
AcDbEntity
  8
SLD-0
  6
Continuous
370
    15
100
AcDbLine
 10
85.3448602325
 20
50.2373457442
 30
0.0
 11
85.3189474652
 21
50.2222286922
 31
0.0
  0
ARC
  5
E9
330
1F
100
AcDbEntity
  8
SLD-0
  6
Continuous
370
    15
100
AcDbCircle
 10
85.3059906724
 20
50.2146716018
 30
0.0
 40
0.0149999999999895
100
AcDbArc
 50
30.2564371635
 51
149.7435628365
  0
LINE
  5
EA
330
1F
100
AcDbEntity
  8
SLD-0
  6
Continuous
370
    15
100
AcDbLine
 10
84.4309907896
 20
48.744441817
 30
0.0
 11
84.4050774356
 21
48.7595565224
 31
0.0
  0
LINE
  5
EB
330
1F
100
AcDbEntity
  8
SLD-0
  6
Continuous
370
    15
100
AcDbLine
 10
84.5310450471
 20
48.9755013345
 30
0.0
 11
84.4050774356
 21
48.7595565224
 31
0.0
  0
LINE
  5
EC
330
1F
100
AcDbEntity
  8
SLD-0
  6
Continuous
370
    15
100
AcDbLine
 10
84.5569584011
 20
48.9603866291
 30
0.0
 11
84.4309907896
 21
48.744441817
 31
0.0
  0
LINE
  5
ED
330
1F
100
AcDbEntity
  8
SLD-0
  6
Continuous
370
    15
100
AcDbLine
 10
86.1809902001
 20
48.744441817
 30
0.0
 11
86.2069041408
 21
48.7595565224
 31
0.0
  0
LINE
  5
EE
330
1F
100
AcDbEntity
  8
SLD-0
  6
Continuous
370
    15
100
AcDbLine
 10
86.0550225887
 20
48.9603866291
 30
0.0
 11
86.0809365293
 21
48.9755013345
 31
0.0
  0
LINE
  5
EF
330
1F
100
AcDbEntity
  8
SLD-0
  6
Continuous
370
    15
100
AcDbLine
 10
86.0550225887
 20
48.9603866291
 30
0.0
 11
86.1809902001
 21
48.744441817
 31
0.0
  0
LINE
  5
F0
330
1F
100
AcDbEntity
  8
SLD-0
  6
Continuous
370
    15
100
AcDbLine
 10
86.0809365293
 20
48.9755013345
 30
0.0
 11
86.2069041408
 21
48.7595565224
 31
0.0
  0
LINE
  5
F1
330
1F
100
AcDbEntity
  8
SLD-0
  6
Continuous
370
    15
100
AcDbLine
 10
86.0550225887
 20
48.9603866291
 30
0.0
 11
85.3189474652
 21
50.2222286922
 31
0.0
  0
LINE
  5
F2
330
1F
100
AcDbEntity
  8
SLD-0
  6
Continuous
370
    15
100
AcDbLine
 10
86.0809365293
 20
48.9755013345
 30
0.0
 11
85.3448602325
 21
50.2373457442
 31
0.0
  0
LINE
  5
F3
330
1F
100
AcDbEntity
  8
SLD-0
  6
Continuous
370
    15
100
AcDbLine
 10
84.4221727048
 20
48.729324765
 30
0.0
 11
84.3962593508
 21
48.744441817
 31
0.0
  0
LINE
  5
F4
330
1F
100
AcDbEntity
  8
SLD-0
  6
Continuous
370
    15
100
AcDbLine
 10
84.3962593508
 20
48.744441817
 30
0.0
 11
84.4050774356
 21
48.7595565224
 31
0.0
  0
LINE
  5
F5
330
1F
100
AcDbEntity
  8
SLD-0
  6
Continuous
370
    15
100
AcDbLine
 10
84.4309907896
 20
48.744441817
 30
0.0
 11
84.4221727048
 21
48.729324765
 31
0.0
  0
LINE
  5
F6
330
1F
100
AcDbEntity
  8
SLD-0
  6
Continuous
370
    15
100
AcDbLine
 10
86.2157216389
 20
48.744441817
 30
0.0
 11
86.1898088716
 21
48.729324765
 31
0.0
  0
LINE
  5
F7
330
1F
100
AcDbEntity
  8
SLD-0
  6
Continuous
370
    15
100
AcDbLine
 10
87.0017402921
 20
47.3374413241
 30
0.0
 11
86.1898088716
 21
48.729324765
 31
0.0
  0
LINE
  5
F8
330
1F
100
AcDbEntity
  8
SLD-0
  6
Continuous
370
    15
100
AcDbLine
 10
87.0364717309
 20
47.3374413241
 30
0.0
 11
86.2157216389
 21
48.744441817
 31
0.0
  0
LINE
  5
F9
330
1F
100
AcDbEntity
  8
SLD-0
  6
Continuous
370
    15
100
AcDbLine
 10
84.3962593508
 20
48.744441817
 30
0.0
 11
83.5755098455
 21
47.3374413241
 31
0.0
  0
LINE
  5
FA
330
1F
100
AcDbEntity
  8
SLD-0
  6
Continuous
370
    15
100
AcDbLine
 10
83.6102406977
 20
47.3374413241
 30
0.0
 11
84.4221727048
 21
48.729324765
 31
0.0
  0
LINE
  5
FB
330
1F
100
AcDbEntity
  8
SLD-0
  6
Continuous
370
    15
100
AcDbLine
 10
86.1898088716
 20
48.729324765
 30
0.0
 11
86.1809902001
 21
48.744441817
 31
0.0
  0
LINE
  5
FC
330
1F
100
AcDbEntity
  8
SLD-0
  6
Continuous
370
    15
100
AcDbLine
 10
86.2157216389
 20
48.744441817
 30
0.0
 11
86.2069041408
 21
48.7595565224
 31
0.0
  0
LINE
  5
FD
330
1F
100
AcDbEntity
  8
SLD-0
  6
Continuous
370
    15
100
AcDbLine
 10
64.6530338796
 20
50.2222286922
 30
0.0
 11
64.6271211123
 21
50.2373457442
 31
0.0
  0
LINE
  5
FE
330
1F
100
AcDbEntity
  8
SLD-0
  6
Continuous
370
    15
100
AcDbLine
 10
64.6530338796
 20
50.2222286922
 30
0.0
 11
63.9169587561
 21
48.9603866291
 31
0.0
  0
LINE
  5
FF
330
1F
100
AcDbEntity
  8
SLD-0
  6
Continuous
370
    15
100
AcDbLine
 10
63.9169587561
 20
48.9603866291
 30
0.0
 11
63.8910448155
 21
48.9755013345
 31
0.0
  0
LINE
  5
100
330
1F
100
AcDbEntity
  8
SLD-0
  6
Continuous
370
    15
100
AcDbLine
 10
64.6271211123
 20
50.2373457442
 30
0.0
 11
63.8910448155
 21
48.9755013345
 31
0.0
  0
LINE
  5
101
330
1F
100
AcDbEntity
  8
SLD-0
  6
Continuous
370
    15
100
AcDbLine
 10
64.7048605876
 20
50.2373457442
 30
0.0
 11
64.6789478202
 21
50.2222286922
 31
0.0
  0
LINE
  5
102
330
1F
100
AcDbEntity
  8
SLD-0
  6
Continuous
370
    15
100
AcDbLine
 10
65.4150229437
 20
48.9603866291
 30
0.0
 11
65.4409362977
 21
48.9755013345
 31
0.0
  0
LINE
  5
103
330
1F
100
AcDbEntity
  8
SLD-0
  6
Continuous
370
    15
100
AcDbLine
 10
65.4150229437
 20
48.9603866291
 30
0.0
 11
64.6789478202
 21
50.2222286922
 31
0.0
  0
LINE
  5
104
330
1F
100
AcDbEntity
  8
SLD-0
  6
Continuous
370
    15
100
AcDbLine
 10
65.4409362977
 20
48.9755013345
 30
0.0
 11
64.7048605876
 21
50.2373457442
 31
0.0
  0
LINE
  5
105
330
1F
100
AcDbEntity
  8
SLD-0
  6
Continuous
370
    15
100
AcDbLine
 10
65.5409905552
 20
48.744441817
 30
0.0
 11
65.5669039092
 21
48.7595565224
 31
0.0
  0
LINE
  5
106
330
1F
100
AcDbEntity
  8
SLD-0
  6
Continuous
370
    15
100
AcDbLine
 10
65.4150229437
 20
48.9603866291
 30
0.0
 11
65.5409905552
 21
48.744441817
 31
0.0
  0
LINE
  5
107
330
1F
100
AcDbEntity
  8
SLD-0
  6
Continuous
370
    15
100
AcDbLine
 10
65.4409362977
 20
48.9755013345
 30
0.0
 11
65.5669039092
 21
48.7595565224
 31
0.0
  0
ARC
  5
108
330
1F
100
AcDbEntity
  8
SLD-0
  6
Continuous
370
    15
100
AcDbCircle
 10
64.6659906724
 20
50.2146716018
 30
0.0
 40
0.0449999999999966
100
AcDbArc
 50
30.2564371635
 51
149.7435628365
  0
ARC
  5
109
330
1F
100
AcDbEntity
  8
SLD-0
  6
Continuous
370
    15
100
AcDbCircle
 10
64.6659906724
 20
50.2146716018
 30
0.0
 40
0.0150000000000053
100
AcDbArc
 50
30.2564371635
 51
149.7435628365
  0
LINE
  5
10A
330
1F
100
AcDbEntity
  8
SLD-0
  6
Continuous
370
    15
100
AcDbLine
 10
63.7909911447
 20
48.744441817
 30
0.0
 11
63.765077204
 21
48.7595565224
 31
0.0
  0
LINE
  5
10B
330
1F
100
AcDbEntity
  8
SLD-0
  6
Continuous
370
    15
100
AcDbLine
 10
63.9169587561
 20
48.9603866291
 30
0.0
 11
63.7909911447
 21
48.744441817
 31
0.0
  0
LINE
  5
10C
330
1F
100
AcDbEntity
  8
SLD-0
  6
Continuous
370
    15
100
AcDbLine
 10
63.8910448155
 20
48.9755013345
 30
0.0
 11
63.765077204
 21
48.7595565224
 31
0.0
  0
LINE
  5
10D
330
1F
100
AcDbEntity
  8
SLD-0
  6
Continuous
370
    15
100
AcDbLine
 10
65.575721994
 20
48.744441817
 30
0.0
 11
65.54980864
 21
48.729324765
 31
0.0
  0
LINE
  5
10E
330
1F
100
AcDbEntity
  8
SLD-0
  6
Continuous
370
    15
100
AcDbLine
 10
65.54980864
 20
48.729324765
 30
0.0
 11
65.5409905552
 21
48.744441817
 31
0.0
  0
LINE
  5
10F
330
1F
100
AcDbEntity
  8
SLD-0
  6
Continuous
370
    15
100
AcDbLine
 10
65.575721994
 20
48.744441817
 30
0.0
 11
65.5669039092
 21
48.7595565224
 31
0.0
  0
LINE
  5
110
330
1F
100
AcDbEntity
  8
SLD-0
  6
Continuous
370
    15
100
AcDbLine
 10
66.3617406471
 20
47.3374413241
 30
0.0
 11
65.54980864
 21
48.729324765
 31
0.0
  0
LINE
  5
111
330
1F
100
AcDbEntity
  8
SLD-0
  6
Continuous
370
    15
100
AcDbLine
 10
66.3964714993
 20
47.3374413241
 30
0.0
 11
65.575721994
 21
48.744441817
 31
0.0
  0
LINE
  5
112
330
1F
100
AcDbEntity
  8
SLD-0
  6
Continuous
370
    15
100
AcDbLine
 10
63.7821724732
 20
48.729324765
 30
0.0
 11
63.7562597059
 21
48.744441817
 31
0.0
  0
LINE
  5
113
330
1F
100
AcDbEntity
  8
SLD-0
  6
Continuous
370
    15
100
AcDbLine
 10
62.9702410527
 20
47.3374413241
 30
0.0
 11
63.7821724732
 21
48.729324765
 31
0.0
  0
LINE
  5
114
330
1F
100
AcDbEntity
  8
SLD-0
  6
Continuous
370
    15
100
AcDbLine
 10
63.7562597059
 20
48.744441817
 30
0.0
 11
62.9355096139
 21
47.3374413241
 31
0.0
  0
LINE
  5
115
330
1F
100
AcDbEntity
  8
SLD-0
  6
Continuous
370
    15
100
AcDbLine
 10
63.7909911447
 20
48.744441817
 30
0.0
 11
63.7821724732
 21
48.729324765
 31
0.0
  0
LINE
  5
116
330
1F
100
AcDbEntity
  8
SLD-0
  6
Continuous
370
    15
100
AcDbLine
 10
63.7562597059
 20
48.744441817
 30
0.0
 11
63.765077204
 21
48.7595565224
 31
0.0
  0
ARC
  5
117
330
1F
100
AcDbEntity
  8
SLD-0
  6
Continuous
370
    15
100
AcDbCircle
 10
53.4859906724
 20
47.1917411246
 30
0.0
 40
0.0310000000000037
100
AcDbArc
 50
114.3615754613
 51
180.0
  0
LINE
  5
118
330
1F
100
AcDbEntity
  8
SLD-0
  6
Continuous
370
    15
100
AcDbLine
 10
53.4549907604
 20
47.1917408206
 30
0.0
 11
53.4332913844
 21
47.1917408206
 31
0.0
  0
ARC
  5
119
330
1F
100
AcDbEntity
  8
SLD-0
  6
Continuous
370
    15
100
AcDbCircle
 10
53.4859906724
 20
47.1917411246
 30
0.0
 40
0.0526999999999994
100
AcDbArc
 50
104.0426024304
 51
179.9999999999
  0
LINE
  5
11A
330
1F
100
AcDbEntity
  8
SLD-0
  6
Continuous
370
    15
100
AcDbLine
 10
96.5169905845
 20
46.8230156935
 30
0.0
 11
96.5169905845
 21
47.1917408206
 31
0.0
  0
LINE
  5
11B
330
1F
100
AcDbEntity
  8
SLD-0
  6
Continuous
370
    15
100
AcDbLine
 10
96.5169905845
 20
47.1917408206
 30
0.0
 11
96.5386899605
 21
47.1917408206
 31
0.0
  0
LINE
  5
11C
330
1F
100
AcDbEntity
  8
SLD-0
  6
Continuous
370
    15
100
AcDbLine
 10
96.5386899605
 20
46.806697162
 30
0.0
 11
96.5386899605
 21
47.1917408206
 31
0.0
  0
LINE
  5
11D
330
1F
100
AcDbEntity
  8
SLD-0
  6
Continuous
370
    15
100
AcDbLine
 10
53.4549907604
 20
46.8230156935
 30
0.0
 11
53.4549907604
 21
47.1917408206
 31
0.0
  0
LINE
  5
11E
330
1F
100
AcDbEntity
  8
SLD-0
  6
Continuous
370
    15
100
AcDbLine
 10
53.4332913844
 20
46.806697162
 30
0.0
 11
53.4332913844
 21
47.1917408206
 31
0.0
  0
ARC
  5
11F
330
1F
100
AcDbEntity
  8
SLD-0
  6
Continuous
370
    15
100
AcDbCircle
 10
96.4859906724
 20
47.1917411246
 30
0.0
 40
0.0527000000000011
100
AcDbArc
 50
360.0
 51
75.9573975696
  0
ARC
  5
120
330
1F
100
AcDbEntity
  8
SLD-0
  6
Continuous
370
    15
100
AcDbCircle
 10
96.4859906724
 20
47.1917411246
 30
0.0
 40
0.030999999999999
100
AcDbArc
 50
0.0
 51
65.6384245387
  0
LINE
  5
121
330
1F
100
AcDbEntity
  8
SLD-0
  6
Continuous
370
    15
100
AcDbLine
 10
53.4549907604
 20
47.1917408206
 30
0.0
 11
53.4637413793
 21
47.1917408206
 31
0.0
  0
SPLINE
  5
122
330
1F
100
AcDbEntity
  8
SLD-0
  6
Continuous
370
    15
100
AcDbSpline
210
0.0
220
0.0
230
1.0
 70
     8
 71
     3
 72
    10
 73
     6
 74
     0
 42
0.00000001
 43
0.00000001
 12
1.0
 22
0.0
 32
0.0
 13
1.0
 23
0.0
 33
0.0
 40
0.0
 40
0.0
 40
0.0
 40
0.0
 40
0.4253404683648004
 40
0.8511705357832082
 40
1.0
 40
1.0
 40
1.0
 40
1.0
 10
53.46374137926641
 20
47.19174082061154
 30
0.0
 10
53.4635879612141
 20
47.19614455580912
 30
0.0
 10
53.46328094851368
 20
47.20495709523664
 30
0.0
 10
53.46775747359721
 20
47.21429656791317
 30
0.0
 10
53.47208282047813
 20
47.21686702143015
 30
0.0
 10
53.47320302996462
 20
47.21753273599445
 30
0.0
  0
LINE
  5
123
330
1F
100
AcDbEntity
  8
SLD-0
  6
Continuous
370
    15
100
AcDbLine
 10
96.5169905845
 20
47.1917408206
 30
0.0
 11
96.5082399655
 21
47.1917408206
 31
0.0
  0
SPLINE
  5
124
330
1F
100
AcDbEntity
  8
SLD-0
  6
Continuous
370
    15
100
AcDbSpline
210
0.0
220
0.0
230
1.0
 70
     8
 71
     3
 72
    10
 73
     6
 74
     0
 42
0.00000001
 43
0.00000001
 12
1.0
 22
0.0
 32
0.0
 13
1.0
 23
0.0
 33
0.0
 40
0.0
 40
0.0
 40
0.0
 40
0.0
 40
0.3057575645269909
 40
0.7316732449169457
 40
1.0
 40
1.0
 40
1.0
 40
1.0
 10
96.49877831484741
 20
47.21761486837899
 30
0.0
 10
96.50089097608425
 20
47.21586752203562
 30
0.0
 10
96.50594654259149
 20
47.21168614856406
 30
0.0
 10
96.50907505753902
 20
47.20176280884269
 30
0.0
 10
96.50847275662909
 20
47.19453456012442
 30
0.0
 10
96.50823996554561
 20
47.19174082061153
 30
0.0
  0
LINE
  5
125
330
1F
100
AcDbEntity
  8
SLD-0
  6
Continuous
370
    15
100
AcDbLine
 10
53.4637413793
 20
47.1917408206
 30
0.0
 11
53.47320303
 21
47.1215340583
 31
0.0
  0
LINE
  5
126
330
1F
100
AcDbEntity
  8
SLD-0
  6
Continuous
370
    15
100
AcDbLine
 10
53.4549907604
 20
47.0991494636
 30
0.0
 11
53.47320303
 21
46.9640064914
 31
0.0
  0
LINE
  5
127
330
1F
100
AcDbEntity
  8
SLD-0
  6
Continuous
370
    15
100
AcDbLine
 10
96.4987783148
 20
47.1215340583
 30
0.0
 11
96.5082399655
 21
47.1917408206
 31
0.0
  0
LINE
  5
128
330
1F
100
AcDbEntity
  8
SLD-0
  6
Continuous
370
    15
100
AcDbLine
 10
96.4987783148
 20
46.9640064914
 30
0.0
 11
96.5169905845
 21
47.0991494636
 31
0.0
  0
ARC
  5
129
330
1F
100
AcDbEntity
  8
SLD-0
  6
Continuous
370
    15
100
AcDbCircle
 10
96.4859906724
 20
12.6537411246
 30
0.0
 40
0.0310000000000059
100
AcDbArc
 50
294.3615754613
 51
0.0
  0
LINE
  5
12A
330
1F
100
AcDbEntity
  8
SLD-0
  6
Continuous
370
    15
100
AcDbLine
 10
96.5169905845
 20
12.6537411247
 30
0.0
 11
96.5386899605
 21
12.6537411247
 31
0.0
  0
ARC
  5
12B
330
1F
100
AcDbEntity
  8
SLD-0
  6
Continuous
370
    15
100
AcDbCircle
 10
96.4859906724
 20
12.6537411246
 30
0.0
 40
0.0527000000000015
100
AcDbArc
 50
284.0426024304
 51
359.9999999999
  0
LINE
  5
12C
330
1F
100
AcDbEntity
  8
SLD-0
  6
Continuous
370
    15
100
AcDbLine
 10
96.5169905845
 20
13.0818676074
 30
0.0
 11
96.5169905845
 21
12.6537411247
 31
0.0
  0
LINE
  5
12D
330
1F
100
AcDbEntity
  8
SLD-0
  6
Continuous
370
    15
100
AcDbLine
 10
96.5386899605
 20
13.0981859189
 30
0.0
 11
96.5386899605
 21
12.6537411247
 31
0.0
  0
LINE
  5
12E
330
1F
100
AcDbEntity
  8
SLD-0
  6
Continuous
370
    15
100
AcDbLine
 10
53.4549907604
 20
13.0818676074
 30
0.0
 11
53.4549907604
 21
12.6537411247
 31
0.0
  0
LINE
  5
12F
330
1F
100
AcDbEntity
  8
SLD-0
  6
Continuous
370
    15
100
AcDbLine
 10
53.4549907604
 20
12.6537411247
 30
0.0
 11
53.4332913844
 21
12.6537411247
 31
0.0
  0
LINE
  5
130
330
1F
100
AcDbEntity
  8
SLD-0
  6
Continuous
370
    15
100
AcDbLine
 10
53.4332913844
 20
13.0981859189
 30
0.0
 11
53.4332913844
 21
12.6537411247
 31
0.0
  0
ARC
  5
131
330
1F
100
AcDbEntity
  8
SLD-0
  6
Continuous
370
    15
100
AcDbCircle
 10
53.4859906724
 20
12.6537411246
 30
0.0
 40
0.0527000000000015
100
AcDbArc
 50
180.0
 51
255.9573975696
  0
ARC
  5
132
330
1F
100
AcDbEntity
  8
SLD-0
  6
Continuous
370
    15
100
AcDbCircle
 10
53.4859906724
 20
12.6537411246
 30
0.0
 40
0.0310000000000038
100
AcDbArc
 50
180.0
 51
245.6384245387
  0
LINE
  5
133
330
1F
100
AcDbEntity
  8
SLD-0
  6
Continuous
370
    15
100
AcDbLine
 10
96.5169905845
 20
12.6537411247
 30
0.0
 11
96.5082399655
 21
12.6537411247
 31
0.0
  0
SPLINE
  5
134
330
1F
100
AcDbEntity
  8
SLD-0
  6
Continuous
370
    15
100
AcDbSpline
210
0.0
220
0.0
230
1.0
 70
     8
 71
     3
 72
    10
 73
     6
 74
     0
 42
0.00000001
 43
0.00000001
 12
1.0
 22
0.0
 32
0.0
 13
1.0
 23
0.0
 33
0.0
 40
0.0
 40
0.0
 40
0.0
 40
0.0
 40
0.4253241259100765
 40
0.8511628507543588
 40
1.0
 40
1.0
 40
1.0
 40
1.0
 10
96.50823996554561
 20
12.65374112465626
 30
0.0
 10
96.50839336193721
 20
12.64933774223543
 30
0.0
 10
96.5087003403144
 20
12.64052564974889
 30
0.0
 10
96.50422375585708
 20
12.63118652841569
 30
0.0
 10
96.49989852124332
 20
12.62861512283767
 30
0.0
 10
96.49877831484741
 20
12.62794914625323
 30
0.0
  0
LINE
  5
135
330
1F
100
AcDbEntity
  8
SLD-0
  6
Continuous
370
    15
100
AcDbLine
 10
53.4549907604
 20
12.6537411247
 30
0.0
 11
53.4637413793
 21
12.6537411247
 31
0.0
  0
SPLINE
  5
136
330
1F
100
AcDbEntity
  8
SLD-0
  6
Continuous
370
    15
100
AcDbSpline
210
0.0
220
0.0
230
1.0
 70
     8
 71
     3
 72
    10
 73
     6
 74
     0
 42
0.00000001
 43
0.00000001
 12
1.0
 22
0.0
 32
0.0
 13
1.0
 23
0.0
 33
0.0
 40
0.0
 40
0.0
 40
0.0
 40
0.0
 40
0.3057760070112593
 40
0.7316621436454682
 40
1.0
 40
1.0
 40
1.0
 40
1.0
 10
53.47320302996462
 20
12.62786641746934
 30
0.0
 10
53.47109039131875
 20
12.62961446445438
 30
0.0
 10
53.4660352604879
 20
12.63379719879242
 30
0.0
 10
53.46290619236824
 20
12.64371853398556
 30
0.0
 10
53.46350855031931
 20
12.65094708030729
 30
0.0
 10
53.46374137926641
 20
12.65374112465626
 30
0.0
  0
LINE
  5
137
330
1F
100
AcDbEntity
  8
SLD-0
  6
Continuous
370
    15
100
AcDbLine
 10
96.5082399655
 20
12.6537411247
 30
0.0
 11
96.4987783148
 21
12.7239493055
 31
0.0
  0
LINE
  5
138
330
1F
100
AcDbEntity
  8
SLD-0
  6
Continuous
370
    15
100
AcDbLine
 10
96.5169905845
 20
12.7463320669
 30
0.0
 11
96.4987783148
 21
12.8814746174
 31
0.0
  0
LINE
  5
139
330
1F
100
AcDbEntity
  8
SLD-0
  6
Continuous
370
    15
100
AcDbLine
 10
53.47320303
 20
12.7239493055
 30
0.0
 11
53.4637413793
 21
12.6537411247
 31
0.0
  0
LINE
  5
13A
330
1F
100
AcDbEntity
  8
SLD-0
  6
Continuous
370
    15
100
AcDbLine
 10
53.47320303
 20
12.8814746174
 30
0.0
 11
53.4549907604
 21
12.7463320669
 31
0.0
  0
LINE
  5
13B
330
1F
100
AcDbEntity
  8
SLD-0
  6
Continuous
370
    15
100
AcDbLine
 10
96.5061561496
 20
11.5984410974
 30
0.0
 11
96.4859914759
 21
11.5984410974
 31
0.0
  0
LINE
  5
13C
330
1F
100
AcDbEntity
  8
SLD-0
  6
Continuous
370
    15
100
AcDbLine
 10
53.4859898689
 20
11.5984410974
 30
0.0
 11
53.4658251952
 21
11.5984410974
 31
0.0
  0
LINE
  5
13D
330
1F
100
AcDbEntity
  8
SLD-0
  6
Continuous
370
    15
100
AcDbLine
 10
96.5169905845
 20
11.5984410974
 30
0.0
 11
96.5061561496
 21
11.5984410974
 31
0.0
  0
LINE
  5
13E
330
1F
100
AcDbEntity
  8
SLD-0
  6
Continuous
370
    15
100
AcDbLine
 10
53.4658251952
 20
11.5984410974
 30
0.0
 11
53.4549907604
 21
11.5984410974
 31
0.0
  0
LINE
  5
13F
330
1F
100
AcDbEntity
  8
SLD-0
  6
Continuous
370
    15
100
AcDbLine
 10
53.4637413793
 20
47.1917408206
 30
0.0
 11
53.47320303
 21
47.1917408206
 31
0.0
  0
LINE
  5
140
330
1F
100
AcDbEntity
  8
SLD-0
  6
Continuous
370
    15
100
AcDbLine
 10
96.4987783148
 20
47.1917408206
 30
0.0
 11
96.5082399655
 21
47.1917408206
 31
0.0
  0
LINE
  5
141
330
1F
100
AcDbEntity
  8
SLD-0
  6
Continuous
370
    15
100
AcDbLine
 10
96.5082399655
 20
12.6537411247
 30
0.0
 11
96.4987783148
 21
12.6537411247
 31
0.0
  0
LINE
  5
142
330
1F
100
AcDbEntity
  8
SLD-0
  6
Continuous
370
    15
100
AcDbLine
 10
53.47320303
 20
12.6537411247
 30
0.0
 11
53.4637413793
 21
12.6537411247
 31
0.0
  0
DIMENSION
  5
143
330
1F
100
AcDbEntity
  8
DIM
100
AcDbDimension
  2
_D
 10
95.0195906724
 20
29.4344411246
 30
0.0
 11
75.0027906724
 21
29.4344411246
 31
0.0
 70
   160
  1
<>
 71
     2
 42
-1.0
  3
SLDDIMSTYLE0
100
AcDbAlignedDimension
 13
54.9859906724
 23
19.2539411346
 33
0.0
 14
95.0195906724
 24
19.2539411697
 34
0.0
 50
0.0
100
AcDbRotatedDimension
  0
DIMENSION
  5
151
330
1F
100
AcDbEntity
  8
DIM
100
AcDbDimension
  2
_D_1
 10
48.4836473424
 20
11.5314411246
 30
0.0
 11
48.4836473424
 21
29.4344411246
 31
0.0
 70
   160
  1
<>
 71
     2
 42
-1.0
  3
SLDDIMSTYLE0
100
AcDbAlignedDimension
 13
53.4732033708
 23
47.3374411246
 33
0.0
 14
53.4859906724
 24
11.5314411246
 34
0.0
 50
90.0
100
AcDbRotatedDimension
  0
DIMENSION
  5
160
330
1F
100
AcDbEntity
  8
DIM
100
AcDbDimension
  2
_D_2
 10
96.5529906724
 20
7.5313417152
 30
0.0
 11
74.9859906724
 21
7.5313417152
 31
0.0
 70
   160
  1
<>
 71
     2
 42
-1.0
  3
SLDDIMSTYLE0
100
AcDbAlignedDimension
 13
53.4189906724
 23
11.5984411246
 33
0.0
 14
96.5529906724
 24
11.5984411246
 34
0.0
 50
0.0
100
AcDbRotatedDimension
  0
DIMENSION
  5
16F
330
1F
100
AcDbEntity
  8
DIM
100
AcDbDimension
  2
_D_3
 10
101.4883340024
 20
18.6930411246
 30
0.0
 11
101.4883340024
 21
29.7239034443
 31
0.0
 70
   160
  1
<>
 71
     2
 42
-1.0
  3
SLDDIMSTYLE0
100
AcDbAlignedDimension
 13
94.8511273866
 23
40.7547657639
 33
0.0
 14
94.0500906724
 24
18.6930411246
 34
0.0
 50
90.0
100
AcDbRotatedDimension
  0
DIMENSION
  5
17E
330
1F
100
AcDbEntity
  8
DIM
100
AcDbDimension
  2
_D_4
 10
105.9883340024
 20
11.5314411246
 30
0.0
 11
105.9883340024
 21
23.7992079392
 31
0.0
 70
   160
  1
<>
 71
     2
 42
-1.0
  3
SLDDIMSTYLE0
100
AcDbAlignedDimension
 13
95.0505906724
 23
43.0068411246
 33
0.0
 14
96.4859906724
 24
11.5314411246
 34
0.0
 50
90.0
100
AcDbRotatedDimension
  0
DIMENSION
  5
18D
330
1F
100
AcDbEntity
  8
DIM
100
AcDbDimension
  2
_D_5
 10
41.3040117609
 20
11.5314411246
 30
0.0
 11
41.3040117609
 21
24.839238435
 31
0.0
 70
   160
  1
<>
 71
     2
 42
-1.0
  3
SLDDIMSTYLE0
100
AcDbAlignedDimension
 13
64.6659906724
 23
50.2596716018
 33
0.0
 14
53.4859906724
 24
11.5314411246
 34
0.0
 50
90.0
100
AcDbRotatedDimension
  0
LINE
  5
19C
330
1F
100
AcDbEntity
  8
SLD-0
  6
Continuous
370
    15
100
AcDbLine
 10
55.0942780632
 20
62.7706485458
 30
0.0
 11
94.8777032816
 21
62.7706485458
 31
0.0
  0
LINE
  5
19D
330
1F
100
AcDbEntity
  8
SLD-0
  6
Continuous
370
    15
100
AcDbLine
 10
93.299310102
 20
83.5950846735
 30
0.0
 11
93.0890218646
 21
84.5880329528
 31
0.0
  0
LINE
  5
19E
330
1F
100
AcDbEntity
  8
SLD-0
  6
Continuous
370
    15
100
AcDbLine
 10
93.1242414045
 20
84.5954916269
 30
0.0
 11
93.0890218646
 21
84.5880329528
 31
0.0
  0
LINE
  5
19F
330
1F
100
AcDbEntity
  8
SLD-0
  6
Continuous
370
    15
100
AcDbLine
 10
96.5413745161
 20
68.4602415925
 30
0.0
 11
93.1242414045
 21
84.5954916269
 31
0.0
  0
LINE
  5
1A0
330
1F
100
AcDbEntity
  8
SLD-0
  6
Continuous
370
    15
100
AcDbLine
 10
96.5413745161
 20
68.4602415925
 30
0.0
 11
96.5250137451
 21
68.4567767791
 31
0.0
  0
LINE
  5
1A1
330
1F
100
AcDbEntity
  8
SLD-0
  6
Continuous
370
    15
100
AcDbLine
 10
53.4306068287
 20
68.4602415925
 30
0.0
 11
53.4469675997
 21
68.4567767791
 31
0.0
  0
LINE
  5
1A2
330
1F
100
AcDbEntity
  8
SLD-0
  6
Continuous
370
    15
100
AcDbLine
 10
53.4306068287
 20
68.4602415925
 30
0.0
 11
56.8477399404
 21
84.5954916269
 31
0.0
  0
LINE
  5
1A3
330
1F
100
AcDbEntity
  8
SLD-0
  6
Continuous
370
    15
100
AcDbLine
 10
56.8477399404
 20
84.5954916269
 30
0.0
 11
56.8829594802
 21
84.5880329528
 31
0.0
  0
LINE
  5
1A4
330
1F
100
AcDbEntity
  8
SLD-0
  6
Continuous
370
    15
100
AcDbLine
 10
56.6726712428
 20
83.5950846735
 30
0.0
 11
56.8829594802
 21
84.5880329528
 31
0.0
  0
LINE
  5
1A5
330
1F
100
AcDbEntity
  8
SLD-0
  6
Continuous
370
    15
100
AcDbLine
 10
53.4420912827
 20
65.4603797138
 30
0.0
 11
53.4549907604
 21
65.4603797138
 31
0.0
  0
LINE
  5
1A6
330
1F
100
AcDbEntity
  8
SLD-0
  6
Continuous
370
    15
100
AcDbLine
 10
53.4189909629
 20
66.143379717
 30
0.0
 11
53.4189909629
 21
66.1810550151
 31
0.0
  0
LINE
  5
1A7
330
1F
100
AcDbEntity
  8
SLD-0
  6
Continuous
370
    15
100
AcDbLine
 10
53.4189909629
 20
66.229054354
 30
0.0
 11
53.4189909629
 21
68.3983794804
 31
0.0
  0
LINE
  5
1A8
330
1F
100
AcDbEntity
  8
SLD-0
  6
Continuous
370
    15
100
AcDbLine
 10
53.4549907604
 20
65.4603797138
 30
0.0
 11
53.4549907604
 21
66.1912382575
 31
0.0
  0
LINE
  5
1A9
330
1F
100
AcDbEntity
  8
SLD-0
  6
Continuous
370
    15
100
AcDbLine
 10
53.4549907604
 20
68.3621989917
 30
0.0
 11
53.4549907604
 21
68.3983794804
 31
0.0
  0
LINE
  5
1AA
330
1F
100
AcDbEntity
  8
SLD-0
  6
Continuous
370
    15
100
AcDbLine
 10
53.4189909629
 20
68.3983794804
 30
0.0
 11
53.4549907604
 21
68.3983794804
 31
0.0
  0
LINE
  5
1AB
330
1F
100
AcDbEntity
  8
SLD-0
  6
Continuous
370
    15
100
AcDbLine
 10
96.5298900621
 20
65.4603797138
 30
0.0
 11
96.5169905845
 21
65.4603797138
 31
0.0
  0
LINE
  5
1AC
330
1F
100
AcDbEntity
  8
SLD-0
  6
Continuous
370
    15
100
AcDbLine
 10
96.5169905845
 20
65.4603797138
 30
0.0
 11
96.5169905845
 21
66.1912382575
 31
0.0
  0
LINE
  5
1AD
330
1F
100
AcDbEntity
  8
SLD-0
  6
Continuous
370
    15
100
AcDbLine
 10
96.5169905845
 20
68.3621989917
 30
0.0
 11
96.5169905845
 21
68.3983794804
 31
0.0
  0
LINE
  5
1AE
330
1F
100
AcDbEntity
  8
SLD-0
  6
Continuous
370
    15
100
AcDbLine
 10
96.5529903819
 20
68.3983794804
 30
0.0
 11
96.5169905845
 21
68.3983794804
 31
0.0
  0
LINE
  5
1AF
330
1F
100
AcDbEntity
  8
SLD-0
  6
Continuous
370
    15
100
AcDbLine
 10
96.5529903819
 20
66.143379717
 30
0.0
 11
96.5529903819
 21
66.1810550151
 31
0.0
  0
LINE
  5
1B0
330
1F
100
AcDbEntity
  8
SLD-0
  6
Continuous
370
    15
100
AcDbLine
 10
96.5529903819
 20
66.229054354
 30
0.0
 11
96.5529903819
 21
68.3983794804
 31
0.0
  0
LINE
  5
1B1
330
1F
100
AcDbEntity
  8
SLD-0
  6
Continuous
370
    15
100
AcDbLine
 10
56.9159907786
 20
84.6613796672
 30
0.0
 11
56.9159907786
 21
84.6253796635
 31
0.0
  0
LINE
  5
1B2
330
1F
100
AcDbEntity
  8
SLD-0
  6
Continuous
370
    15
100
AcDbLine
 10
56.9159907786
 20
84.6613796672
 30
0.0
 11
93.0559905662
 21
84.6613796672
 31
0.0
  0
LINE
  5
1B3
330
1F
100
AcDbEntity
  8
SLD-0
  6
Continuous
370
    15
100
AcDbLine
 10
93.0559905662
 20
84.6613796672
 30
0.0
 11
93.0559905662
 21
84.6253796635
 31
0.0
  0
LINE
  5
1B4
330
1F
100
AcDbEntity
  8
SLD-0
  6
Continuous
370
    15
100
AcDbLine
 10
56.9159907786
 20
84.6253796635
 30
0.0
 11
56.9238485011
 21
84.6253796635
 31
0.0
  0
LINE
  5
1B5
330
1F
100
AcDbEntity
  8
SLD-0
  6
Continuous
370
    15
100
AcDbLine
 10
93.0481328437
 20
84.6253796635
 30
0.0
 11
93.0559905662
 21
84.6253796635
 31
0.0
  0
LINE
  5
1B6
330
1F
100
AcDbEntity
  8
SLD-0
  6
Continuous
370
    15
100
AcDbLine
 10
53.4549907604
 20
65.4603797138
 30
0.0
 11
53.47320303
 21
65.4603797138
 31
0.0
  0
SPLINE
  5
1B7
330
1F
100
AcDbEntity
  8
SLD-0
  6
Continuous
370
    15
100
AcDbSpline
210
0.0
220
0.0
230
1.0
 70
     8
 71
     3
 72
    11
 73
     7
 74
     0
 42
0.00000001
 43
0.00000001
 12
1.0
 22
0.0
 32
0.0
 13
1.0
 23
0.0
 33
0.0
 40
0.0
 40
0.0
 40
0.0
 40
0.0
 40
0.2188894413845642
 40
0.4792684216606863
 40
0.739627649951999
 40
1.0
 40
1.0
 40
1.0
 40
1.0
 10
53.48410082407237
 20
68.38468331864601
 30
0.0
 10
53.48069321319936
 20
68.38568265218034
 30
0.0
 10
53.47323209367522
 20
68.38787073856166
 30
0.0
 10
53.46356454010652
 20
68.39124624046994
 30
0.0
 10
53.45638831384881
 20
68.39481429449872
 30
0.0
 10
53.45545661934497
 20
68.39719106515358
 30
0.0
 10
53.4549907603543
 20
68.39837948042677
 30
0.0
  0
LINE
  5
1B8
330
1F
100
AcDbEntity
  8
SLD-0
  6
Continuous
370
    15
100
AcDbLine
 10
96.4987783148
 20
65.4603797138
 30
0.0
 11
96.5169905845
 21
65.4603797138
 31
0.0
  0
SPLINE
  5
1B9
330
1F
100
AcDbEntity
  8
SLD-0
  6
Continuous
370
    15
100
AcDbSpline
210
0.0
220
0.0
230
1.0
 70
     8
 71
     3
 72
    11
 73
     7
 74
     0
 42
0.00000001
 43
0.00000001
 12
1.0
 22
0.0
 32
0.0
 13
1.0
 23
0.0
 33
0.0
 40
0.0
 40
0.0
 40
0.0
 40
0.0
 40
0.2604128562555342
 40
0.5208125887130245
 40
0.7812320762281466
 40
1.0
 40
1.0
 40
1.0
 40
1.0
 10
96.51699058445772
 20
68.39837948042678
 30
0.0
 10
96.51652472858002
 20
68.39719106347897
 30
0.0
 10
96.515593040302
 20
68.39481428947497
 30
0.0
 10
96.50841676735145
 20
68.39124626056433
 30
0.0
 10
96.4987514148843
 20
68.38787137816944
 30
0.0
 10
96.49129273963439
 20
68.38568419879957
 30
0.0
 10
96.48788756065834
 20
68.38468566528557
 30
0.0
  0
SPLINE
  5
1BA
330
1F
100
AcDbEntity
  8
SLD-0
  6
Continuous
370
    15
100
AcDbSpline
210
0.0
220
0.0
230
1.0
 70
     8
 71
     3
 72
    11
 73
     7
 74
     0
 42
0.00000001
 43
0.00000001
 12
1.0
 22
0.0
 32
0.0
 13
1.0
 23
0.0
 33
0.0
 40
0.0
 40
0.0
 40
0.0
 40
0.0
 40
0.2500020173653574
 40
0.4999970581981844
 40
0.7500020978140766
 40
1.0
 40
1.0
 40
1.0
 40
1.0
 10
56.91599077858676
 20
84.59437966462143
 30
0.0
 10
56.90790663103171
 20
84.59497985594682
 30
0.0
 10
56.89173856151711
 20
84.5961802218487
 30
0.0
 10
56.87064664643687
 20
84.59731166889141
 30
0.0
 10
56.85457994434265
 20
84.5973785128914
 30
0.0
 10
56.85040868179279
 20
84.59603828894352
 30
0.0
 10
56.84832308028977
 20
84.59536818653527
 30
0.0
  0
SPLINE
  5
1BB
330
1F
100
AcDbEntity
  8
SLD-0
  6
Continuous
370
    15
100
AcDbSpline
210
0.0
220
0.0
230
1.0
 70
     8
 71
     3
 72
    11
 73
     7
 74
     0
 42
0.00000001
 43
0.00000001
 12
1.0
 22
0.0
 32
0.0
 13
1.0
 23
0.0
 33
0.0
 40
0.0
 40
0.0
 40
0.0
 40
0.0
 40
0.2500103105469512
 40
0.4999977111363533
 40
0.7500002678732274
 40
1.0
 40
1.0
 40
1.0
 40
1.0
 10
56.91599077858676
 20
84.59437966462143
 30
0.0
 10
56.91212909210494
 20
84.59408561193122
 30
0.0
 10
56.904406073011
 20
84.5934975334966
 30
0.0
 10
56.89428386317054
 20
84.59230559462762
 30
0.0
 10
56.88648689467064
 20
84.59062130479882
 30
0.0
 10
56.8843144077303
 20
84.58885765710147
 30
0.0
 10
56.88322817039654
 20
84.5879758382344
 30
0.0
  0
ARC
  5
1BC
330
1F
100
AcDbEntity
  8
SLD-0
  6
Continuous
370
    15
100
AcDbCircle
 10
56.8660317054
 20
84.5077371952
 30
0.0
 40
0.0820606985715112
100
AcDbArc
 50
77.9035565713
 51
78.0953509991
  0
LINE
  5
1BD
330
1F
100
AcDbEntity
  8
SLD-0
  6
Continuous
370
    15
100
AcDbLine
 10
93.0559905662
 20
84.5943796646
 30
0.0
 11
93.0559905662
 21
84.6253796635
 31
0.0
  0
LINE
  5
1BE
330
1F
100
AcDbEntity
  8
SLD-0
  6
Continuous
370
    15
100
AcDbLine
 10
56.9159907786
 20
84.6253796635
 30
0.0
 11
56.9159907786
 21
84.5943796646
 31
0.0
  0
SPLINE
  5
1BF
330
1F
100
AcDbEntity
  8
SLD-0
  6
Continuous
370
    15
100
AcDbSpline
210
0.0
220
0.0
230
1.0
 70
     8
 71
     3
 72
    11
 73
     7
 74
     0
 42
0.00000001
 43
0.00000001
 12
1.0
 22
0.0
 32
0.0
 13
1.0
 23
0.0
 33
0.0
 40
0.0
 40
0.0
 40
0.0
 40
0.0
 40
0.2499979021859234
 40
0.5000029418018155
 40
0.7499979826346426
 40
1.0
 40
1.0
 40
1.0
 40
1.0
 10
93.12365826452223
 20
84.59536818653527
 30
0.0
 10
93.12157266301922
 20
84.59603828894352
 30
0.0
 10
93.11740140046938
 20
84.5973785128914
 30
0.0
 10
93.10133469837515
 20
84.59731166889141
 30
0.0
 10
93.0802427832949
 20
84.5961802218487
 30
0.0
 10
93.0640747137803
 20
84.59497985594682
 30
0.0
 10
93.05599056622526
 20
84.59437966462143
 30
0.0
  0
SPLINE
  5
1C0
330
1F
100
AcDbEntity
  8
SLD-0
  6
Continuous
370
    15
100
AcDbSpline
210
0.0
220
0.0
230
1.0
 70
     8
 71
     3
 72
    11
 73
     7
 74
     0
 42
0.00000001
 43
0.00000001
 12
1.0
 22
0.0
 32
0.0
 13
1.0
 23
0.0
 33
0.0
 40
0.0
 40
0.0
 40
0.0
 40
0.0
 40
0.2499997321267727
 40
0.5000022888636466
 40
0.7499896894530488
 40
1.0
 40
1.0
 40
1.0
 40
1.0
 10
93.08875317441549
 20
84.5879758382344
 30
0.0
 10
93.08766693708172
 20
84.58885765710147
 30
0.0
 10
93.08549445014138
 20
84.59062130479882
 30
0.0
 10
93.07769748164147
 20
84.59230559462762
 30
0.0
 10
93.06757527180102
 20
84.5934975334966
 30
0.0
 10
93.05985225270709
 20
84.59408561193122
 30
0.0
 10
93.05599056622526
 20
84.59437966462143
 30
0.0
  0
ARC
  5
1C1
330
1F
100
AcDbEntity
  8
SLD-0
  6
Continuous
370
    15
100
AcDbCircle
 10
93.1059496388
 20
84.507737198
 30
0.0
 40
0.0820606956484704
100
AcDbArc
 50
101.9046489971
 51
102.0964434318
  0
LINE
  5
1C2
330
1F
100
AcDbEntity
  8
SLD-0
  6
Continuous
370
    15
100
AcDbLine
 10
94.8909899548
 20
64.9286593496
 30
0.0
 11
55.08099139
 21
64.9286593496
 31
0.0
  0
LINE
  5
1C3
330
1F
100
AcDbEntity
  8
SLD-0
  6
Continuous
370
    15
100
AcDbLine
 10
55.08099139
 20
65.3933796344
 30
0.0
 11
55.08099139
 21
64.9286593496
 31
0.0
  0
LINE
  5
1C4
330
1F
100
AcDbEntity
  8
SLD-0
  6
Continuous
370
    15
100
AcDbLine
 10
94.8909899548
 20
65.3933796344
 30
0.0
 11
94.8909899548
 21
64.9286593496
 31
0.0
  0
LINE
  5
1C5
330
1F
100
AcDbEntity
  8
SLD-0
  6
Continuous
370
    15
100
AcDbLine
 10
94.8909899548
 20
64.9286593496
 30
0.0
 11
94.8909899548
 21
64.8969104897
 31
0.0
  0
LINE
  5
1C6
330
1F
100
AcDbEntity
  8
SLD-0
  6
Continuous
370
    15
100
AcDbLine
 10
94.8909899548
 20
64.8969104897
 30
0.0
 11
55.08099139
 21
64.8969104897
 31
0.0
  0
LINE
  5
1C7
330
1F
100
AcDbEntity
  8
SLD-0
  6
Continuous
370
    15
100
AcDbLine
 10
55.08099139
 20
64.8969104897
 30
0.0
 11
55.08099139
 21
64.9286593496
 31
0.0
  0
ARC
  5
1C8
330
1F
100
AcDbEntity
  8
SLD-0
  6
Continuous
370
    15
100
AcDbCircle
 10
94.8966048149
 20
64.9365943229
 30
0.0
 40
0.0400790876686293
100
AcDbArc
 50
261.9466850032
 51
348.5809718307
  0
LINE
  5
1C9
330
1F
100
AcDbEntity
  8
SLD-0
  6
Continuous
370
    15
100
AcDbLine
 10
94.9358905561
 20
62.8449994735
 30
0.0
 11
94.9358905561
 21
64.9286593496
 31
0.0
  0
SPLINE
  5
1CA
330
1F
100
AcDbEntity
  8
SLD-0
  6
Continuous
370
    15
100
AcDbSpline
210
0.0
220
0.0
230
1.0
 70
     8
 71
     3
 72
    11
 73
     7
 74
     0
 42
0.00000001
 43
0.00000001
 12
1.0
 22
0.0
 32
0.0
 13
1.0
 23
0.0
 33
0.0
 40
0.0
 40
0.0
 40
0.0
 40
0.0
 40
0.2582975151661717
 40
0.5167611153887499
 40
0.7752138868728923
 40
1.0
 40
1.0
 40
1.0
 40
1.0
 10
94.93589055612684
 20
62.84499947354651
 30
0.0
 10
94.93516922472202
 20
62.83783519710002
 30
0.0
 10
94.93372609809701
 20
62.8235020375841
 30
0.0
 10
94.92265855412266
 20
62.80418402264968
 30
0.0
 10
94.9076354069938
 20
62.78904467215433
 30
0.0
 10
94.8962746079163
 20
62.78286025579268
 30
0.0
 10
94.89098995482242
 20
62.77998347795018
 30
0.0
  0
LINE
  5
1CB
330
1F
100
AcDbEntity
  8
SLD-0
  6
Continuous
370
    15
100
AcDbLine
 10
94.8909899548
 20
64.8969104897
 30
0.0
 11
94.8909899548
 21
62.779983478
 31
0.0
  0
ARC
  5
1CC
330
1F
100
AcDbEntity
  8
SLD-0
  6
Continuous
370
    15
100
AcDbCircle
 10
55.07537653
 20
64.9365943229
 30
0.0
 40
0.0400790876686077
100
AcDbArc
 50
191.4190281692
 51
278.0533149969
  0
LINE
  5
1CD
330
1F
100
AcDbEntity
  8
SLD-0
  6
Continuous
370
    15
100
AcDbLine
 10
55.08099139
 20
64.8969104897
 30
0.0
 11
55.08099139
 21
62.779983478
 31
0.0
  0
SPLINE
  5
1CE
330
1F
100
AcDbEntity
  8
SLD-0
  6
Continuous
370
    15
100
AcDbSpline
210
0.0
220
0.0
230
1.0
 70
     8
 71
     3
 72
    11
 73
     7
 74
     0
 42
0.00000001
 43
0.00000001
 12
1.0
 22
0.0
 32
0.0
 13
1.0
 23
0.0
 33
0.0
 40
0.0
 40
0.0
 40
0.0
 40
0.0
 40
0.2582634593861957
 40
0.5167414318933885
 40
0.7751966606334798
 40
1.0
 40
1.0
 40
1.0
 40
1.0
 10
55.08099138998961
 20
62.77998347795018
 30
0.0
 10
55.07491212574578
 20
62.78335843878743
 30
0.0
 10
55.0627485478332
 20
62.79011116369778
 30
0.0
 10
55.04758583302685
 20
62.80653207306975
 30
0.0
 10
55.03781375801881
 20
62.82538671070407
 30
0.0
 10
55.03663781607889
 20
62.8387725962994
 30
0.0
 10
55.03609078868519
 20
62.84499947354651
 30
0.0
  0
LINE
  5
1CF
330
1F
100
AcDbEntity
  8
SLD-0
  6
Continuous
370
    15
100
AcDbLine
 10
55.0360907887
 20
64.9286593496
 30
0.0
 11
55.0360907887
 21
62.8449994735
 31
0.0
  0
LINE
  5
1D0
330
1F
100
AcDbEntity
  8
SLD-0
  6
Continuous
370
    15
100
AcDbLine
 10
94.8909899548
 20
62.779983478
 30
0.0
 11
55.08099139
 21
62.779983478
 31
0.0
  0
LINE
  5
1D1
330
1F
100
AcDbEntity
  8
SLD-0
  6
Continuous
370
    15
100
AcDbLine
 10
55.0659916699
 20
64.9286593496
 30
0.0
 11
55.0360907887
 21
64.9286593496
 31
0.0
  0
ARC
  5
1D2
330
1F
100
AcDbEntity
  8
SLD-0
  6
Continuous
370
    15
100
AcDbCircle
 10
55.0791151848
 20
64.9313086879
 30
0.0
 40
0.0133882648394495
100
AcDbArc
 50
191.413313435
 51
278.0558341723
  0
ARC
  5
1D3
330
1F
100
AcDbEntity
  8
SLD-0
  6
Continuous
370
    15
100
AcDbCircle
 10
94.89286616
 20
64.9313086879
 30
0.0
 40
0.0133882648394626
100
AcDbArc
 50
261.9441658277
 51
348.586686565
  0
LINE
  5
1D4
330
1F
100
AcDbEntity
  8
SLD-0
  6
Continuous
370
    15
100
AcDbLine
 10
94.9059896749
 20
64.9286593496
 30
0.0
 11
94.9358905561
 21
64.9286593496
 31
0.0
  0
LINE
  5
1D5
330
1F
100
AcDbEntity
  8
SLD-0
  6
Continuous
370
    15
100
AcDbLine
 10
55.0659916699
 20
65.3933796344
 30
0.0
 11
55.0659916699
 21
64.9286593496
 31
0.0
  0
LINE
  5
1D6
330
1F
100
AcDbEntity
  8
SLD-0
  6
Continuous
370
    15
100
AcDbLine
 10
55.0360907887
 20
65.3933796344
 30
0.0
 11
55.0360907887
 21
64.9286593496
 31
0.0
  0
LINE
  5
1D7
330
1F
100
AcDbEntity
  8
SLD-0
  6
Continuous
370
    15
100
AcDbLine
 10
94.9358905561
 20
65.3933796344
 30
0.0
 11
94.9358905561
 21
64.9286593496
 31
0.0
  0
LINE
  5
1D8
330
1F
100
AcDbEntity
  8
SLD-0
  6
Continuous
370
    15
100
AcDbLine
 10
94.9059896749
 20
65.3933796344
 30
0.0
 11
94.9059896749
 21
64.9286593496
 31
0.0
  0
SPLINE
  5
1D9
330
1F
100
AcDbEntity
  8
SLD-0
  6
Continuous
370
    15
100
AcDbSpline
210
0.0
220
0.0
230
1.0
 70
     8
 71
     3
 72
     9
 73
     5
 74
     0
 42
0.00000001
 43
0.00000001
 12
1.0
 22
0.0
 32
0.0
 13
1.0
 23
0.0
 33
0.0
 40
0.0
 40
0.0
 40
0.0
 40
0.0
 40
0.5000069506918144
 40
1.0
 40
1.0
 40
1.0
 40
1.0
 10
94.89098995482242
 20
62.77998347795018
 30
0.0
 10
94.88877552468512
 20
62.77730713596384
 30
0.0
 10
94.88434672597695
 20
62.77195452639988
 30
0.0
 10
94.87991774256567
 20
62.77108386862424
 30
0.0
 10
94.87770328164453
 20
62.77064854578811
 30
0.0
  0
SPLINE
  5
1DA
330
1F
100
AcDbEntity
  8
SLD-0
  6
Continuous
370
    15
100
AcDbSpline
210
0.0
220
0.0
230
1.0
 70
     8
 71
     3
 72
     9
 73
     5
 74
     0
 42
0.00000001
 43
0.00000001
 12
1.0
 22
0.0
 32
0.0
 13
1.0
 23
0.0
 33
0.0
 40
0.0
 40
0.0
 40
0.0
 40
0.0
 40
0.4999930493081856
 40
1.0
 40
1.0
 40
1.0
 40
1.0
 10
55.09427806316749
 20
62.7706485457881
 30
0.0
 10
55.09206360224634
 20
62.77108386862424
 30
0.0
 10
55.08763461883505
 20
62.77195452639987
 30
0.0
 10
55.0832058201269
 20
62.77730713596384
 30
0.0
 10
55.08099138998961
 20
62.77998347795018
 30
0.0
  0
LINE
  5
1DB
330
1F
100
AcDbEntity
  8
SLD-0
  6
Continuous
370
    15
100
AcDbLine
 10
96.5363339343
 20
66.2440552474
 30
0.0
 11
96.5363339343
 21
66.2586795051
 31
0.0
  0
LINE
  5
1DC
330
1F
100
AcDbEntity
  8
SLD-0
  6
Continuous
370
    15
100
AcDbLine
 10
96.5363339343
 20
66.2440552474
 30
0.0
 11
96.4883334222
 21
66.2440552474
 31
0.0
  0
LINE
  5
1DD
330
1F
100
AcDbEntity
  8
SLD-0
  6
Continuous
370
    15
100
AcDbLine
 10
96.5169905845
 20
67.8216799025
 30
0.0
 11
96.4883334222
 21
67.8216799025
 31
0.0
  0
ARC
  5
1DE
330
1F
100
AcDbEntity
  8
SLD-0
  6
Continuous
370
    15
100
AcDbCircle
 10
96.5513340024
 20
66.2440546647
 30
0.0
 40
0.0629999999999882
100
AcDbArc
 50
180.0
 51
270.0
  0
ARC
  5
1DF
330
1F
100
AcDbEntity
  8
SLD-0
  6
Continuous
370
    15
100
AcDbCircle
 10
96.5513340024
 20
66.2440546647
 30
0.0
 40
0.0150000000000006
100
AcDbArc
 50
180.0
 51
270.0
  0
LINE
  5
1E0
330
1F
100
AcDbEntity
  8
SLD-0
  6
Continuous
370
    15
100
AcDbLine
 10
96.5513336544
 20
66.229054354
 30
0.0
 11
96.5513336544
 21
66.1810550151
 31
0.0
  0
LINE
  5
1E1
330
1F
100
AcDbEntity
  8
SLD-0
  6
Continuous
370
    15
100
AcDbLine
 10
97.4883350967
 20
66.229054354
 30
0.0
 11
96.5513336544
 21
66.229054354
 31
0.0
  0
LINE
  5
1E2
330
1F
100
AcDbEntity
  8
SLD-0
  6
Continuous
370
    15
100
AcDbLine
 10
97.4883350967
 20
66.229054354
 30
0.0
 11
97.4883350967
 21
66.1810550151
 31
0.0
  0
LINE
  5
1E3
330
1F
100
AcDbEntity
  8
SLD-0
  6
Continuous
370
    15
100
AcDbLine
 10
97.4883350967
 20
66.1810550151
 30
0.0
 11
96.5513336544
 21
66.1810550151
 31
0.0
  0
LINE
  5
1E4
330
1F
100
AcDbEntity
  8
SLD-0
  6
Continuous
370
    15
100
AcDbLine
 10
53.4356474105
 20
66.2440552474
 30
0.0
 11
53.4836479226
 21
66.2440552474
 31
0.0
  0
LINE
  5
1E5
330
1F
100
AcDbEntity
  8
SLD-0
  6
Continuous
370
    15
100
AcDbLine
 10
53.4356474105
 20
66.2440552474
 30
0.0
 11
53.4356474105
 21
66.2586795051
 31
0.0
  0
LINE
  5
1E6
330
1F
100
AcDbEntity
  8
SLD-0
  6
Continuous
370
    15
100
AcDbLine
 10
53.4549907604
 20
67.8216799025
 30
0.0
 11
53.4836479226
 21
67.8216799025
 31
0.0
  0
LINE
  5
1E7
330
1F
100
AcDbEntity
  8
SLD-0
  6
Continuous
370
    15
100
AcDbLine
 10
52.4836462481
 20
66.229054354
 30
0.0
 11
52.4836462481
 21
66.1810550151
 31
0.0
  0
LINE
  5
1E8
330
1F
100
AcDbEntity
  8
SLD-0
  6
Continuous
370
    15
100
AcDbLine
 10
52.4836462481
 20
66.229054354
 30
0.0
 11
53.4206476904
 21
66.229054354
 31
0.0
  0
LINE
  5
1E9
330
1F
100
AcDbEntity
  8
SLD-0
  6
Continuous
370
    15
100
AcDbLine
 10
53.4206476904
 20
66.229054354
 30
0.0
 11
53.4206476904
 21
66.1810550151
 31
0.0
  0
LINE
  5
1EA
330
1F
100
AcDbEntity
  8
SLD-0
  6
Continuous
370
    15
100
AcDbLine
 10
52.4836462481
 20
66.1810550151
 30
0.0
 11
53.4206476904
 21
66.1810550151
 31
0.0
  0
ARC
  5
1EB
330
1F
100
AcDbEntity
  8
SLD-0
  6
Continuous
370
    15
100
AcDbCircle
 10
53.4206473424
 20
66.2440546647
 30
0.0
 40
0.0630000000000166
100
AcDbArc
 50
270.0
 51
0.0
  0
ARC
  5
1EC
330
1F
100
AcDbEntity
  8
SLD-0
  6
Continuous
370
    15
100
AcDbCircle
 10
53.4206473424
 20
66.2440546647
 30
0.0
 40
0.0150000000000148
100
AcDbArc
 50
270.0
 51
0.0
  0
LINE
  5
1ED
330
1F
100
AcDbEntity
  8
SLD-0
  6
Continuous
370
    15
100
AcDbLine
 10
53.47320303
 20
66.143379717
 30
0.0
 11
53.47320303
 21
65.4579791015
 31
0.0
  0
LINE
  5
1EE
330
1F
100
AcDbEntity
  8
SLD-0
  6
Continuous
370
    15
100
AcDbLine
 10
96.4987783148
 20
66.143379717
 30
0.0
 11
96.4987783148
 21
65.4579791015
 31
0.0
  0
LINE
  5
1EF
330
1F
100
AcDbEntity
  8
SLD-0
  6
Continuous
370
    15
100
AcDbLine
 10
96.4987783148
 20
65.4579791015
 30
0.0
 11
53.47320303
 21
65.4579791015
 31
0.0
  0
LINE
  5
1F0
330
1F
100
AcDbEntity
  8
SLD-0
  6
Continuous
370
    15
100
AcDbLine
 10
96.4987783148
 20
66.143379717
 30
0.0
 11
86.0911643578
 21
66.143379717
 31
0.0
  0
LINE
  5
1F1
330
1F
100
AcDbEntity
  8
SLD-0
  6
Continuous
370
    15
100
AcDbLine
 10
84.5208166319
 20
66.143379717
 30
0.0
 11
65.4511647129
 21
66.143379717
 31
0.0
  0
LINE
  5
1F2
330
1F
100
AcDbEntity
  8
SLD-0
  6
Continuous
370
    15
100
AcDbLine
 10
63.880816987
 20
66.143379717
 30
0.0
 11
53.47320303
 21
66.143379717
 31
0.0
  0
LINE
  5
1F3
330
1F
100
AcDbEntity
  8
SLD-0
  6
Continuous
370
    15
100
AcDbLine
 10
53.47320303
 20
65.3933796344
 30
0.0
 11
96.4987783148
 21
65.3933796344
 31
0.0
  0
LINE
  5
1F4
330
1F
100
AcDbEntity
  8
SLD-0
  6
Continuous
370
    15
100
AcDbLine
 10
53.47320303
 20
65.3933796344
 30
0.0
 11
53.47320303
 21
65.4579791015
 31
0.0
  0
LINE
  5
1F5
330
1F
100
AcDbEntity
  8
SLD-0
  6
Continuous
370
    15
100
AcDbLine
 10
96.4987783148
 20
65.4579791015
 30
0.0
 11
96.4987783148
 21
65.3933796344
 31
0.0
  0
LINE
  5
1F6
330
1F
100
AcDbEntity
  8
SLD-0
  6
Continuous
370
    15
100
AcDbLine
 10
53.47320303
 20
65.3933796344
 30
0.0
 11
53.4730903913
 21
65.3933796344
 31
0.0
  0
LINE
  5
1F7
330
1F
100
AcDbEntity
  8
SLD-0
  6
Continuous
370
    15
100
AcDbLine
 10
53.47320303
 20
65.426979993
 30
0.0
 11
53.4730903913
 21
65.426979993
 31
0.0
  0
LINE
  5
1F8
330
1F
100
AcDbEntity
  8
SLD-0
  6
Continuous
370
    15
100
AcDbLine
 10
96.4988909535
 20
65.3933796344
 30
0.0
 11
96.4987783148
 21
65.3933796344
 31
0.0
  0
LINE
  5
1F9
330
1F
100
AcDbEntity
  8
SLD-0
  6
Continuous
370
    15
100
AcDbLine
 10
96.4988909535
 20
65.426979993
 30
0.0
 11
96.4987783148
 21
65.426979993
 31
0.0
  0
SPLINE
  5
1FA
330
1F
100
AcDbEntity
  8
SLD-0
  6
Continuous
370
    15
100
AcDbSpline
210
0.0
220
0.0
230
1.0
 70
     8
 71
     3
 72
    11
 73
     7
 74
     0
 42
0.00000001
 43
0.00000001
 12
1.0
 22
0.0
 32
0.0
 13
1.0
 23
0.0
 33
0.0
 40
0.0
 40
0.0
 40
0.0
 40
0.0
 40
0.2499890499104661
 40
0.499986916969648
 40
0.7499894833452365
 40
1.0
 40
1.0
 40
1.0
 40
1.0
 10
96.4988909535462
 20
65.42697999295387
 30
0.0
 10
96.50295270810614
 20
65.42744597620587
 30
0.0
 10
96.51107636048464
 20
65.42837795914517
 30
0.0
 10
96.52132389086238
 20
65.43554580201419
 30
0.0
 10
96.52849413647084
 20
65.44579425606695
 30
0.0
 10
96.52942474863032
 20
65.45391744331319
 30
0.0
 10
96.52989006210852
 20
65.4579791015162
 30
0.0
  0
LINE
  5
1FB
330
1F
100
AcDbEntity
  8
SLD-0
  6
Continuous
370
    15
100
AcDbLine
 10
96.5298900621
 20
65.4579791015
 30
0.0
 11
96.5634915939
 21
65.4579791015
 31
0.0
  0
SPLINE
  5
1FC
330
1F
100
AcDbEntity
  8
SLD-0
  6
Continuous
370
    15
100
AcDbSpline
210
0.0
220
0.0
230
1.0
 70
     8
 71
     3
 72
    11
 73
     7
 74
     0
 42
0.00000001
 43
0.00000001
 12
1.0
 22
0.0
 32
0.0
 13
1.0
 23
0.0
 33
0.0
 40
0.0
 40
0.0
 40
0.0
 40
0.0
 40
0.2500013970332862
 40
0.5000001210054152
 40
0.7499943237038185
 40
1.0
 40
1.0
 40
1.0
 40
1.0
 10
96.4988909535462
 20
65.39337963444143
 30
0.0
 10
96.50735609291436
 20
65.39435067667944
 30
0.0
 10
96.52428628113987
 20
65.39629275077289
 30
0.0
 10
96.54564001774658
 20
65.4112311555379
 30
0.0
 10
96.56057686966786
 20
65.43258566994966
 30
0.0
 10
96.56252000431996
 20
65.44951449483764
 30
0.0
 10
96.56349159394075
 20
65.4579791015162
 30
0.0
  0
LINE
  5
1FD
330
1F
100
AcDbEntity
  8
SLD-0
  6
Continuous
370
    15
100
AcDbLine
 10
53.4084897509
 20
65.4579791015
 30
0.0
 11
53.4420912827
 21
65.4579791015
 31
0.0
  0
SPLINE
  5
1FE
330
1F
100
AcDbEntity
  8
SLD-0
  6
Continuous
370
    15
100
AcDbSpline
210
0.0
220
0.0
230
1.0
 70
     8
 71
     3
 72
    11
 73
     7
 74
     0
 42
0.00000001
 43
0.00000001
 12
1.0
 22
0.0
 32
0.0
 13
1.0
 23
0.0
 33
0.0
 40
0.0
 40
0.0
 40
0.0
 40
0.0
 40
0.2500105166547634
 40
0.5000130830303519
 40
0.7500109500895339
 40
1.0
 40
1.0
 40
1.0
 40
1.0
 10
53.44209128270351
 20
65.4579791015162
 30
0.0
 10
53.44255659618168
 20
65.45391744331317
 30
0.0
 10
53.44348720834118
 20
65.44579425606695
 30
0.0
 10
53.45065745394965
 20
65.43554580201419
 30
0.0
 10
53.46090498432739
 20
65.42837795914517
 30
0.0
 10
53.46902863670589
 20
65.42744597620587
 30
0.0
 10
53.47309039126582
 20
65.42697999295387
 30
0.0
  0
SPLINE
  5
1FF
330
1F
100
AcDbEntity
  8
SLD-0
  6
Continuous
370
    15
100
AcDbSpline
210
0.0
220
0.0
230
1.0
 70
     8
 71
     3
 72
    11
 73
     7
 74
     0
 42
0.00000001
 43
0.00000001
 12
1.0
 22
0.0
 32
0.0
 13
1.0
 23
0.0
 33
0.0
 40
0.0
 40
0.0
 40
0.0
 40
0.0
 40
0.2500056762961815
 40
0.4999998789945847
 40
0.7499986029667137
 40
1.0
 40
1.0
 40
1.0
 40
1.0
 10
53.40848975087127
 20
65.4579791015162
 30
0.0
 10
53.40946134049206
 20
65.44951449483763
 30
0.0
 10
53.41140447514415
 20
65.43258566994966
 30
0.0
 10
53.42634132706544
 20
65.4112311555379
 30
0.0
 10
53.44769506367214
 20
65.39629275077289
 30
0.0
 10
53.46462525189767
 20
65.39435067667944
 30
0.0
 10
53.47309039126583
 20
65.39337963444143
 30
0.0
  0
LINE
  5
200
330
1F
100
AcDbEntity
  8
SLD-0
  6
Continuous
370
    15
100
AcDbLine
 10
96.5634915939
 20
65.4579791015
 30
0.0
 11
96.5634915939
 21
66.143379717
 31
0.0
  0
LINE
  5
201
330
1F
100
AcDbEntity
  8
SLD-0
  6
Continuous
370
    15
100
AcDbLine
 10
96.5298900621
 20
65.4579791015
 30
0.0
 11
96.5298900621
 21
66.143379717
 31
0.0
  0
LINE
  5
202
330
1F
100
AcDbEntity
  8
SLD-0
  6
Continuous
370
    15
100
AcDbLine
 10
96.5298900621
 20
66.143379717
 30
0.0
 11
96.5634915939
 21
66.143379717
 31
0.0
  0
LINE
  5
203
330
1F
100
AcDbEntity
  8
SLD-0
  6
Continuous
370
    15
100
AcDbLine
 10
53.4084897509
 20
66.143379717
 30
0.0
 11
53.4420912827
 21
66.143379717
 31
0.0
  0
LINE
  5
204
330
1F
100
AcDbEntity
  8
SLD-0
  6
Continuous
370
    15
100
AcDbLine
 10
53.4420912827
 20
66.143379717
 30
0.0
 11
53.4420912827
 21
65.4579791015
 31
0.0
  0
LINE
  5
205
330
1F
100
AcDbEntity
  8
SLD-0
  6
Continuous
370
    15
100
AcDbLine
 10
53.4084897509
 20
66.143379717
 30
0.0
 11
53.4084897509
 21
65.4579791015
 31
0.0
  0
LINE
  5
206
330
1F
100
AcDbEntity
  8
SLD-0
  6
Continuous
370
    15
100
AcDbLine
 10
85.3448602325
 20
66.1230801115
 30
0.0
 11
85.3448602325
 21
82.9980796234
 31
0.0
  0
LINE
  5
207
330
1F
100
AcDbEntity
  8
SLD-0
  6
Continuous
370
    15
100
AcDbLine
 10
85.3448602325
 20
66.1230801115
 30
0.0
 11
85.2671207572
 21
66.1230801115
 31
0.0
  0
LINE
  5
208
330
1F
100
AcDbEntity
  8
SLD-0
  6
Continuous
370
    15
100
AcDbLine
 10
85.2671207572
 20
82.9980796234
 30
0.0
 11
85.2671207572
 21
66.1230801115
 31
0.0
  0
LINE
  5
209
330
1F
100
AcDbEntity
  8
SLD-0
  6
Continuous
370
    15
100
AcDbLine
 10
85.2671207572
 20
82.9980796234
 30
0.0
 11
85.3448602325
 21
82.9980796234
 31
0.0
  0
LINE
  5
20A
330
1F
100
AcDbEntity
  8
SLD-0
  6
Continuous
370
    15
100
AcDbLine
 10
87.0688811698
 20
82.9980796234
 30
0.0
 11
87.0688811698
 21
68.498079982
 31
0.0
  0
LINE
  5
20B
330
1F
100
AcDbEntity
  8
SLD-0
  6
Continuous
370
    15
100
AcDbLine
 10
87.0688811698
 20
68.498079982
 30
0.0
 11
86.2157216389
 21
68.498079982
 31
0.0
  0
LINE
  5
20C
330
1F
100
AcDbEntity
  8
SLD-0
  6
Continuous
370
    15
100
AcDbLine
 10
86.2157216389
 20
68.498079982
 30
0.0
 11
86.2069041408
 21
68.498079982
 31
0.0
  0
LINE
  5
20D
330
1F
100
AcDbEntity
  8
SLD-0
  6
Continuous
370
    15
100
AcDbLine
 10
86.2069041408
 20
66.3730793569
 30
0.0
 11
86.2069041408
 21
68.498079982
 31
0.0
  0
LINE
  5
20E
330
1F
100
AcDbEntity
  8
SLD-0
  6
Continuous
370
    15
100
AcDbLine
 10
86.0809365293
 20
66.1230801115
 30
0.0
 11
86.2069041408
 21
66.3730793569
 31
0.0
  0
LINE
  5
20F
330
1F
100
AcDbEntity
  8
SLD-0
  6
Continuous
370
    15
100
AcDbLine
 10
86.0809365293
 20
66.1230801115
 30
0.0
 11
85.3448602325
 21
66.1230801115
 31
0.0
  0
LINE
  5
210
330
1F
100
AcDbEntity
  8
SLD-0
  6
Continuous
370
    15
100
AcDbLine
 10
85.8098621141
 20
74.4980794695
 30
0.0
 11
86.31373256
 21
74.4980794695
 31
0.0
  0
LWPOLYLINE
  5
211
330
1F
100
AcDbEntity
  8
SLD-0
  6
Continuous
370
    15
100
AcDbPolyline
 90
       21
 70
   128
 43
0.0
 10
86.31373256
 20
74.4980794695
 10
86.3235860995
 20
74.4996188651
 10
86.3331955885
 20
74.5041971588
 10
86.342326363
 20
74.5117040588
 10
86.3507531457
 20
74.521953007
 10
86.3582694322
 20
74.5346917399
 10
86.3646874914
 20
74.5496069809
 10
86.3698512717
 20
74.5663303077
 10
86.3736340547
 20
74.5844522317
 10
86.3759408014
 20
74.603525718
 10
86.3767163658
 20
74.6230790922
 10
86.3759408014
 20
74.6426336396
 10
86.3736340547
 20
74.6617071259
 10
86.3698512717
 20
74.6798290499
 10
86.3646874914
 20
74.6965523767
 10
86.3582694322
 20
74.7114676178
 10
86.3507531457
 20
74.7242063506
 10
86.342326363
 20
74.7344552989
 10
86.3331955885
 20
74.7419616122
 10
86.3235860995
 20
74.7465404926
 10
86.31373256
 20
74.7480798881
  0
LINE
  5
212
330
1F
100
AcDbEntity
  8
SLD-0
  6
Continuous
370
    15
100
AcDbLine
 10
86.31373256
 20
74.7480798881
 30
0.0
 11
85.8098621141
 21
74.7480798881
 31
0.0
  0
LWPOLYLINE
  5
213
330
1F
100
AcDbEntity
  8
SLD-0
  6
Continuous
370
    15
100
AcDbPolyline
 90
       21
 70
   128
 43
0.0
 10
85.8098621141
 20
74.7480798881
 10
85.8000085746
 20
74.7465404926
 10
85.7903990856
 20
74.7419616122
 10
85.7812671378
 20
74.7344552989
 10
85.7728403551
 20
74.7242063506
 10
85.7653252419
 20
74.7114676178
 10
85.7589071828
 20
74.6965523767
 10
85.7537422291
 20
74.6798290499
 10
85.7499606194
 20
74.6617071259
 10
85.7476526994
 20
74.6426336396
 10
85.7468783084
 20
74.6230790922
 10
85.7476526994
 20
74.603525718
 10
85.7499606194
 20
74.5844522317
 10
85.7537422291
 20
74.5663303077
 10
85.7589071828
 20
74.5496069809
 10
85.7653252419
 20
74.5346917399
 10
85.7728403551
 20
74.521953007
 10
85.7812671378
 20
74.5117040588
 10
85.7903990856
 20
74.5041971588
 10
85.8000085746
 20
74.4996188651
 10
85.8098621141
 20
74.4980794695
  0
LINE
  5
214
330
1F
100
AcDbEntity
  8
SLD-0
  6
Continuous
370
    15
100
AcDbLine
 10
85.8098621141
 20
71.4980791391
 30
0.0
 11
86.31373256
 21
71.4980791391
 31
0.0
  0
LWPOLYLINE
  5
215
330
1F
100
AcDbEntity
  8
SLD-0
  6
Continuous
370
    15
100
AcDbPolyline
 90
       21
 70
   128
 43
0.0
 10
86.31373256
 20
71.4980791391
 10
86.3235860995
 20
71.4996185346
 10
86.3331955885
 20
71.5041980017
 10
86.342326363
 20
71.5117037284
 10
86.3507531457
 20
71.5219526766
 10
86.3582694322
 20
71.5346914095
 10
86.3646874914
 20
71.5496066505
 10
86.3698512717
 20
71.5663311506
 10
86.3736340547
 20
71.5844530746
 10
86.3759408014
 20
71.6035253876
 10
86.3767163658
 20
71.6230799351
 10
86.3759408014
 20
71.6426344825
 10
86.3736340547
 20
71.6617067955
 10
86.3698512717
 20
71.6798287195
 10
86.3646874914
 20
71.6965532196
 10
86.3582694322
 20
71.7114684607
 10
86.3507531457
 20
71.7242071935
 10
86.342326363
 20
71.7344549685
 10
86.3331955885
 20
71.7419618684
 10
86.3235860995
 20
71.7465401622
 10
86.31373256
 20
71.7480795577
  0
LINE
  5
216
330
1F
100
AcDbEntity
  8
SLD-0
  6
Continuous
370
    15
100
AcDbLine
 10
86.31373256
 20
71.7480795577
 30
0.0
 11
85.8098621141
 21
71.7480795577
 31
0.0
  0
LWPOLYLINE
  5
217
330
1F
100
AcDbEntity
  8
SLD-0
  6
Continuous
370
    15
100
AcDbPolyline
 90
       21
 70
   128
 43
0.0
 10
85.8098621141
 20
71.7480795577
 10
85.8000085746
 20
71.7465401622
 10
85.7903990856
 20
71.7419618684
 10
85.7812671378
 20
71.7344549685
 10
85.7728403551
 20
71.7242071935
 10
85.7653252419
 20
71.7114684607
 10
85.7589071828
 20
71.6965532196
 10
85.7537422291
 20
71.6798287195
 10
85.7499606194
 20
71.6617067955
 10
85.7476526994
 20
71.6426344825
 10
85.7468783084
 20
71.6230799351
 10
85.7476526994
 20
71.6035253876
 10
85.7499606194
 20
71.5844530746
 10
85.7537422291
 20
71.5663311506
 10
85.7589071828
 20
71.5496066505
 10
85.7653252419
 20
71.5346914095
 10
85.7728403551
 20
71.5219526766
 10
85.7812671378
 20
71.5117037284
 10
85.7903990856
 20
71.5041980017
 10
85.8000085746
 20
71.4996185346
 10
85.8098621141
 20
71.4980791391
  0
LINE
  5
218
330
1F
100
AcDbEntity
  8
SLD-0
  6
Continuous
370
    15
100
AcDbLine
 10
87.0688811698
 20
82.9980796234
 30
0.0
 11
85.3448602325
 21
82.9980796234
 31
0.0
  0
LWPOLYLINE
  5
219
330
1F
100
AcDbEntity
  8
SLD-0
  6
Continuous
370
    15
100
AcDbPolyline
 90
       21
 70
   128
 43
0.0
 10
84.8021194623
 20
71.7480795577
 10
84.8119724152
 20
71.7465401622
 10
84.8215824908
 20
71.7419618684
 10
84.830713852
 20
71.7344549685
 10
84.8391406346
 20
71.7242071935
 10
84.8466557478
 20
71.7114684607
 10
84.8530749803
 20
71.6965532196
 10
84.8582387607
 20
71.6798287195
 10
84.8620203703
 20
71.6617067955
 10
84.8643282903
 20
71.6426344825
 10
84.8651038547
 20
71.6230799351
 10
84.8643282903
 20
71.6035253876
 10
84.8620203703
 20
71.5844530746
 10
84.8582387607
 20
71.5663311506
 10
84.8530749803
 20
71.5496066505
 10
84.8466557478
 20
71.5346914095
 10
84.8391406346
 20
71.5219526766
 10
84.830713852
 20
71.5117037284
 10
84.8215824908
 20
71.5041980017
 10
84.8119724152
 20
71.4996185346
 10
84.8021194623
 20
71.4980791391
  0
LINE
  5
21A
330
1F
100
AcDbEntity
  8
SLD-0
  6
Continuous
370
    15
100
AcDbLine
 10
84.8021194623
 20
71.7480795577
 30
0.0
 11
84.2982484297
 21
71.7480795577
 31
0.0
  0
LWPOLYLINE
  5
21B
330
1F
100
AcDbEntity
  8
SLD-0
  6
Continuous
370
    15
100
AcDbPolyline
 90
       21
 70
   128
 43
0.0
 10
84.2982484297
 20
71.4980791391
 10
84.2883960636
 20
71.4996185346
 10
84.2787854012
 20
71.5041980017
 10
84.2696546267
 20
71.5117037284
 10
84.2612278441
 20
71.5219526766
 10
84.2537121442
 20
71.5346914095
 10
84.2472934984
 20
71.5496066505
 10
84.242129718
 20
71.5663311506
 10
84.2383475217
 20
71.5844530746
 10
84.2360401884
 20
71.6035253876
 10
84.235264624
 20
71.6230799351
 10
84.2360401884
 20
71.6426344825
 10
84.2383475217
 20
71.6617067955
 10
84.242129718
 20
71.6798287195
 10
84.2472934984
 20
71.6965532196
 10
84.2537121442
 20
71.7114684607
 10
84.2612278441
 20
71.7242071935
 10
84.2696546267
 20
71.7344549685
 10
84.2787854012
 20
71.7419618684
 10
84.2883960636
 20
71.7465401622
 10
84.2982484297
 20
71.7480795577
  0
LINE
  5
21C
330
1F
100
AcDbEntity
  8
SLD-0
  6
Continuous
370
    15
100
AcDbLine
 10
84.8021194623
 20
71.4980791391
 30
0.0
 11
84.2982484297
 21
71.4980791391
 31
0.0
  0
LINE
  5
21D
330
1F
100
AcDbEntity
  8
SLD-0
  6
Continuous
370
    15
100
AcDbLine
 10
84.4050774356
 20
66.3730793569
 30
0.0
 11
84.4050774356
 21
68.498079982
 31
0.0
  0
LINE
  5
21E
330
1F
100
AcDbEntity
  8
SLD-0
  6
Continuous
370
    15
100
AcDbLine
 10
84.3962593508
 20
68.498079982
 30
0.0
 11
84.4050774356
 21
68.498079982
 31
0.0
  0
LINE
  5
21F
330
1F
100
AcDbEntity
  8
SLD-0
  6
Continuous
370
    15
100
AcDbLine
 10
84.3962593508
 20
68.498079982
 30
0.0
 11
83.5431004066
 21
68.498079982
 31
0.0
  0
LINE
  5
220
330
1F
100
AcDbEntity
  8
SLD-0
  6
Continuous
370
    15
100
AcDbLine
 10
83.5431004066
 20
68.498079982
 30
0.0
 11
83.5431004066
 21
82.9980796234
 31
0.0
  0
LINE
  5
221
330
1F
100
AcDbEntity
  8
SLD-0
  6
Continuous
370
    15
100
AcDbLine
 10
85.2671207572
 20
66.1230801115
 30
0.0
 11
84.5310450471
 21
66.1230801115
 31
0.0
  0
LINE
  5
222
330
1F
100
AcDbEntity
  8
SLD-0
  6
Continuous
370
    15
100
AcDbLine
 10
84.5310450471
 20
66.1230801115
 30
0.0
 11
84.4050774356
 21
66.3730793569
 31
0.0
  0
LWPOLYLINE
  5
223
330
1F
100
AcDbEntity
  8
SLD-0
  6
Continuous
370
    15
100
AcDbPolyline
 90
       21
 70
   128
 43
0.0
 10
84.8021194623
 20
74.7480798881
 10
84.8119724152
 20
74.7465404926
 10
84.8215824908
 20
74.7419616122
 10
84.830713852
 20
74.7344552989
 10
84.8391406346
 20
74.7242063506
 10
84.8466557478
 20
74.7114676178
 10
84.8530749803
 20
74.6965523767
 10
84.8582387607
 20
74.6798290499
 10
84.8620203703
 20
74.6617071259
 10
84.8643282903
 20
74.6426336396
 10
84.8651038547
 20
74.6230790922
 10
84.8643282903
 20
74.603525718
 10
84.8620203703
 20
74.5844522317
 10
84.8582387607
 20
74.5663303077
 10
84.8530749803
 20
74.5496069809
 10
84.8466557478
 20
74.5346917399
 10
84.8391406346
 20
74.521953007
 10
84.830713852
 20
74.5117040588
 10
84.8215824908
 20
74.5041971588
 10
84.8119724152
 20
74.4996188651
 10
84.8021194623
 20
74.4980794695
  0
LINE
  5
224
330
1F
100
AcDbEntity
  8
SLD-0
  6
Continuous
370
    15
100
AcDbLine
 10
84.2982484297
 20
74.7480798881
 30
0.0
 11
84.8021194623
 21
74.7480798881
 31
0.0
  0
LWPOLYLINE
  5
225
330
1F
100
AcDbEntity
  8
SLD-0
  6
Continuous
370
    15
100
AcDbPolyline
 90
       21
 70
   128
 43
0.0
 10
84.2982484297
 20
74.4980794695
 10
84.2883960636
 20
74.4996188651
 10
84.2787854012
 20
74.5041971588
 10
84.2696546267
 20
74.5117040588
 10
84.2612278441
 20
74.521953007
 10
84.2537121442
 20
74.5346917399
 10
84.2472934984
 20
74.5496069809
 10
84.242129718
 20
74.5663303077
 10
84.2383475217
 20
74.5844522317
 10
84.2360401884
 20
74.603525718
 10
84.235264624
 20
74.6230790922
 10
84.2360401884
 20
74.6426336396
 10
84.2383475217
 20
74.6617071259
 10
84.242129718
 20
74.6798290499
 10
84.2472934984
 20
74.6965523767
 10
84.2537121442
 20
74.7114676178
 10
84.2612278441
 20
74.7242063506
 10
84.2696546267
 20
74.7344552989
 10
84.2787854012
 20
74.7419616122
 10
84.2883960636
 20
74.7465404926
 10
84.2982484297
 20
74.7480798881
  0
LINE
  5
226
330
1F
100
AcDbEntity
  8
SLD-0
  6
Continuous
370
    15
100
AcDbLine
 10
84.8021194623
 20
74.4980794695
 30
0.0
 11
84.2982484297
 21
74.4980794695
 31
0.0
  0
LINE
  5
227
330
1F
100
AcDbEntity
  8
SLD-0
  6
Continuous
370
    15
100
AcDbLine
 10
85.2671207572
 20
82.9980796234
 30
0.0
 11
83.5431004066
 21
82.9980796234
 31
0.0
  0
LWPOLYLINE
  5
228
330
1F
100
AcDbEntity
  8
SLD-0
  6
Continuous
370
    15
100
AcDbPolyline
 90
       21
 70
   128
 43
0.0
 10
86.2878197927
 20
74.4980794695
 10
86.2976721589
 20
74.4996188651
 10
86.3072828212
 20
74.5041971588
 10
86.3164135957
 20
74.5117040588
 10
86.3248403784
 20
74.521953007
 10
86.3323554916
 20
74.5346917399
 10
86.3387747241
 20
74.5496069809
 10
86.3439385044
 20
74.5663303077
 10
86.3477201141
 20
74.5844522317
 10
86.3500280341
 20
74.603525718
 10
86.3508035985
 20
74.6230790922
 10
86.3500280341
 20
74.6426336396
 10
86.3477201141
 20
74.6617071259
 10
86.3439385044
 20
74.6798290499
 10
86.3387747241
 20
74.6965523767
 10
86.3323554916
 20
74.7114676178
 10
86.3248403784
 20
74.7242063506
 10
86.3164135957
 20
74.7344552989
 10
86.3072828212
 20
74.7419616122
 10
86.2976721589
 20
74.7465404926
 10
86.2878197927
 20
74.7480798881
  0
LWPOLYLINE
  5
229
330
1F
100
AcDbEntity
  8
SLD-0
  6
Continuous
370
    15
100
AcDbPolyline
 90
       21
 70
   128
 43
0.0
 10
84.3241617837
 20
74.4980794695
 10
84.3143094175
 20
74.4996188651
 10
84.3046987552
 20
74.5041971588
 10
84.2955679807
 20
74.5117040588
 10
84.2871411981
 20
74.521953007
 10
84.2796254982
 20
74.5346917399
 10
84.2732068524
 20
74.5496069809
 10
84.268043072
 20
74.5663303077
 10
84.2642608757
 20
74.5844522317
 10
84.2619535424
 20
74.603525718
 10
84.261177978
 20
74.6230790922
 10
84.2619535424
 20
74.6426336396
 10
84.2642608757
 20
74.6617071259
 10
84.268043072
 20
74.6798290499
 10
84.2732068524
 20
74.6965523767
 10
84.2796254982
 20
74.7114676178
 10
84.2871411981
 20
74.7242063506
 10
84.2955679807
 20
74.7344552989
 10
84.3046987552
 20
74.7419616122
 10
84.3143094175
 20
74.7465404926
 10
84.3241617837
 20
74.7480798881
  0
LWPOLYLINE
  5
22A
330
1F
100
AcDbEntity
  8
SLD-0
  6
Continuous
370
    15
100
AcDbPolyline
 90
       21
 70
   128
 43
0.0
 10
86.2878197927
 20
71.4980791391
 10
86.2976721589
 20
71.4996185346
 10
86.3072828212
 20
71.5041980017
 10
86.3164135957
 20
71.5117037284
 10
86.3248403784
 20
71.5219526766
 10
86.3323554916
 20
71.5346914095
 10
86.3387747241
 20
71.5496066505
 10
86.3439385044
 20
71.5663311506
 10
86.3477201141
 20
71.5844530746
 10
86.3500280341
 20
71.6035253876
 10
86.3508035985
 20
71.6230799351
 10
86.3500280341
 20
71.6426344825
 10
86.3477201141
 20
71.6617067955
 10
86.3439385044
 20
71.6798287195
 10
86.3387747241
 20
71.6965532196
 10
86.3323554916
 20
71.7114684607
 10
86.3248403784
 20
71.7242071935
 10
86.3164135957
 20
71.7344549685
 10
86.3072828212
 20
71.7419618684
 10
86.2976721589
 20
71.7465401622
 10
86.2878197927
 20
71.7480795577
  0
LWPOLYLINE
  5
22B
330
1F
100
AcDbEntity
  8
SLD-0
  6
Continuous
370
    15
100
AcDbPolyline
 90
       21
 70
   128
 43
0.0
 10
84.3241617837
 20
71.4980791391
 10
84.3143094175
 20
71.4996185346
 10
84.3046987552
 20
71.5041980017
 10
84.2955679807
 20
71.5117037284
 10
84.2871411981
 20
71.5219526766
 10
84.2796254982
 20
71.5346914095
 10
84.2732068524
 20
71.5496066505
 10
84.268043072
 20
71.5663311506
 10
84.2642608757
 20
71.5844530746
 10
84.2619535424
 20
71.6035253876
 10
84.261177978
 20
71.6230799351
 10
84.2619535424
 20
71.6426344825
 10
84.2642608757
 20
71.6617067955
 10
84.268043072
 20
71.6798287195
 10
84.2732068524
 20
71.6965532196
 10
84.2796254982
 20
71.7114684607
 10
84.2871411981
 20
71.7242071935
 10
84.2955679807
 20
71.7344549685
 10
84.3046987552
 20
71.7419618684
 10
84.3143094175
 20
71.7465401622
 10
84.3241617837
 20
71.7480795577
  0
LINE
  5
22C
330
1F
100
AcDbEntity
  8
SLD-0
  6
Continuous
370
    15
100
AcDbLine
 10
87.0818369668
 20
82.9980796234
 30
0.0
 11
87.0818369668
 21
68.498079982
 31
0.0
  0
LINE
  5
22D
330
1F
100
AcDbEntity
  8
SLD-0
  6
Continuous
370
    15
100
AcDbLine
 10
87.0818369668
 20
68.498079982
 30
0.0
 11
87.0688811698
 21
68.498079982
 31
0.0
  0
LINE
  5
22E
330
1F
100
AcDbEntity
  8
SLD-0
  6
Continuous
370
    15
100
AcDbLine
 10
87.0688811698
 20
82.9980796234
 30
0.0
 11
87.0818369668
 21
82.9980796234
 31
0.0
  0
LINE
  5
22F
330
1F
100
AcDbEntity
  8
SLD-0
  6
Continuous
370
    15
100
AcDbLine
 10
83.530144023
 20
68.498079982
 30
0.0
 11
83.5431004066
 21
68.498079982
 31
0.0
  0
LINE
  5
230
330
1F
100
AcDbEntity
  8
SLD-0
  6
Continuous
370
    15
100
AcDbLine
 10
83.530144023
 20
82.9980796234
 30
0.0
 11
83.530144023
 21
68.498079982
 31
0.0
  0
LINE
  5
231
330
1F
100
AcDbEntity
  8
SLD-0
  6
Continuous
370
    15
100
AcDbLine
 10
83.5431004066
 20
82.9980796234
 30
0.0
 11
83.530144023
 21
82.9980796234
 31
0.0
  0
LINE
  5
232
330
1F
100
AcDbEntity
  8
SLD-0
  6
Continuous
370
    15
100
AcDbLine
 10
83.530144023
 20
68.498079982
 30
0.0
 11
83.0559908337
 21
68.498079982
 31
0.0
  0
LINE
  5
233
330
1F
100
AcDbEntity
  8
SLD-0
  6
Continuous
370
    15
100
AcDbLine
 10
83.0559908337
 20
82.9980796234
 30
0.0
 11
83.0559908337
 21
68.498079982
 31
0.0
  0
LINE
  5
234
330
1F
100
AcDbEntity
  8
SLD-0
  6
Continuous
370
    15
100
AcDbLine
 10
83.530144023
 20
82.9980796234
 30
0.0
 11
83.0559908337
 21
82.9980796234
 31
0.0
  0
LINE
  5
235
330
1F
100
AcDbEntity
  8
SLD-0
  6
Continuous
370
    15
100
AcDbLine
 10
87.5559907427
 20
68.498079982
 30
0.0
 11
87.0818369668
 21
68.498079982
 31
0.0
  0
LINE
  5
236
330
1F
100
AcDbEntity
  8
SLD-0
  6
Continuous
370
    15
100
AcDbLine
 10
87.5559907427
 20
82.9980796234
 30
0.0
 11
87.0818369668
 21
82.9980796234
 31
0.0
  0
LINE
  5
237
330
1F
100
AcDbEntity
  8
SLD-0
  6
Continuous
370
    15
100
AcDbLine
 10
87.5559907427
 20
82.9980796234
 30
0.0
 11
87.5559907427
 21
68.498079982
 31
0.0
  0
LINE
  5
238
330
1F
100
AcDbEntity
  8
SLD-0
  6
Continuous
370
    15
100
AcDbLine
 10
64.7048605876
 20
66.1230801115
 30
0.0
 11
64.7048605876
 21
82.9980796234
 31
0.0
  0
LINE
  5
239
330
1F
100
AcDbEntity
  8
SLD-0
  6
Continuous
370
    15
100
AcDbLine
 10
64.7048605876
 20
66.1230801115
 30
0.0
 11
64.6271211123
 21
66.1230801115
 31
0.0
  0
LINE
  5
23A
330
1F
100
AcDbEntity
  8
SLD-0
  6
Continuous
370
    15
100
AcDbLine
 10
64.6271211123
 20
82.9980796234
 30
0.0
 11
64.6271211123
 21
66.1230801115
 31
0.0
  0
LINE
  5
23B
330
1F
100
AcDbEntity
  8
SLD-0
  6
Continuous
370
    15
100
AcDbLine
 10
64.6271211123
 20
82.9980796234
 30
0.0
 11
64.7048605876
 21
82.9980796234
 31
0.0
  0
LWPOLYLINE
  5
23C
330
1F
100
AcDbEntity
  8
SLD-0
  6
Continuous
370
    15
100
AcDbPolyline
 90
       21
 70
   128
 43
0.0
 10
64.1621192307
 20
71.7480795577
 10
64.1719727702
 20
71.7465401622
 10
64.1815822592
 20
71.7419618684
 10
64.190714207
 20
71.7344549685
 10
64.1991409897
 20
71.7242071935
 10
64.2066561029
 20
71.7114684607
 10
64.2130741621
 20
71.6965532196
 10
64.2182391157
 20
71.6798287195
 10
64.2220207254
 20
71.6617067955
 10
64.2243286454
 20
71.6426344825
 10
64.2251030364
 20
71.6230799351
 10
64.2243286454
 20
71.6035253876
 10
64.2220207254
 20
71.5844530746
 10
64.2182391157
 20
71.5663311506
 10
64.2130741621
 20
71.5496066505
 10
64.2066561029
 20
71.5346914095
 10
64.1991409897
 20
71.5219526766
 10
64.190714207
 20
71.5117037284
 10
64.1815822592
 20
71.5041980017
 10
64.1719727702
 20
71.4996185346
 10
64.1621192307
 20
71.4980791391
  0
LINE
  5
23D
330
1F
100
AcDbEntity
  8
SLD-0
  6
Continuous
370
    15
100
AcDbLine
 10
64.1621192307
 20
71.7480795577
 30
0.0
 11
63.6582487848
 21
71.7480795577
 31
0.0
  0
LWPOLYLINE
  5
23E
330
1F
100
AcDbEntity
  8
SLD-0
  6
Continuous
370
    15
100
AcDbPolyline
 90
       21
 70
   128
 43
0.0
 10
63.6582487848
 20
71.4980791391
 10
63.6483952453
 20
71.4996185346
 10
63.6387857563
 20
71.5041980017
 10
63.6296549818
 20
71.5117037284
 10
63.6212281991
 20
71.5219526766
 10
63.6137119126
 20
71.5346914095
 10
63.6072938534
 20
71.5496066505
 10
63.6021300731
 20
71.5663311506
 10
63.5983472901
 20
71.5844530746
 10
63.5960405434
 20
71.6035253876
 10
63.595264979
 20
71.6230799351
 10
63.5960405434
 20
71.6426344825
 10
63.5983472901
 20
71.6617067955
 10
63.6021300731
 20
71.6798287195
 10
63.6072938534
 20
71.6965532196
 10
63.6137119126
 20
71.7114684607
 10
63.6212281991
 20
71.7242071935
 10
63.6296549818
 20
71.7344549685
 10
63.6387857563
 20
71.7419618684
 10
63.6483952453
 20
71.7465401622
 10
63.6582487848
 20
71.7480795577
  0
LINE
  5
23F
330
1F
100
AcDbEntity
  8
SLD-0
  6
Continuous
370
    15
100
AcDbLine
 10
64.1621192307
 20
71.4980791391
 30
0.0
 11
63.6582487848
 21
71.4980791391
 31
0.0
  0
LINE
  5
240
330
1F
100
AcDbEntity
  8
SLD-0
  6
Continuous
370
    15
100
AcDbLine
 10
63.765077204
 20
66.3730793569
 30
0.0
 11
63.765077204
 21
68.498079982
 31
0.0
  0
LINE
  5
241
330
1F
100
AcDbEntity
  8
SLD-0
  6
Continuous
370
    15
100
AcDbLine
 10
63.7562597059
 20
68.498079982
 30
0.0
 11
63.765077204
 21
68.498079982
 31
0.0
  0
LINE
  5
242
330
1F
100
AcDbEntity
  8
SLD-0
  6
Continuous
370
    15
100
AcDbLine
 10
63.7562597059
 20
68.498079982
 30
0.0
 11
62.903100175
 21
68.498079982
 31
0.0
  0
LINE
  5
243
330
1F
100
AcDbEntity
  8
SLD-0
  6
Continuous
370
    15
100
AcDbLine
 10
62.903100175
 20
68.498079982
 30
0.0
 11
62.903100175
 21
82.9980796234
 31
0.0
  0
LINE
  5
244
330
1F
100
AcDbEntity
  8
SLD-0
  6
Continuous
370
    15
100
AcDbLine
 10
64.6271211123
 20
82.9980796234
 30
0.0
 11
62.903100175
 21
82.9980796234
 31
0.0
  0
LINE
  5
245
330
1F
100
AcDbEntity
  8
SLD-0
  6
Continuous
370
    15
100
AcDbLine
 10
64.6271211123
 20
66.1230801115
 30
0.0
 11
63.8910448155
 21
66.1230801115
 31
0.0
  0
LINE
  5
246
330
1F
100
AcDbEntity
  8
SLD-0
  6
Continuous
370
    15
100
AcDbLine
 10
63.8910448155
 20
66.1230801115
 30
0.0
 11
63.765077204
 21
66.3730793569
 31
0.0
  0
LWPOLYLINE
  5
247
330
1F
100
AcDbEntity
  8
SLD-0
  6
Continuous
370
    15
100
AcDbPolyline
 90
       21
 70
   128
 43
0.0
 10
64.1621192307
 20
74.7480798881
 10
64.1719727702
 20
74.7465404926
 10
64.1815822592
 20
74.7419616122
 10
64.190714207
 20
74.7344552989
 10
64.1991409897
 20
74.7242063506
 10
64.2066561029
 20
74.7114676178
 10
64.2130741621
 20
74.6965523767
 10
64.2182391157
 20
74.6798290499
 10
64.2220207254
 20
74.6617071259
 10
64.2243286454
 20
74.6426336396
 10
64.2251030364
 20
74.6230790922
 10
64.2243286454
 20
74.603525718
 10
64.2220207254
 20
74.5844522317
 10
64.2182391157
 20
74.5663303077
 10
64.2130741621
 20
74.5496069809
 10
64.2066561029
 20
74.5346917399
 10
64.1991409897
 20
74.521953007
 10
64.190714207
 20
74.5117040588
 10
64.1815822592
 20
74.5041971588
 10
64.1719727702
 20
74.4996188651
 10
64.1621192307
 20
74.4980794695
  0
LINE
  5
248
330
1F
100
AcDbEntity
  8
SLD-0
  6
Continuous
370
    15
100
AcDbLine
 10
63.6582487848
 20
74.7480798881
 30
0.0
 11
64.1621192307
 21
74.7480798881
 31
0.0
  0
LWPOLYLINE
  5
249
330
1F
100
AcDbEntity
  8
SLD-0
  6
Continuous
370
    15
100
AcDbPolyline
 90
       21
 70
   128
 43
0.0
 10
63.6582487848
 20
74.4980794695
 10
63.6483952453
 20
74.4996188651
 10
63.6387857563
 20
74.5041971588
 10
63.6296549818
 20
74.5117040588
 10
63.6212281991
 20
74.521953007
 10
63.6137119126
 20
74.5346917399
 10
63.6072938534
 20
74.5496069809
 10
63.6021300731
 20
74.5663303077
 10
63.5983472901
 20
74.5844522317
 10
63.5960405434
 20
74.603525718
 10
63.595264979
 20
74.6230790922
 10
63.5960405434
 20
74.6426336396
 10
63.5983472901
 20
74.6617071259
 10
63.6021300731
 20
74.6798290499
 10
63.6072938534
 20
74.6965523767
 10
63.6137119126
 20
74.7114676178
 10
63.6212281991
 20
74.7242063506
 10
63.6296549818
 20
74.7344552989
 10
63.6387857563
 20
74.7419616122
 10
63.6483952453
 20
74.7465404926
 10
63.6582487848
 20
74.7480798881
  0
LINE
  5
24A
330
1F
100
AcDbEntity
  8
SLD-0
  6
Continuous
370
    15
100
AcDbLine
 10
64.1621192307
 20
74.4980794695
 30
0.0
 11
63.6582487848
 21
74.4980794695
 31
0.0
  0
LINE
  5
24B
330
1F
100
AcDbEntity
  8
SLD-0
  6
Continuous
370
    15
100
AcDbLine
 10
66.4288809382
 20
82.9980796234
 30
0.0
 11
64.7048605876
 21
82.9980796234
 31
0.0
  0
LINE
  5
24C
330
1F
100
AcDbEntity
  8
SLD-0
  6
Continuous
370
    15
100
AcDbLine
 10
66.4288809382
 20
82.9980796234
 30
0.0
 11
66.4288809382
 21
68.498079982
 31
0.0
  0
LINE
  5
24D
330
1F
100
AcDbEntity
  8
SLD-0
  6
Continuous
370
    15
100
AcDbLine
 10
66.4288809382
 20
68.498079982
 30
0.0
 11
65.575721994
 21
68.498079982
 31
0.0
  0
LINE
  5
24E
330
1F
100
AcDbEntity
  8
SLD-0
  6
Continuous
370
    15
100
AcDbLine
 10
65.575721994
 20
68.498079982
 30
0.0
 11
65.5669039092
 21
68.498079982
 31
0.0
  0
LINE
  5
24F
330
1F
100
AcDbEntity
  8
SLD-0
  6
Continuous
370
    15
100
AcDbLine
 10
65.5669039092
 20
66.3730793569
 30
0.0
 11
65.5669039092
 21
68.498079982
 31
0.0
  0
LINE
  5
250
330
1F
100
AcDbEntity
  8
SLD-0
  6
Continuous
370
    15
100
AcDbLine
 10
65.4409362977
 20
66.1230801115
 30
0.0
 11
65.5669039092
 21
66.3730793569
 31
0.0
  0
LINE
  5
251
330
1F
100
AcDbEntity
  8
SLD-0
  6
Continuous
370
    15
100
AcDbLine
 10
65.4409362977
 20
66.1230801115
 30
0.0
 11
64.7048605876
 21
66.1230801115
 31
0.0
  0
LINE
  5
252
330
1F
100
AcDbEntity
  8
SLD-0
  6
Continuous
370
    15
100
AcDbLine
 10
65.1698618825
 20
74.4980794695
 30
0.0
 11
65.6737329151
 21
74.4980794695
 31
0.0
  0
LWPOLYLINE
  5
253
330
1F
100
AcDbEntity
  8
SLD-0
  6
Continuous
370
    15
100
AcDbPolyline
 90
       21
 70
   128
 43
0.0
 10
65.6737329151
 20
74.4980794695
 10
65.6835852813
 20
74.4996188651
 10
65.6931959436
 20
74.5041971588
 10
65.7023267181
 20
74.5117040588
 10
65.7107535007
 20
74.521953007
 10
65.7182692006
 20
74.5346917399
 10
65.7246878464
 20
74.5496069809
 10
65.7298516268
 20
74.5663303077
 10
65.7336338231
 20
74.5844522317
 10
65.7359411564
 20
74.603525718
 10
65.7367167208
 20
74.6230790922
 10
65.7359411564
 20
74.6426336396
 10
65.7336338231
 20
74.6617071259
 10
65.7298516268
 20
74.6798290499
 10
65.7246878464
 20
74.6965523767
 10
65.7182692006
 20
74.7114676178
 10
65.7107535007
 20
74.7242063506
 10
65.7023267181
 20
74.7344552989
 10
65.6931959436
 20
74.7419616122
 10
65.6835852813
 20
74.7465404926
 10
65.6737329151
 20
74.7480798881
  0
LINE
  5
254
330
1F
100
AcDbEntity
  8
SLD-0
  6
Continuous
370
    15
100
AcDbLine
 10
65.6737329151
 20
74.7480798881
 30
0.0
 11
65.1698618825
 21
74.7480798881
 31
0.0
  0
LWPOLYLINE
  5
255
330
1F
100
AcDbEntity
  8
SLD-0
  6
Continuous
370
    15
100
AcDbPolyline
 90
       21
 70
   128
 43
0.0
 10
65.1698618825
 20
74.7480798881
 10
65.1600089297
 20
74.7465404926
 10
65.150398854
 20
74.7419616122
 10
65.1412674928
 20
74.7344552989
 10
65.1328407102
 20
74.7242063506
 10
65.125325597
 20
74.7114676178
 10
65.1189063645
 20
74.6965523767
 10
65.1137425841
 20
74.6798290499
 10
65.1099609745
 20
74.6617071259
 10
65.1076530545
 20
74.6426336396
 10
65.1068774901
 20
74.6230790922
 10
65.1076530545
 20
74.603525718
 10
65.1099609745
 20
74.5844522317
 10
65.1137425841
 20
74.5663303077
 10
65.1189063645
 20
74.5496069809
 10
65.125325597
 20
74.5346917399
 10
65.1328407102
 20
74.521953007
 10
65.1412674928
 20
74.5117040588
 10
65.150398854
 20
74.5041971588
 10
65.1600089297
 20
74.4996188651
 10
65.1698618825
 20
74.4980794695
  0
LINE
  5
256
330
1F
100
AcDbEntity
  8
SLD-0
  6
Continuous
370
    15
100
AcDbLine
 10
65.1698618825
 20
71.4980791391
 30
0.0
 11
65.6737329151
 21
71.4980791391
 31
0.0
  0
LWPOLYLINE
  5
257
330
1F
100
AcDbEntity
  8
SLD-0
  6
Continuous
370
    15
100
AcDbPolyline
 90
       21
 70
   128
 43
0.0
 10
65.6737329151
 20
71.4980791391
 10
65.6835852813
 20
71.4996185346
 10
65.6931959436
 20
71.5041980017
 10
65.7023267181
 20
71.5117037284
 10
65.7107535007
 20
71.5219526766
 10
65.7182692006
 20
71.5346914095
 10
65.7246878464
 20
71.5496066505
 10
65.7298516268
 20
71.5663311506
 10
65.7336338231
 20
71.5844530746
 10
65.7359411564
 20
71.6035253876
 10
65.7367167208
 20
71.6230799351
 10
65.7359411564
 20
71.6426344825
 10
65.7336338231
 20
71.6617067955
 10
65.7298516268
 20
71.6798287195
 10
65.7246878464
 20
71.6965532196
 10
65.7182692006
 20
71.7114684607
 10
65.7107535007
 20
71.7242071935
 10
65.7023267181
 20
71.7344549685
 10
65.6931959436
 20
71.7419618684
 10
65.6835852813
 20
71.7465401622
 10
65.6737329151
 20
71.7480795577
  0
LINE
  5
258
330
1F
100
AcDbEntity
  8
SLD-0
  6
Continuous
370
    15
100
AcDbLine
 10
65.6737329151
 20
71.7480795577
 30
0.0
 11
65.1698618825
 21
71.7480795577
 31
0.0
  0
LWPOLYLINE
  5
259
330
1F
100
AcDbEntity
  8
SLD-0
  6
Continuous
370
    15
100
AcDbPolyline
 90
       21
 70
   128
 43
0.0
 10
65.1698618825
 20
71.7480795577
 10
65.1600089297
 20
71.7465401622
 10
65.150398854
 20
71.7419618684
 10
65.1412674928
 20
71.7344549685
 10
65.1328407102
 20
71.7242071935
 10
65.125325597
 20
71.7114684607
 10
65.1189063645
 20
71.6965532196
 10
65.1137425841
 20
71.6798287195
 10
65.1099609745
 20
71.6617067955
 10
65.1076530545
 20
71.6426344825
 10
65.1068774901
 20
71.6230799351
 10
65.1076530545
 20
71.6035253876
 10
65.1099609745
 20
71.5844530746
 10
65.1137425841
 20
71.5663311506
 10
65.1189063645
 20
71.5496066505
 10
65.125325597
 20
71.5346914095
 10
65.1328407102
 20
71.5219526766
 10
65.1412674928
 20
71.5117037284
 10
65.150398854
 20
71.5041980017
 10
65.1600089297
 20
71.4996185346
 10
65.1698618825
 20
71.4980791391
  0
LWPOLYLINE
  5
25A
330
1F
100
AcDbEntity
  8
SLD-0
  6
Continuous
370
    15
100
AcDbPolyline
 90
       21
 70
   128
 43
0.0
 10
65.6478195611
 20
74.4980794695
 10
65.6576719273
 20
74.4996188651
 10
65.6672825896
 20
74.5041971588
 10
65.6764133641
 20
74.5117040588
 10
65.6848401468
 20
74.521953007
 10
65.6923558466
 20
74.5346917399
 10
65.6987744925
 20
74.5496069809
 10
65.7039382728
 20
74.5663303077
 10
65.7077204691
 20
74.5844522317
 10
65.7100278025
 20
74.603525718
 10
65.7108033668
 20
74.6230790922
 10
65.7100278025
 20
74.6426336396
 10
65.7077204691
 20
74.6617071259
 10
65.7039382728
 20
74.6798290499
 10
65.6987744925
 20
74.6965523767
 10
65.6923558466
 20
74.7114676178
 10
65.6848401468
 20
74.7242063506
 10
65.6764133641
 20
74.7344552989
 10
65.6672825896
 20
74.7419616122
 10
65.6576719273
 20
74.7465404926
 10
65.6478195611
 20
74.7480798881
  0
LWPOLYLINE
  5
25B
330
1F
100
AcDbEntity
  8
SLD-0
  6
Continuous
370
    15
100
AcDbPolyline
 90
       21
 70
   128
 43
0.0
 10
63.6841615521
 20
74.4980794695
 10
63.6743091859
 20
74.4996188651
 10
63.6646985236
 20
74.5041971588
 10
63.6555677491
 20
74.5117040588
 10
63.6471409664
 20
74.521953007
 10
63.6396258532
 20
74.5346917399
 10
63.6332066207
 20
74.5496069809
 10
63.6280428404
 20
74.5663303077
 10
63.6242612307
 20
74.5844522317
 10
63.6219533107
 20
74.603525718
 10
63.6211777464
 20
74.6230790922
 10
63.6219533107
 20
74.6426336396
 10
63.6242612307
 20
74.6617071259
 10
63.6280428404
 20
74.6798290499
 10
63.6332066207
 20
74.6965523767
 10
63.6396258532
 20
74.7114676178
 10
63.6471409664
 20
74.7242063506
 10
63.6555677491
 20
74.7344552989
 10
63.6646985236
 20
74.7419616122
 10
63.6743091859
 20
74.7465404926
 10
63.6841615521
 20
74.7480798881
  0
LWPOLYLINE
  5
25C
330
1F
100
AcDbEntity
  8
SLD-0
  6
Continuous
370
    15
100
AcDbPolyline
 90
       21
 70
   128
 43
0.0
 10
63.6841615521
 20
71.4980791391
 10
63.6743091859
 20
71.4996185346
 10
63.6646985236
 20
71.5041980017
 10
63.6555677491
 20
71.5117037284
 10
63.6471409664
 20
71.5219526766
 10
63.6396258532
 20
71.5346914095
 10
63.6332066207
 20
71.5496066505
 10
63.6280428404
 20
71.5663311506
 10
63.6242612307
 20
71.5844530746
 10
63.6219533107
 20
71.6035253876
 10
63.6211777464
 20
71.6230799351
 10
63.6219533107
 20
71.6426344825
 10
63.6242612307
 20
71.6617067955
 10
63.6280428404
 20
71.6798287195
 10
63.6332066207
 20
71.6965532196
 10
63.6396258532
 20
71.7114684607
 10
63.6471409664
 20
71.7242071935
 10
63.6555677491
 20
71.7344549685
 10
63.6646985236
 20
71.7419618684
 10
63.6743091859
 20
71.7465401622
 10
63.6841615521
 20
71.7480795577
  0
LWPOLYLINE
  5
25D
330
1F
100
AcDbEntity
  8
SLD-0
  6
Continuous
370
    15
100
AcDbPolyline
 90
       21
 70
   128
 43
0.0
 10
65.6478195611
 20
71.4980791391
 10
65.6576719273
 20
71.4996185346
 10
65.6672825896
 20
71.5041980017
 10
65.6764133641
 20
71.5117037284
 10
65.6848401468
 20
71.5219526766
 10
65.6923558466
 20
71.5346914095
 10
65.6987744925
 20
71.5496066505
 10
65.7039382728
 20
71.5663311506
 10
65.7077204691
 20
71.5844530746
 10
65.7100278025
 20
71.6035253876
 10
65.7108033668
 20
71.6230799351
 10
65.7100278025
 20
71.6426344825
 10
65.7077204691
 20
71.6617067955
 10
65.7039382728
 20
71.6798287195
 10
65.6987744925
 20
71.6965532196
 10
65.6923558466
 20
71.7114684607
 10
65.6848401468
 20
71.7242071935
 10
65.6764133641
 20
71.7344549685
 10
65.6672825896
 20
71.7419618684
 10
65.6576719273
 20
71.7465401622
 10
65.6478195611
 20
71.7480795577
  0
LINE
  5
25E
330
1F
100
AcDbEntity
  8
SLD-0
  6
Continuous
370
    15
100
AcDbLine
 10
66.4418373219
 20
82.9980796234
 30
0.0
 11
66.4418373219
 21
68.498079982
 31
0.0
  0
LINE
  5
25F
330
1F
100
AcDbEntity
  8
SLD-0
  6
Continuous
370
    15
100
AcDbLine
 10
66.4418373219
 20
68.498079982
 30
0.0
 11
66.4288809382
 21
68.498079982
 31
0.0
  0
LINE
  5
260
330
1F
100
AcDbEntity
  8
SLD-0
  6
Continuous
370
    15
100
AcDbLine
 10
66.4288809382
 20
82.9980796234
 30
0.0
 11
66.4418373219
 21
82.9980796234
 31
0.0
  0
LINE
  5
261
330
1F
100
AcDbEntity
  8
SLD-0
  6
Continuous
370
    15
100
AcDbLine
 10
62.890144378
 20
68.498079982
 30
0.0
 11
62.903100175
 21
68.498079982
 31
0.0
  0
LINE
  5
262
330
1F
100
AcDbEntity
  8
SLD-0
  6
Continuous
370
    15
100
AcDbLine
 10
62.890144378
 20
82.9980796234
 30
0.0
 11
62.890144378
 21
68.498079982
 31
0.0
  0
LINE
  5
263
330
1F
100
AcDbEntity
  8
SLD-0
  6
Continuous
370
    15
100
AcDbLine
 10
62.903100175
 20
82.9980796234
 30
0.0
 11
62.890144378
 21
82.9980796234
 31
0.0
  0
LINE
  5
264
330
1F
100
AcDbEntity
  8
SLD-0
  6
Continuous
370
    15
100
AcDbLine
 10
66.9159905111
 20
82.9980796234
 30
0.0
 11
66.9159905111
 21
68.498079982
 31
0.0
  0
LINE
  5
265
330
1F
100
AcDbEntity
  8
SLD-0
  6
Continuous
370
    15
100
AcDbLine
 10
66.9159905111
 20
68.498079982
 30
0.0
 11
66.4418373219
 21
68.498079982
 31
0.0
  0
LINE
  5
266
330
1F
100
AcDbEntity
  8
SLD-0
  6
Continuous
370
    15
100
AcDbLine
 10
66.9159905111
 20
82.9980796234
 30
0.0
 11
66.4418373219
 21
82.9980796234
 31
0.0
  0
LINE
  5
267
330
1F
100
AcDbEntity
  8
SLD-0
  6
Continuous
370
    15
100
AcDbLine
 10
62.890144378
 20
68.498079982
 30
0.0
 11
62.4159906021
 21
68.498079982
 31
0.0
  0
LINE
  5
268
330
1F
100
AcDbEntity
  8
SLD-0
  6
Continuous
370
    15
100
AcDbLine
 10
62.4159906021
 20
82.9980796234
 30
0.0
 11
62.4159906021
 21
68.498079982
 31
0.0
  0
LINE
  5
269
330
1F
100
AcDbEntity
  8
SLD-0
  6
Continuous
370
    15
100
AcDbLine
 10
62.890144378
 20
82.9980796234
 30
0.0
 11
62.4159906021
 21
82.9980796234
 31
0.0
  0
SPLINE
  5
26A
330
1F
100
AcDbEntity
  8
SLD-0
  6
Continuous
370
    15
100
AcDbSpline
210
0.0
220
0.0
230
1.0
 70
     8
 71
     3
 72
    11
 73
     7
 74
     0
 42
0.00000001
 43
0.00000001
 12
1.0
 22
0.0
 32
0.0
 13
1.0
 23
0.0
 33
0.0
 40
0.0
 40
0.0
 40
0.0
 40
0.0
 40
0.250005657314761
 40
0.5000047714761751
 40
0.7500052804940266
 40
1.0
 40
1.0
 40
1.0
 40
1.0
 10
56.70653794487043
 20
83.59367192311181
 30
0.0
 10
56.69956293659953
 20
83.59406773901266
 30
0.0
 10
56.68561310260777
 20
83.59485936045505
 30
0.0
 10
56.6679128335118
 20
83.5953636486081
 30
0.0
 10
56.65533422502988
 20
83.59478367863602
 30
0.0
 10
56.65334586122523
 20
83.59304205089944
 30
0.0
 10
56.65235169083466
 20
83.59217124711442
 30
0.0
  0
LINE
  5
26B
330
1F
100
AcDbEntity
  8
SLD-0
  6
Continuous
370
    15
100
AcDbLine
 10
56.7065379449
 20
83.5936719231
 30
0.0
 11
53.4859898689
 21
68.3866791356
 31
0.0
  0
SPLINE
  5
26C
330
1F
100
AcDbEntity
  8
SLD-0
  6
Continuous
370
    15
100
AcDbSpline
210
0.0
220
0.0
230
1.0
 70
     8
 71
     3
 72
    12
 73
     8
 74
     0
 42
0.00000001
 43
0.00000001
 12
1.0
 22
0.0
 32
0.0
 13
1.0
 23
0.0
 33
0.0
 40
0.0
 40
0.0
 40
0.0
 40
0.0
 40
0.2373851706587929
 40
0.4749160249988811
 40
0.7124424259888296
 40
0.9499589424155033
 40
1.0
 40
1.0
 40
1.0
 40
1.0
 10
53.44251367782396
 20
68.43574267547064
 30
0.0
 10
53.44257221880797
 20
68.43257584795847
 30
0.0
 10
53.4426893367027
 20
68.42624024944678
 30
0.0
 10
53.45157479827192
 20
68.4148908455447
 30
0.0
 10
53.46525814712084
 20
68.40253064748981
 30
0.0
 10
53.47782661392989
 20
68.39287367675637
 30
0.0
 10
53.48477985834597
 20
68.38759733063657
 30
0.0
 10
53.48598986891663
 20
68.38667913559017
 30
0.0
  0
LINE
  5
26D
330
1F
100
AcDbEntity
  8
SLD-0
  6
Continuous
370
    15
100
AcDbLine
 10
53.4425136778
 20
68.4357426755
 30
0.0
 11
56.6523516908
 21
83.5921712471
 31
0.0
  0
SPLINE
  5
26E
330
1F
100
AcDbEntity
  8
SLD-0
  6
Continuous
370
    15
100
AcDbSpline
210
0.0
220
0.0
230
1.0
 70
     8
 71
     3
 72
    11
 73
     7
 74
     0
 42
0.00000001
 43
0.00000001
 12
1.0
 22
0.0
 32
0.0
 13
1.0
 23
0.0
 33
0.0
 40
0.0
 40
0.0
 40
0.0
 40
0.0
 40
0.2499947195059734
 40
0.4999952285238249
 40
0.749994342685239
 40
1.0
 40
1.0
 40
1.0
 40
1.0
 10
93.31962965397736
 20
83.59217124711442
 30
0.0
 10
93.3186354835868
 20
83.59304205089944
 30
0.0
 10
93.31664711978215
 20
83.59478367863602
 30
0.0
 10
93.3040685113002
 20
83.5953636486081
 30
0.0
 10
93.28636824220423
 20
83.59485936045505
 30
0.0
 10
93.2724184082125
 20
83.59406773901266
 30
0.0
 10
93.26544339994159
 20
83.59367192311181
 30
0.0
  0
LINE
  5
26F
330
1F
100
AcDbEntity
  8
SLD-0
  6
Continuous
370
    15
100
AcDbLine
 10
93.319629654
 20
83.5921712471
 30
0.0
 11
96.529467667
 21
68.4357426755
 31
0.0
  0
SPLINE
  5
270
330
1F
100
AcDbEntity
  8
SLD-0
  6
Continuous
370
    15
100
AcDbSpline
210
0.0
220
0.0
230
1.0
 70
     8
 71
     3
 72
    12
 73
     8
 74
     0
 42
0.00000001
 43
0.00000001
 12
1.0
 22
0.0
 32
0.0
 13
1.0
 23
0.0
 33
0.0
 40
0.0
 40
0.0
 40
0.0
 40
0.0
 40
0.2373888836738411
 40
0.4748986034202146
 40
0.7124325671011181
 40
0.9499570578646304
 40
1.0
 40
1.0
 40
1.0
 40
1.0
 10
96.4859914758954
 20
68.38667913559016
 30
0.0
 10
96.49176022139163
 20
68.39105568811381
 30
0.0
 10
96.50330064880022
 20
68.39981102092094
 30
0.0
 10
96.5179801465959
 20
68.41238782189123
 30
0.0
 10
96.52768496535295
 20
68.42390598499708
 30
0.0
 10
96.53015362609702
 20
68.43142421009277
 30
0.0
 10
96.52956934458608
 20
68.43510256269863
 30
0.0
 10
96.52946766698807
 20
68.43574267547064
 30
0.0
  0
LINE
  5
271
330
1F
100
AcDbEntity
  8
SLD-0
  6
Continuous
370
    15
100
AcDbLine
 10
96.4859914759
 20
68.3866791356
 30
0.0
 11
93.2654433999
 21
83.5936719231
 31
0.0
  0
LINE
  5
272
330
1F
100
AcDbEntity
  8
SLD-0
  6
Continuous
370
    15
100
AcDbLine
 10
53.4859898689
 20
66.6336795464
 30
0.0
 11
53.4859898689
 21
66.2586795051
 31
0.0
  0
LINE
  5
273
330
1F
100
AcDbEntity
  8
SLD-0
  6
Continuous
370
    15
100
AcDbLine
 10
53.4859898689
 20
66.6336795464
 30
0.0
 11
53.5030194322
 21
66.6336795464
 31
0.0
  0
LINE
  5
274
330
1F
100
AcDbEntity
  8
SLD-0
  6
Continuous
370
    15
100
AcDbLine
 10
53.5030194322
 20
66.6336795464
 30
0.0
 11
53.5030194322
 21
67.9466795252
 31
0.0
  0
LINE
  5
275
330
1F
100
AcDbEntity
  8
SLD-0
  6
Continuous
370
    15
100
AcDbLine
 10
53.5030194322
 20
67.9466795252
 30
0.0
 11
53.4859898689
 21
67.9466795252
 31
0.0
  0
LINE
  5
276
330
1F
100
AcDbEntity
  8
SLD-0
  6
Continuous
370
    15
100
AcDbLine
 10
53.4859898689
 20
68.3866791356
 30
0.0
 11
53.4859898689
 21
67.9466795252
 31
0.0
  0
LINE
  5
277
330
1F
100
AcDbEntity
  8
SLD-0
  6
Continuous
370
    15
100
AcDbLine
 10
56.9159907786
 20
84.5826796647
 30
0.0
 11
56.7065379449
 21
83.5936719231
 31
0.0
  0
LINE
  5
278
330
1F
100
AcDbEntity
  8
SLD-0
  6
Continuous
370
    15
100
AcDbLine
 10
93.0559905662
 20
84.5826796647
 30
0.0
 11
56.9159907786
 21
84.5826796647
 31
0.0
  0
LINE
  5
279
330
1F
100
AcDbEntity
  8
SLD-0
  6
Continuous
370
    15
100
AcDbLine
 10
93.2654433999
 20
83.5936719231
 30
0.0
 11
93.0559905662
 21
84.5826796647
 31
0.0
  0
LINE
  5
27A
330
1F
100
AcDbEntity
  8
SLD-0
  6
Continuous
370
    15
100
AcDbLine
 10
96.4859914759
 20
67.9466795252
 30
0.0
 11
96.4859914759
 21
68.3866791356
 31
0.0
  0
LINE
  5
27B
330
1F
100
AcDbEntity
  8
SLD-0
  6
Continuous
370
    15
100
AcDbLine
 10
96.4859914759
 20
67.9466795252
 30
0.0
 11
96.4689619126
 21
67.9466795252
 31
0.0
  0
LINE
  5
27C
330
1F
100
AcDbEntity
  8
SLD-0
  6
Continuous
370
    15
100
AcDbLine
 10
96.4689619126
 20
67.9466795252
 30
0.0
 11
96.4689619126
 21
66.6336795464
 31
0.0
  0
LINE
  5
27D
330
1F
100
AcDbEntity
  8
SLD-0
  6
Continuous
370
    15
100
AcDbLine
 10
96.4689619126
 20
66.6336795464
 30
0.0
 11
96.4859914759
 21
66.6336795464
 31
0.0
  0
LINE
  5
27E
330
1F
100
AcDbEntity
  8
SLD-0
  6
Continuous
370
    15
100
AcDbLine
 10
96.4859914759
 20
66.2586795051
 30
0.0
 11
96.4859914759
 21
66.6336795464
 31
0.0
  0
LINE
  5
27F
330
1F
100
AcDbEntity
  8
SLD-0
  6
Continuous
370
    15
100
AcDbLine
 10
96.4859914759
 20
66.143379717
 30
0.0
 11
96.4859914759
 21
66.2586795051
 31
0.0
  0
LINE
  5
280
330
1F
100
AcDbEntity
  8
SLD-0
  6
Continuous
370
    15
100
AcDbLine
 10
53.4859898689
 20
66.2586795051
 30
0.0
 11
53.4859898689
 21
66.143379717
 31
0.0
  0
SPLINE
  5
281
330
1F
100
AcDbEntity
  8
SLD-0
  6
Continuous
370
    15
100
AcDbSpline
210
0.0
220
0.0
230
1.0
 70
     8
 71
     3
 72
    11
 73
     7
 74
     0
 42
0.00000001
 43
0.00000001
 12
1.0
 22
0.0
 32
0.0
 13
1.0
 23
0.0
 33
0.0
 40
0.0
 40
0.0
 40
0.0
 40
0.0
 40
0.2500033300187585
 40
0.5000006963225948
 40
0.7500062307230385
 40
1.0
 40
1.0
 40
1.0
 40
1.0
 10
93.05599056622526
 20
84.58267966467713
 30
0.0
 10
93.05493262602484
 20
84.58958527084685
 30
0.0
 10
93.05281677086066
 20
84.60339631845625
 30
0.0
 10
93.04964290976257
 20
84.62081667880241
 30
0.0
 10
93.04646886047325
 20
84.63300292409872
 30
0.0
 10
93.04435388325962
 20
84.63458743132648
 30
0.0
 10
93.04329641953579
 20
84.6353796662984
 30
0.0
  0
SPLINE
  5
282
330
1F
100
AcDbEntity
  8
SLD-0
  6
Continuous
370
    15
100
AcDbSpline
210
0.0
220
0.0
230
1.0
 70
     8
 71
     3
 72
    11
 73
     7
 74
     0
 42
0.00000001
 43
0.00000001
 12
1.0
 22
0.0
 32
0.0
 13
1.0
 23
0.0
 33
0.0
 40
0.0
 40
0.0
 40
0.0
 40
0.0
 40
0.2499937692769615
 40
0.4999993036774052
 40
0.7499966699812415
 40
1.0
 40
1.0
 40
1.0
 40
1.0
 10
56.92868492527623
 20
84.6353796662984
 30
0.0
 10
56.9276274615524
 20
84.63458743132648
 30
0.0
 10
56.92551248433875
 20
84.63300292409872
 30
0.0
 10
56.92233843504945
 20
84.62081667880241
 30
0.0
 10
56.91916457395136
 20
84.60339631845625
 30
0.0
 10
56.91704871878718
 20
84.58958527084685
 30
0.0
 10
56.91599077858676
 20
84.58267966467713
 30
0.0
  0
LINE
  5
283
330
1F
100
AcDbEntity
  8
SLD-0
  6
Continuous
370
    15
100
AcDbLine
 10
56.9286849253
 20
84.6353796663
 30
0.0
 11
93.0432964195
 21
84.6353796663
 31
0.0
  0
LINE
  5
284
330
1F
100
AcDbEntity
  8
SLD-0
  6
Continuous
370
    15
100
AcDbLine
 10
53.4332913844
 20
67.9466795252
 30
0.0
 11
53.4859898689
 21
67.9466795252
 31
0.0
  0
LINE
  5
285
330
1F
100
AcDbEntity
  8
SLD-0
  6
Continuous
370
    15
100
AcDbLine
 10
53.4332913844
 20
68.3267365747
 30
0.0
 11
53.4332913844
 21
67.9466795252
 31
0.0
  0
SPLINE
  5
286
330
1F
100
AcDbEntity
  8
SLD-0
  6
Continuous
370
    15
100
AcDbSpline
210
0.0
220
0.0
230
1.0
 70
     8
 71
     3
 72
    11
 73
     7
 74
     0
 42
0.00000001
 43
0.00000001
 12
1.0
 22
0.0
 32
0.0
 13
1.0
 23
0.0
 33
0.0
 40
0.0
 40
0.0
 40
0.0
 40
0.0
 40
0.2499996945887553
 40
0.5000018176699632
 40
0.750003940751171
 40
1.0
 40
1.0
 40
1.0
 40
1.0
 10
53.48598986891663
 20
68.38667913559017
 30
0.0
 10
53.47908443422604
 20
68.38168391135063
 30
0.0
 10
53.46527349776564
 20
68.37169341434806
 30
0.0
 10
53.44785279914277
 20
68.35670783958848
 30
0.0
 10
53.43566674418635
 20
68.3417224308594
 30
0.0
 10
53.43408316456751
 20
68.331731819711
 30
0.0
 10
53.43329138436068
 20
68.3267365747184
 30
0.0
  0
LINE
  5
287
330
1F
100
AcDbEntity
  8
SLD-0
  6
Continuous
370
    15
100
AcDbLine
 10
96.5386899605
 20
67.9466795252
 30
0.0
 11
96.5386899605
 21
68.3267365747
 31
0.0
  0
LINE
  5
288
330
1F
100
AcDbEntity
  8
SLD-0
  6
Continuous
370
    15
100
AcDbLine
 10
96.4859914759
 20
67.9466795252
 30
0.0
 11
96.5386899605
 21
67.9466795252
 31
0.0
  0
SPLINE
  5
289
330
1F
100
AcDbEntity
  8
SLD-0
  6
Continuous
370
    15
100
AcDbSpline
210
0.0
220
0.0
230
1.0
 70
     8
 71
     3
 72
    11
 73
     7
 74
     0
 42
0.00000001
 43
0.00000001
 12
1.0
 22
0.0
 32
0.0
 13
1.0
 23
0.0
 33
0.0
 40
0.0
 40
0.0
 40
0.0
 40
0.0
 40
0.249996059248829
 40
0.4999981823300368
 40
0.7500003054112446
 40
1.0
 40
1.0
 40
1.0
 40
1.0
 10
96.53868996045134
 20
68.3267365747184
 30
0.0
 10
96.53789818024451
 20
68.331731819711
 30
0.0
 10
96.53631460062567
 20
68.3417224308594
 30
0.0
 10
96.52412854566924
 20
68.35670783958848
 30
0.0
 10
96.50670784704637
 20
68.37169341434807
 30
0.0
 10
96.49289691058597
 20
68.38168391135063
 30
0.0
 10
96.4859914758954
 20
68.38667913559016
 30
0.0
  0
LINE
  5
28A
330
1F
100
AcDbEntity
  8
SLD-0
  6
Continuous
370
    15
100
AcDbLine
 10
53.4332913844
 20
66.6336795464
 30
0.0
 11
53.4332913844
 21
66.2586795051
 31
0.0
  0
LINE
  5
28B
330
1F
100
AcDbEntity
  8
SLD-0
  6
Continuous
370
    15
100
AcDbLine
 10
53.4859898689
 20
66.6336795464
 30
0.0
 11
53.4332913844
 21
66.6336795464
 31
0.0
  0
LINE
  5
28C
330
1F
100
AcDbEntity
  8
SLD-0
  6
Continuous
370
    15
100
AcDbLine
 10
53.4332913844
 20
66.2586795051
 30
0.0
 11
53.4859898689
 21
66.2586795051
 31
0.0
  0
LINE
  5
28D
330
1F
100
AcDbEntity
  8
SLD-0
  6
Continuous
370
    15
100
AcDbLine
 10
96.5386899605
 20
66.6336795464
 30
0.0
 11
96.4859914759
 21
66.6336795464
 31
0.0
  0
LINE
  5
28E
330
1F
100
AcDbEntity
  8
SLD-0
  6
Continuous
370
    15
100
AcDbLine
 10
96.5386899605
 20
66.2586795051
 30
0.0
 11
96.5386899605
 21
66.6336795464
 31
0.0
  0
LINE
  5
28F
330
1F
100
AcDbEntity
  8
SLD-0
  6
Continuous
370
    15
100
AcDbLine
 10
96.4859914759
 20
66.2586795051
 30
0.0
 11
96.5386899605
 21
66.2586795051
 31
0.0
  0
LINE
  5
290
330
1F
100
AcDbEntity
  8
SLD-0
  6
Continuous
370
    15
100
AcDbLine
 10
96.5386899605
 20
66.6336795464
 30
0.0
 11
96.5386899605
 21
67.9466795252
 31
0.0
  0
LINE
  5
291
330
1F
100
AcDbEntity
  8
SLD-0
  6
Continuous
370
    15
100
AcDbLine
 10
96.5169905845
 20
66.6336795464
 30
0.0
 11
96.5169905845
 21
67.9466795252
 31
0.0
  0
LINE
  5
292
330
1F
100
AcDbEntity
  8
SLD-0
  6
Continuous
370
    15
100
AcDbLine
 10
53.4549907604
 20
67.9466795252
 30
0.0
 11
53.4549907604
 21
66.6336795464
 31
0.0
  0
LINE
  5
293
330
1F
100
AcDbEntity
  8
SLD-0
  6
Continuous
370
    15
100
AcDbLine
 10
53.4332913844
 20
67.9466795252
 30
0.0
 11
53.4332913844
 21
66.6336795464
 31
0.0
  0
ARC
  5
294
330
1F
100
AcDbEntity
  8
SLD-0
  6
Continuous
370
    15
100
AcDbCircle
 10
93.0113026117
 20
84.5609796647
 30
0.0
 40
0.0527000000000077
100
AcDbArc
 50
11.9836622663
 51
34.2829699132
  0
LINE
  5
295
330
1F
100
AcDbEntity
  8
SLD-0
  6
Continuous
370
    15
100
AcDbLine
 10
93.2704405689
 20
83.5939350401
 30
0.0
 11
93.0628544869
 21
84.5719219116
 31
0.0
  0
LINE
  5
296
330
1F
100
AcDbEntity
  8
SLD-0
  6
Continuous
370
    15
100
AcDbLine
 10
96.4883334222
 20
66.143379717
 30
0.0
 11
96.4883334222
 21
66.2586795051
 31
0.0
  0
LINE
  5
297
330
1F
100
AcDbEntity
  8
SLD-0
  6
Continuous
370
    15
100
AcDbLine
 10
96.4883334222
 20
66.6336795464
 30
0.0
 11
96.4883334222
 21
67.9466795252
 31
0.0
  0
LINE
  5
298
330
1F
100
AcDbEntity
  8
SLD-0
  6
Continuous
370
    15
100
AcDbLine
 10
56.7015407759
 20
83.5939350401
 30
0.0
 11
56.9091268579
 21
84.5719219116
 31
0.0
  0
ARC
  5
299
330
1F
100
AcDbEntity
  8
SLD-0
  6
Continuous
370
    15
100
AcDbCircle
 10
56.9606787331
 20
84.5609796647
 30
0.0
 40
0.0526999999999945
100
AcDbArc
 50
145.7170300871
 51
168.0163377337
  0
LINE
  5
29A
330
1F
100
AcDbEntity
  8
SLD-0
  6
Continuous
370
    15
100
AcDbLine
 10
53.4836479226
 20
66.143379717
 30
0.0
 11
53.4836479226
 21
66.2586795051
 31
0.0
  0
LINE
  5
29B
330
1F
100
AcDbEntity
  8
SLD-0
  6
Continuous
370
    15
100
AcDbLine
 10
53.4836479226
 20
66.6336795464
 30
0.0
 11
53.4836479226
 21
67.9466795252
 31
0.0
  0
LINE
  5
29C
330
1F
100
AcDbEntity
  8
SLD-0
  6
Continuous
370
    15
100
AcDbLine
 10
53.4836479226
 20
68.384937929
 30
0.0
 11
53.4836479226
 21
68.3884578884
 31
0.0
  0
LINE
  5
29D
330
1F
100
AcDbEntity
  8
SLD-0
  6
Continuous
370
    15
100
AcDbLine
 10
56.9159907786
 20
84.5943796646
 30
0.0
 11
56.9141627464
 21
84.585750474
 31
0.0
  0
LINE
  5
29E
330
1F
100
AcDbEntity
  8
SLD-0
  6
Continuous
370
    15
100
AcDbLine
 10
93.0559905662
 20
84.5943796646
 30
0.0
 11
93.0541496275
 21
84.5943796646
 31
0.0
  0
LINE
  5
29F
330
1F
100
AcDbEntity
  8
SLD-0
  6
Continuous
370
    15
100
AcDbLine
 10
56.9178317173
 20
84.5943796646
 30
0.0
 11
56.9159907786
 21
84.5943796646
 31
0.0
  0
LINE
  5
2A0
330
1F
100
AcDbEntity
  8
SLD-0
  6
Continuous
370
    15
100
AcDbLine
 10
93.0578185984
 20
84.585750474
 30
0.0
 11
93.0559905662
 21
84.5943796646
 31
0.0
  0
LINE
  5
2A1
330
1F
100
AcDbEntity
  8
SLD-0
  6
Continuous
370
    15
100
AcDbLine
 10
93.058466271
 20
84.5709905397
 30
0.0
 11
93.0628544869
 21
84.5719219116
 31
0.0
  0
LINE
  5
2A2
330
1F
100
AcDbEntity
  8
SLD-0
  6
Continuous
370
    15
100
AcDbLine
 10
56.9135150739
 20
84.5709905397
 30
0.0
 11
56.9091268579
 21
84.5719219116
 31
0.0
  0
DIMENSION
  5
2A3
330
1F
100
AcDbEntity
  8
DIM
100
AcDbDimension
  2
_D_6
 10
93.0559906724
 20
89.2366228233
 30
0.0
 11
74.9859906724
 21
89.2366228233
 31
0.0
 70
   160
  1
<>
 71
     2
 42
-1.0
  3
SLDDIMSTYLE0
100
AcDbAlignedDimension
 13
56.9159906724
 23
84.6613796647
 33
0.0
 14
93.0559906724
 24
84.6613796647
 34
0.0
 50
0.0
100
AcDbRotatedDimension
  0
DIMENSION
  5
2B2
330
1F
100
AcDbEntity
  8
DIM
100
AcDbDimension
  2
_D_7
 10
97.4883340024
 20
58.7705506802
 30
0.0
 11
102.8601987272
 21
58.7705506802
 31
0.0
 70
   160
  1
<>
 71
     2
 42
-1.0
  3
SLDDIMSTYLE1
100
AcDbAlignedDimension
 13
96.5634906724
 23
65.4579796647
 33
0.0
 14
97.4883340024
 24
66.1810546647
 34
0.0
100
AcDbRotatedDimension
  0
DIMENSION
  5
2C1
330
1F
100
AcDbEntity
  8
DIM
100
AcDbDimension
  2
_D_8
 10
55.0360906724
 20
58.7705506802
 30
0.0
 11
74.9859906724
 21
58.7705506802
 31
0.0
 70
   160
  1
<>
 71
     2
 42
-1.0
  3
SLDDIMSTYLE0
100
AcDbAlignedDimension
 13
94.9358906724
 23
62.8449983546
 33
0.0
 14
55.0360906724
 24
62.8449983546
 34
0.0
100
AcDbRotatedDimension
  0
DIMENSION
  5
2D0
330
1F
100
AcDbEntity
  8
DIM
100
AcDbDimension
  2
_D_9
 10
48.4836473424
 20
62.7706491054
 30
0.0
 11
48.4836473424
 21
58.7705506802
 31
0.0
 70
   160
  1
<>
 71
     2
 42
-1.0
  3
SLDDIMSTYLE1
100
AcDbAlignedDimension
 13
53.4732033708
 23
65.3933796647
 33
0.0
 14
55.0942784343
 24
62.7706491054
 34
0.0
 50
90.0
100
AcDbRotatedDimension
  0
DIMENSION
  5
2E0
330
1F
100
AcDbEntity
  8
DIM
100
AcDbDimension
  2
_D_10
 10
48.4836473424
 20
84.6613796647
 30
0.0
 11
48.4836473424
 21
75.0273796647
 31
0.0
 70
   160
  1
<>
 71
     2
 42
-1.0
  3
SLDDIMSTYLE0
100
AcDbAlignedDimension
 13
53.4732033708
 23
65.3933796647
 33
0.0
 14
56.9159906724
 24
84.6613796647
 34
0.0
 50
90.0
100
AcDbRotatedDimension
  0
LINE
  5
2EF
330
1F
100
AcDbEntity
  8
SLD-0
  6
Continuous
370
    15
100
AcDbLine
 10
141.2151580843
 20
50.2596716729
 30
0.0
 11
124.3401585724
 21
50.2596716729
 31
0.0
  0
LINE
  5
2F0
330
1F
100
AcDbEntity
  8
SLD-0
  6
Continuous
370
    15
100
AcDbLine
 10
126.6154579413
 20
11.6010411007
 30
0.0
 11
126.6698612595
 21
11.6010411007
 31
0.0
  0
LINE
  5
2F1
330
1F
100
AcDbEntity
  8
SLD-0
  6
Continuous
370
    15
100
AcDbLine
 10
126.6154579413
 20
12.5670411231
 30
0.0
 11
126.6698612595
 21
12.5670411231
 31
0.0
  0
LINE
  5
2F2
330
1F
100
AcDbEntity
  8
SLD-0
  6
Continuous
370
    15
100
AcDbLine
 10
126.6154579413
 20
11.5984410974
 30
0.0
 11
123.6774581747
 21
11.5984410974
 31
0.0
  0
SPLINE
  5
2F3
330
1F
100
AcDbEntity
  8
SLD-0
  6
Continuous
370
    15
100
AcDbSpline
210
0.0
220
0.0
230
1.0
 70
     8
 71
     3
 72
    11
 73
     7
 74
     0
 42
0.00000001
 43
0.00000001
 12
1.0
 22
0.0
 32
0.0
 13
1.0
 23
0.0
 33
0.0
 40
0.0
 40
0.0
 40
0.0
 40
0.0
 40
0.2499985766004055
 40
0.4999986738497195
 40
0.7500031879761049
 40
1.0
 40
1.0
 40
1.0
 40
1.0
 10
126.6154579413227
 20
11.59844109744723
 30
0.0
 10
126.6142695012992
 20
11.58966163383184
 30
0.0
 10
126.6118926140235
 20
11.57210265319885
 30
0.0
 10
126.6083248660387
 20
11.54995589710225
 30
0.0
 10
126.6047597864928
 20
11.53446272520375
 30
0.0
 10
126.6023825118035
 20
11.53244829234904
 30
0.0
 10
126.6011938927688
 20
11.53144109143701
 30
0.0
  0
LINE
  5
2F4
330
1F
100
AcDbEntity
  8
SLD-0
  6
Continuous
370
    15
100
AcDbLine
 10
123.6774581747
 20
11.5314410914
 30
0.0
 11
126.6011938928
 21
11.5314410914
 31
0.0
  0
LINE
  5
2F5
330
1F
100
AcDbEntity
  8
SLD-0
  6
Continuous
370
    15
100
AcDbLine
 10
123.6774581747
 20
11.5314410914
 30
0.0
 11
123.6774581747
 21
11.5984410974
 31
0.0
  0
LINE
  5
2F6
330
1F
100
AcDbEntity
  8
SLD-0
  6
Continuous
370
    15
100
AcDbLine
 10
123.6774581747
 20
11.5984410974
 30
0.0
 11
123.6774581747
 21
12.5674411243
 31
0.0
  0
LINE
  5
2F7
330
1F
100
AcDbEntity
  8
SLD-0
  6
Continuous
370
    15
100
AcDbLine
 10
123.6774581747
 20
12.5674411243
 30
0.0
 11
126.6154579413
 21
12.5674411243
 31
0.0
  0
LINE
  5
2F8
330
1F
100
AcDbEntity
  8
SLD-0
  6
Continuous
370
    15
100
AcDbLine
 10
126.6154579413
 20
12.5674411243
 30
0.0
 11
126.6154579413
 21
11.5984410974
 31
0.0
  0
LINE
  5
2F9
330
1F
100
AcDbEntity
  8
SLD-0
  6
Continuous
370
    15
100
AcDbLine
 10
126.663438507
 20
11.5314410914
 30
0.0
 11
142.8114581255
 21
11.5314410914
 31
0.0
  0
ARC
  5
2FA
330
1F
100
AcDbEntity
  8
SLD-0
  6
Continuous
370
    15
100
AcDbCircle
 10
126.5860740461
 20
11.5824080632
 30
0.0
 40
0.0926438990168613
100
AcDbArc
 50
326.6234877152
 51
9.9658327466
  0
LINE
  5
2FB
330
1F
100
AcDbEntity
  8
SLD-0
  6
Continuous
370
    15
100
AcDbLine
 10
142.8125700878
 20
11.5984410974
 30
0.0
 11
126.6773200534
 21
11.5984410974
 31
0.0
  0
ARC
  5
2FC
330
1F
100
AcDbEntity
  8
SLD-0
  6
Continuous
370
    15
100
AcDbCircle
 10
142.4916542923
 20
11.5984260102
 30
0.0
 40
0.3209157958517925
100
AcDbArc
 50
358.4107757176
 51
0.0026936534
  0
SPLINE
  5
2FD
330
1F
100
AcDbEntity
  8
SLD-0
  6
Continuous
370
    15
100
AcDbSpline
210
0.0
220
0.0
230
1.0
 70
     8
 71
     3
 72
    11
 73
     7
 74
     0
 42
0.00000001
 43
0.00000001
 12
1.0
 22
0.0
 32
0.0
 13
1.0
 23
0.0
 33
0.0
 40
0.0
 40
0.0
 40
0.0
 40
0.0
 40
0.2499979021859234
 40
0.5000029418018155
 40
0.7499979826346426
 40
1.0
 40
1.0
 40
1.0
 40
1.0
 10
142.8124466474312
 20
11.58952584710363
 30
0.0
 10
142.8131167498394
 20
11.58167606703145
 30
0.0
 10
142.8144569737873
 20
11.56597628277619
 30
0.0
 10
142.8143901297873
 20
11.54703280065884
 30
0.0
 10
142.8132586827446
 20
11.53396194663871
 30
0.0
 10
142.8120583168427
 20
11.53228138432062
 30
0.0
 10
142.8114581255173
 20
11.53144109143701
 30
0.0
  0
LINE
  5
2FE
330
1F
100
AcDbEntity
  8
SLD-0
  6
Continuous
370
    15
100
AcDbLine
 10
142.8125700878
 20
11.5984410974
 30
0.0
 11
142.8125700878
 21
12.5674411243
 31
0.0
  0
LINE
  5
2FF
330
1F
100
AcDbEntity
  8
SLD-0
  6
Continuous
370
    15
100
AcDbLine
 10
126.6773200534
 20
12.5674411243
 30
0.0
 11
126.6773200534
 21
11.5984410974
 31
0.0
  0
LINE
  5
300
330
1F
100
AcDbEntity
  8
SLD-0
  6
Continuous
370
    15
100
AcDbLine
 10
126.6773200534
 20
12.5674411243
 30
0.0
 11
142.8125700878
 21
12.5674411243
 31
0.0
  0
ARC
  5
301
330
1F
100
AcDbEntity
  8
SLD-0
  6
Continuous
370
    15
100
AcDbCircle
 10
126.6276486753
 20
11.5910215934
 30
0.0
 40
0.0428596699389969
100
AcDbArc
 50
326.6207153499
 51
9.9687808719
  0
LINE
  5
302
330
1F
100
AcDbEntity
  8
SLD-0
  6
Continuous
370
    15
100
AcDbLine
 10
126.6773200534
 20
11.5984410974
 30
0.0
 11
126.6698612595
 21
11.5984410974
 31
0.0
  0
LINE
  5
303
330
1F
100
AcDbEntity
  8
SLD-0
  6
Continuous
370
    15
100
AcDbLine
 10
126.663438507
 20
11.5674411089
 30
0.0
 11
126.663438507
 21
11.5314410914
 31
0.0
  0
LINE
  5
304
330
1F
100
AcDbEntity
  8
SLD-0
  6
Continuous
370
    15
100
AcDbLine
 10
126.6698612595
 20
12.5674411243
 30
0.0
 11
126.6698612595
 21
11.5984410974
 31
0.0
  0
LINE
  5
305
330
1F
100
AcDbEntity
  8
SLD-0
  6
Continuous
370
    15
100
AcDbLine
 10
126.6773200534
 20
12.5674411243
 30
0.0
 11
126.6698612595
 21
12.5674411243
 31
0.0
  0
LINE
  5
306
330
1F
100
AcDbEntity
  8
SLD-0
  6
Continuous
370
    15
100
AcDbLine
 10
126.6628260341
 20
11.5314410914
 30
0.0
 11
126.6628260341
 21
11.5674411089
 31
0.0
  0
LINE
  5
307
330
1F
100
AcDbEntity
  8
SLD-0
  6
Continuous
370
    15
100
AcDbLine
 10
126.6628260341
 20
11.5674411089
 30
0.0
 11
126.6110122327
 21
11.5674411089
 31
0.0
  0
LINE
  5
308
330
1F
100
AcDbEntity
  8
SLD-0
  6
Continuous
370
    15
100
AcDbLine
 10
126.6628260341
 20
11.5314410914
 30
0.0
 11
126.6011938928
 21
11.5314410914
 31
0.0
  0
ARC
  5
309
330
1F
100
AcDbEntity
  8
SLD-0
  6
Continuous
370
    15
100
AcDbCircle
 10
123.6774581256
 20
11.5984411246
 30
0.0
 40
0.0310000000000059
100
AcDbArc
 50
180.0
 51
270.0
  0
ARC
  5
30A
330
1F
100
AcDbEntity
  8
SLD-0
  6
Continuous
370
    15
100
AcDbCircle
 10
123.6774581256
 20
11.5984411246
 30
0.0
 40
0.0670000000000073
100
AcDbArc
 50
180.0
 51
270.0
  0
LINE
  5
30B
330
1F
100
AcDbEntity
  8
SLD-0
  6
Continuous
370
    15
100
AcDbLine
 10
123.6464578928
 20
11.5984410974
 30
0.0
 11
123.6104580953
 21
11.5984410974
 31
0.0
  0
LINE
  5
30C
330
1F
100
AcDbEntity
  8
SLD-0
  6
Continuous
370
    15
100
AcDbLine
 10
123.6104580953
 20
11.5984410974
 30
0.0
 11
123.6104580953
 21
12.5004411275
 31
0.0
  0
LINE
  5
30D
330
1F
100
AcDbEntity
  8
SLD-0
  6
Continuous
370
    15
100
AcDbLine
 10
123.6464578928
 20
12.5004411275
 30
0.0
 11
123.6104580953
 21
12.5004411275
 31
0.0
  0
LINE
  5
30E
330
1F
100
AcDbEntity
  8
SLD-0
  6
Continuous
370
    15
100
AcDbLine
 10
123.6464578928
 20
11.5984410974
 30
0.0
 11
123.6464578928
 21
12.5004411275
 31
0.0
  0
ARC
  5
30F
330
1F
100
AcDbEntity
  8
SLD-0
  6
Continuous
370
    15
100
AcDbCircle
 10
123.6774581256
 20
12.5004411246
 30
0.0
 40
0.0670000000000073
100
AcDbArc
 50
90.0
 51
180.0
  0
ARC
  5
310
330
1F
100
AcDbEntity
  8
SLD-0
  6
Continuous
370
    15
100
AcDbCircle
 10
123.6774581256
 20
12.5004411246
 30
0.0
 40
0.0310000000000059
100
AcDbArc
 50
90.0
 51
180.0
  0
LINE
  5
311
330
1F
100
AcDbEntity
  8
SLD-0
  6
Continuous
370
    15
100
AcDbLine
 10
126.663438507
 20
11.5674411089
 30
0.0
 11
126.6628260341
 21
11.5674411089
 31
0.0
  0
LINE
  5
312
330
1F
100
AcDbEntity
  8
SLD-0
  6
Continuous
370
    15
100
AcDbLine
 10
126.663438507
 20
11.5314410914
 30
0.0
 11
126.6628260341
 21
11.5314410914
 31
0.0
  0
LINE
  5
313
330
1F
100
AcDbEntity
  8
SLD-0
  6
Continuous
370
    15
100
AcDbLine
 10
142.8424581244
 20
11.5984410974
 30
0.0
 11
142.8784581281
 21
11.5984410974
 31
0.0
  0
ARC
  5
314
330
1F
100
AcDbEntity
  8
SLD-0
  6
Continuous
370
    15
100
AcDbCircle
 10
142.8114581256
 20
11.5984411246
 30
0.0
 40
0.0670000000000073
100
AcDbArc
 50
270.0
 51
0.0
  0
ARC
  5
315
330
1F
100
AcDbEntity
  8
SLD-0
  6
Continuous
370
    15
100
AcDbCircle
 10
142.8114581256
 20
11.5984411246
 30
0.0
 40
0.0310000000000059
100
AcDbArc
 50
274.8675649223
 51
0.0
  0
LINE
  5
316
330
1F
100
AcDbEntity
  8
SLD-0
  6
Continuous
370
    15
100
AcDbLine
 10
142.8424581244
 20
12.5674411243
 30
0.0
 11
142.8424581244
 21
11.5984410974
 31
0.0
  0
LINE
  5
317
330
1F
100
AcDbEntity
  8
SLD-0
  6
Continuous
370
    15
100
AcDbLine
 10
142.8784581281
 20
12.5674411243
 30
0.0
 11
142.8784581281
 21
11.5984410974
 31
0.0
  0
LINE
  5
318
330
1F
100
AcDbEntity
  8
SLD-0
  6
Continuous
370
    15
100
AcDbLine
 10
142.8784581281
 20
12.5674411243
 30
0.0
 11
142.8424581244
 21
12.5674411243
 31
0.0
  0
LWPOLYLINE
  5
319
330
1F
100
AcDbEntity
  8
SLD-0
  6
Continuous
370
    15
100
AcDbPolyline
 90
        9
 70
   128
 43
0.0
 10
123.1139889506
 20
42.9260945244
 10
123.1145990769
 20
42.9254867447
 10
123.116404816
 20
42.9236798323
 10
123.1193392888
 20
42.9207441862
 10
123.1232875098
 20
42.9167971385
 10
123.1280992943
 20
42.9119865274
 10
123.1335880842
 20
42.9064953908
 10
123.1395438554
 20
42.9005396196
 10
123.1457378105
 20
42.8943468378
  0
LINE
  5
31A
330
1F
100
AcDbEntity
  8
SLD-0
  6
Continuous
370
    15
100
AcDbLine
 10
121.0620779344
 20
40.8106857884
 30
0.0
 11
123.1457378105
 21
42.8943468378
 31
0.0
  0
SPLINE
  5
31B
330
1F
100
AcDbEntity
  8
SLD-0
  6
Continuous
370
    15
100
AcDbSpline
210
0.0
220
0.0
230
1.0
 70
     8
 71
     3
 72
    11
 73
     7
 74
     0
 42
0.00000001
 43
0.00000001
 12
1.0
 22
0.0
 32
0.0
 13
1.0
 23
0.0
 33
0.0
 40
0.0
 40
0.0
 40
0.0
 40
0.0
 40
0.2582975151661717
 40
0.5167611153887499
 40
0.7752138868728923
 40
1.0
 40
1.0
 40
1.0
 40
1.0
 10
121.0620779344424
 20
40.81068578843711
 30
0.0
 10
121.0549136579959
 20
40.81212025574349
 30
0.0
 10
121.04058049848
 20
40.81499011271734
 30
0.0
 10
121.0212624835456
 20
40.81711332915867
 30
0.0
 10
121.0061231330502
 20
40.8157905569699
 30
0.0
 10
120.9999387166886
 20
40.81127182023605
 30
0.0
 10
120.9970619388461
 20
40.80916985928258
 30
0.0
  0
LINE
  5
31C
330
1F
100
AcDbEntity
  8
SLD-0
  6
Continuous
370
    15
100
AcDbLine
 10
123.1139889506
 20
42.9260945244
 30
0.0
 11
120.9970619388
 21
40.8091698593
 31
0.0
  0
SPLINE
  5
31D
330
1F
100
AcDbEntity
  8
SLD-0
  6
Continuous
370
    15
100
AcDbSpline
210
0.0
220
0.0
230
1.0
 70
     8
 71
     3
 72
     9
 73
     5
 74
     0
 42
0.00000001
 43
0.00000001
 12
1.0
 22
0.0
 32
0.0
 13
1.0
 23
0.0
 33
0.0
 40
0.0
 40
0.0
 40
0.0
 40
0.0
 40
0.5000344167553198
 40
1.0
 40
1.0
 40
1.0
 40
1.0
 10
121.0620779344424
 20
40.81068578843711
 30
0.0
 10
121.053666606187
 20
40.80800767088182
 30
0.0
 10
121.0368451075589
 20
40.80265180443433
 30
0.0
 10
121.0244181915665
 20
40.79290146900433
 30
0.0
 10
121.0182051612644
 20
40.78802663686423
 30
0.0
  0
LINE
  5
31E
330
1F
100
AcDbEntity
  8
SLD-0
  6
Continuous
370
    15
100
AcDbLine
 10
121.0182051613
 20
40.7880266369
 30
0.0
 11
120.9970619388
 21
40.8091698593
 31
0.0
  0
LINE
  5
31F
330
1F
100
AcDbEntity
  8
SLD-0
  6
Continuous
370
    15
100
AcDbLine
 10
123.6104580953
 20
42.8943468378
 30
0.0
 11
123.1457378105
 21
42.8943468378
 31
0.0
  0
LINE
  5
320
330
1F
100
AcDbEntity
  8
SLD-0
  6
Continuous
370
    15
100
AcDbLine
 10
123.6104580953
 20
40.8106857884
 30
0.0
 11
121.0620779344
 21
40.8106857884
 31
0.0
  0
LINE
  5
321
330
1F
100
AcDbEntity
  8
SLD-0
  6
Continuous
370
    15
100
AcDbLine
 10
121.0209882758
 20
40.7852411757
 30
0.0
 11
121.0421314982
 21
40.7641002999
 31
0.0
  0
SPLINE
  5
322
330
1F
100
AcDbEntity
  8
SLD-0
  6
Continuous
370
    15
100
AcDbSpline
210
0.0
220
0.0
230
1.0
 70
     8
 71
     3
 72
    15
 73
    11
 74
     0
 42
0.00000001
 43
0.00000001
 12
1.0
 22
0.0
 32
0.0
 13
1.0
 23
0.0
 33
0.0
 40
0.0
 40
0.0
 40
0.0
 40
0.0
 40
0.1249992862870494
 40
0.2499950972963459
 40
0.3749909083056425
 40
0.4999999999999999
 40
0.6249992862870494
 40
0.749995097296346
 40
0.8749909083056425
 40
1.0
 40
1.0
 40
1.0
 40
1.0
 10
120.9970619388461
 20
40.80916985928258
 30
0.0
 10
120.9944512861656
 20
40.8058816274979
 30
0.0
 10
120.989230053387
 20
40.7993052553492
 30
0.0
 10
120.9869387678874
 20
40.78659324396726
 30
0.0
 10
120.9893770227531
 20
40.77413192291088
 30
0.0
 10
120.9964747294235
 20
40.76351404423227
 30
0.0
 10
121.0070942241642
 20
40.75641501087665
 30
0.0
 10
121.019554744053
 20
40.75397716564463
 30
0.0
 10
121.0322674455
 20
40.7562686368981
 30
0.0
 10
121.0388433641911
 20
40.76148965313627
 30
0.0
 10
121.0421314981987
 20
40.76410029992999
 30
0.0
  0
SPLINE
  5
323
330
1F
100
AcDbEntity
  8
SLD-0
  6
Continuous
370
    15
100
AcDbSpline
210
0.0
220
0.0
230
1.0
 70
     8
 71
     3
 72
     9
 73
     5
 74
     0
 42
0.00000001
 43
0.00000001
 12
1.0
 22
0.0
 32
0.0
 13
1.0
 23
0.0
 33
0.0
 40
0.0
 40
0.0
 40
0.0
 40
0.0
 40
0.5000022876539012
 40
1.0
 40
1.0
 40
1.0
 40
1.0
 10
121.0182051612644
 20
40.78802663686423
 30
0.0
 10
121.0179732318714
 20
40.78686602698743
 30
0.0
 10
121.0175093752075
 20
40.78454481785408
 30
0.0
 10
121.0198286457932
 20
40.78500905713189
 30
0.0
 10
121.0209882757803
 20
40.78524117570879
 30
0.0
  0
LINE
  5
324
330
1F
100
AcDbEntity
  8
SLD-0
  6
Continuous
370
    15
100
AcDbLine
 10
123.1457378105
 20
42.9392474391
 30
0.0
 11
123.1457378105
 21
42.9093465579
 31
0.0
  0
LINE
  5
325
330
1F
100
AcDbEntity
  8
SLD-0
  6
Continuous
370
    15
100
AcDbLine
 10
123.6104580953
 20
42.9392474391
 30
0.0
 11
123.1457378105
 21
42.9392474391
 31
0.0
  0
LINE
  5
326
330
1F
100
AcDbEntity
  8
SLD-0
  6
Continuous
370
    15
100
AcDbLine
 10
123.6104580953
 20
42.9093465579
 30
0.0
 11
123.1457378105
 21
42.9093465579
 31
0.0
  0
ARC
  5
327
330
1F
100
AcDbEntity
  8
SLD-0
  6
Continuous
370
    15
100
AcDbCircle
 10
123.1457376747
 20
42.8943465539
 30
0.0
 40
0.0150000000000006
100
AcDbArc
 50
90.0
 51
135.0
  0
ARC
  5
328
330
1F
100
AcDbEntity
  8
SLD-0
  6
Continuous
370
    15
100
AcDbCircle
 10
123.1457376747
 20
42.8943465539
 30
0.0
 40
0.0448999999999984
100
AcDbArc
 50
90.0
 51
135.0
  0
LINE
  5
329
330
1F
100
AcDbEntity
  8
SLD-0
  6
Continuous
370
    15
100
AcDbLine
 10
121.0421314982
 20
40.7641002999
 30
0.0
 11
121.0887169867
 21
40.8106857884
 31
0.0
  0
LINE
  5
32A
330
1F
100
AcDbEntity
  8
SLD-0
  6
Continuous
370
    15
100
AcDbLine
 10
121.0209882758
 20
40.7852411757
 30
0.0
 11
121.0358941303
 21
40.8001470302
 31
0.0
  0
LINE
  5
32B
330
1F
100
AcDbEntity
  8
SLD-0
  6
Continuous
370
    15
100
AcDbLine
 10
124.4461328149
 20
41.1917401598
 30
0.0
 11
124.398133476
 21
41.1917401598
 31
0.0
  0
LINE
  5
32C
330
1F
100
AcDbEntity
  8
SLD-0
  6
Continuous
370
    15
100
AcDbLine
 10
124.4461328149
 20
38.0667413801
 30
0.0
 11
124.398133476
 21
38.0667413801
 31
0.0
  0
LINE
  5
32D
330
1F
100
AcDbEntity
  8
SLD-0
  6
Continuous
370
    15
100
AcDbLine
 10
124.4461328149
 20
41.1917401598
 30
0.0
 11
124.4461328149
 21
38.0667413801
 31
0.0
  0
LINE
  5
32E
330
1F
100
AcDbEntity
  8
SLD-0
  6
Continuous
370
    15
100
AcDbLine
 10
124.398133476
 20
41.1917401598
 30
0.0
 11
124.398133476
 21
38.0667413801
 31
0.0
  0
LINE
  5
32F
330
1F
100
AcDbEntity
  8
SLD-0
  6
Continuous
370
    15
100
AcDbLine
 10
124.4611337083
 20
38.0667413801
 30
0.0
 11
124.4611337083
 21
41.1917401598
 31
0.0
  0
LINE
  5
330
330
1F
100
AcDbEntity
  8
SLD-0
  6
Continuous
370
    15
100
AcDbLine
 10
124.4461328149
 20
41.1917401598
 30
0.0
 11
124.4611337083
 21
41.1917401598
 31
0.0
  0
LINE
  5
331
330
1F
100
AcDbEntity
  8
SLD-0
  6
Continuous
370
    15
100
AcDbLine
 10
124.4611337083
 20
38.0667413801
 30
0.0
 11
124.4461328149
 21
38.0667413801
 31
0.0
  0
LINE
  5
332
330
1F
100
AcDbEntity
  8
SLD-0
  6
Continuous
370
    15
100
AcDbLine
 10
126.0387583634
 20
41.1917401598
 30
0.0
 11
126.0387583634
 21
38.0667413801
 31
0.0
  0
LINE
  5
333
330
1F
100
AcDbEntity
  8
SLD-0
  6
Continuous
370
    15
100
AcDbLine
 10
124.4611337083
 20
38.0667413801
 30
0.0
 11
126.0387583634
 21
38.0667413801
 31
0.0
  0
LINE
  5
334
330
1F
100
AcDbEntity
  8
SLD-0
  6
Continuous
370
    15
100
AcDbLine
 10
124.4611337083
 20
41.1917401598
 30
0.0
 11
126.0387583634
 21
41.1917401598
 31
0.0
  0
LINE
  5
335
330
1F
100
AcDbEntity
  8
SLD-0
  6
Continuous
370
    15
100
AcDbLine
 10
124.4461328149
 20
18.1537412301
 30
0.0
 11
124.398133476
 21
18.1537412301
 31
0.0
  0
LINE
  5
336
330
1F
100
AcDbEntity
  8
SLD-0
  6
Continuous
370
    15
100
AcDbLine
 10
124.4461328149
 20
21.2787411831
 30
0.0
 11
124.398133476
 21
21.2787411831
 31
0.0
  0
LINE
  5
337
330
1F
100
AcDbEntity
  8
SLD-0
  6
Continuous
370
    15
100
AcDbLine
 10
124.398133476
 20
21.2787411831
 30
0.0
 11
124.398133476
 21
18.1537412301
 31
0.0
  0
LINE
  5
338
330
1F
100
AcDbEntity
  8
SLD-0
  6
Continuous
370
    15
100
AcDbLine
 10
124.4461328149
 20
21.2787411831
 30
0.0
 11
124.4461328149
 21
18.1537412301
 31
0.0
  0
LINE
  5
339
330
1F
100
AcDbEntity
  8
SLD-0
  6
Continuous
370
    15
100
AcDbLine
 10
124.4611337083
 20
18.1537412301
 30
0.0
 11
124.4611337083
 21
21.2787411831
 31
0.0
  0
LINE
  5
33A
330
1F
100
AcDbEntity
  8
SLD-0
  6
Continuous
370
    15
100
AcDbLine
 10
124.4461328149
 20
21.2787411831
 30
0.0
 11
124.4611337083
 21
21.2787411831
 31
0.0
  0
LINE
  5
33B
330
1F
100
AcDbEntity
  8
SLD-0
  6
Continuous
370
    15
100
AcDbLine
 10
124.4611337083
 20
18.1537412301
 30
0.0
 11
124.4461328149
 21
18.1537412301
 31
0.0
  0
LINE
  5
33C
330
1F
100
AcDbEntity
  8
SLD-0
  6
Continuous
370
    15
100
AcDbLine
 10
124.4611337083
 20
18.1537412301
 30
0.0
 11
126.0387583634
 21
18.1537412301
 31
0.0
  0
LINE
  5
33D
330
1F
100
AcDbEntity
  8
SLD-0
  6
Continuous
370
    15
100
AcDbLine
 10
126.0387583634
 20
21.2787411831
 30
0.0
 11
126.0387583634
 21
18.1537412301
 31
0.0
  0
LINE
  5
33E
330
1F
100
AcDbEntity
  8
SLD-0
  6
Continuous
370
    15
100
AcDbLine
 10
124.4611337083
 20
21.2787411831
 30
0.0
 11
126.0387583634
 21
21.2787411831
 31
0.0
  0
SPLINE
  5
33F
330
1F
100
AcDbEntity
  8
SLD-0
  6
Continuous
370
    15
100
AcDbSpline
210
0.0
220
0.0
230
1.0
 70
     8
 71
     3
 72
    11
 73
     7
 74
     0
 42
0.00000001
 43
0.00000001
 12
1.0
 22
0.0
 32
0.0
 13
1.0
 23
0.0
 33
0.0
 40
0.0
 40
0.0
 40
0.0
 40
0.0
 40
0.2499977547309094
 40
0.4999945423958539
 40
0.7499960180601559
 40
1.0
 40
1.0
 40
1.0
 40
1.0
 10
123.6750575624121
 20
13.13587819350936
 30
0.0
 10
123.6665928770151
 20
13.13036889044545
 30
0.0
 10
123.649663538965
 20
13.11935030562924
 30
0.0
 10
123.6283096871498
 20
13.10282219649219
 30
0.0
 10
123.6133711966337
 20
13.08629434354449
 30
0.0
 10
123.6114291323476
 20
13.07527582441617
 30
0.0
 10
123.6104580953373
 20
13.06976653723686
 30
0.0
  0
LINE
  5
340
330
1F
100
AcDbEntity
  8
SLD-0
  6
Continuous
370
    15
100
AcDbLine
 10
123.6104580953
 20
46.8351149671
 30
0.0
 11
123.6104580953
 21
13.0697665372
 31
0.0
  0
SPLINE
  5
341
330
1F
100
AcDbEntity
  8
SLD-0
  6
Continuous
370
    15
100
AcDbSpline
210
0.0
220
0.0
230
1.0
 70
     8
 71
     3
 72
    11
 73
     7
 74
     0
 42
0.00000001
 43
0.00000001
 12
1.0
 22
0.0
 32
0.0
 13
1.0
 23
0.0
 33
0.0
 40
0.0
 40
0.0
 40
0.0
 40
0.0
 40
0.2500013970332862
 40
0.5000001210054152
 40
0.7499943237038185
 40
1.0
 40
1.0
 40
1.0
 40
1.0
 10
123.6104580953373
 20
46.83511496705049
 30
0.0
 10
123.6114291375753
 20
46.82960585769534
 30
0.0
 10
123.6133712116688
 20
46.81858769788947
 30
0.0
 10
123.6283096164338
 20
46.8020602612181
 30
0.0
 10
123.6496641308456
 20
46.78553297415249
 30
0.0
 10
123.6665929557335
 20
46.77451313619599
 30
0.0
 10
123.6750575624121
 20
46.76900309078052
 30
0.0
  0
LINE
  5
342
330
1F
100
AcDbEntity
  8
SLD-0
  6
Continuous
370
    15
100
AcDbLine
 10
123.6750575624
 20
13.1358781935
 30
0.0
 11
123.6750575624
 21
46.7690030908
 31
0.0
  0
LINE
  5
343
330
1F
100
AcDbEntity
  8
SLD-0
  6
Continuous
370
    15
100
AcDbLine
 10
123.9224579044
 20
41.7818402229
 30
0.0
 11
124.3604581779
 21
41.7818402229
 31
0.0
  0
LINE
  5
344
330
1F
100
AcDbEntity
  8
SLD-0
  6
Continuous
370
    15
100
AcDbLine
 10
123.9224579044
 20
37.9068413606
 30
0.0
 11
123.9224579044
 21
41.7818402229
 31
0.0
  0
LINE
  5
345
330
1F
100
AcDbEntity
  8
SLD-0
  6
Continuous
370
    15
100
AcDbLine
 10
124.3604581779
 20
37.9068413606
 30
0.0
 11
123.9224579044
 21
37.9068413606
 31
0.0
  0
LINE
  5
346
330
1F
100
AcDbEntity
  8
SLD-0
  6
Continuous
370
    15
100
AcDbLine
 10
124.3604581779
 20
21.9178408402
 30
0.0
 11
124.3604581779
 21
37.9068413606
 31
0.0
  0
LINE
  5
347
330
1F
100
AcDbEntity
  8
SLD-0
  6
Continuous
370
    15
100
AcDbLine
 10
123.9224579044
 20
21.9178408402
 30
0.0
 11
124.3604581779
 21
21.9178408402
 31
0.0
  0
LINE
  5
348
330
1F
100
AcDbEntity
  8
SLD-0
  6
Continuous
370
    15
100
AcDbLine
 10
123.9224579044
 20
18.0428413912
 30
0.0
 11
123.9224579044
 21
21.9178408402
 31
0.0
  0
LINE
  5
349
330
1F
100
AcDbEntity
  8
SLD-0
  6
Continuous
370
    15
100
AcDbLine
 10
124.3604581779
 20
18.0428413912
 30
0.0
 11
123.9224579044
 21
18.0428413912
 31
0.0
  0
LINE
  5
34A
330
1F
100
AcDbEntity
  8
SLD-0
  6
Continuous
370
    15
100
AcDbLine
 10
124.3604581779
 20
13.8212781857
 30
0.0
 11
124.3604581779
 21
18.0428413912
 31
0.0
  0
LINE
  5
34B
330
1F
100
AcDbEntity
  8
SLD-0
  6
Continuous
370
    15
100
AcDbLine
 10
124.3604581779
 20
13.8212781857
 30
0.0
 11
123.6750575624
 21
13.1358781935
 31
0.0
  0
LINE
  5
34C
330
1F
100
AcDbEntity
  8
SLD-0
  6
Continuous
370
    15
100
AcDbLine
 10
124.3604581779
 20
41.7818402229
 30
0.0
 11
124.3604581779
 21
46.0836036486
 31
0.0
  0
LINE
  5
34D
330
1F
100
AcDbEntity
  8
SLD-0
  6
Continuous
370
    15
100
AcDbLine
 10
123.6750575624
 20
46.7690030908
 30
0.0
 11
124.3604581779
 21
46.0836036486
 31
0.0
  0
SPLINE
  5
34E
330
1F
100
AcDbEntity
  8
SLD-0
  6
Continuous
370
    15
100
AcDbSpline
210
0.0
220
0.0
230
1.0
 70
     8
 71
     3
 72
    11
 73
     7
 74
     0
 42
0.00000001
 43
0.00000001
 12
1.0
 22
0.0
 32
0.0
 13
1.0
 23
0.0
 33
0.0
 40
0.0
 40
0.0
 40
0.0
 40
0.0
 40
0.2499890499104661
 40
0.499986916969648
 40
0.7499894833452365
 40
1.0
 40
1.0
 40
1.0
 40
1.0
 10
123.6440584538498
 20
46.83511496705049
 30
0.0
 10
123.6445244371018
 20
46.8296058057719
 30
0.0
 10
123.6454564200411
 20
46.81858728890581
 30
0.0
 10
123.6526242629101
 20
46.80205992148855
 30
0.0
 10
123.6628727169629
 20
46.78553314418064
 30
0.0
 10
123.6709959042091
 20
46.77451316698697
 30
0.0
 10
123.6750575624121
 20
46.76900309078052
 30
0.0
  0
LINE
  5
34F
330
1F
100
AcDbEntity
  8
SLD-0
  6
Continuous
370
    15
100
AcDbLine
 10
123.6440584538
 20
46.8351149671
 30
0.0
 11
123.6104580953
 21
46.8351149671
 31
0.0
  0
SPLINE
  5
350
330
1F
100
AcDbEntity
  8
SLD-0
  6
Continuous
370
    15
100
AcDbSpline
210
0.0
220
0.0
230
1.0
 70
     8
 71
     3
 72
    11
 73
     7
 74
     0
 42
0.00000001
 43
0.00000001
 12
1.0
 22
0.0
 32
0.0
 13
1.0
 23
0.0
 33
0.0
 40
0.0
 40
0.0
 40
0.0
 40
0.0
 40
0.2499933600731885
 40
0.5000015248081277
 40
0.7500053514861079
 40
1.0
 40
1.0
 40
1.0
 40
1.0
 10
123.6750575624121
 20
13.13587819350936
 30
0.0
 10
123.6709958223927
 20
13.1303687877439
 30
0.0
 10
123.6628721018167
 20
13.11934964994476
 30
0.0
 10
123.6526243363917
 20
13.10282258519396
 30
0.0
 10
123.6454564044139
 20
13.08629474670897
 30
0.0
 10
123.6445244316686
 20
13.07527587297201
 30
0.0
 10
123.6440584538498
 20
13.06976653723686
 30
0.0
  0
LINE
  5
351
330
1F
100
AcDbEntity
  8
SLD-0
  6
Continuous
370
    15
100
AcDbLine
 10
123.6440584538
 20
13.0697665372
 30
0.0
 11
123.6104580953
 21
13.0697665372
 31
0.0
  0
LINE
  5
352
330
1F
100
AcDbEntity
  8
SLD-0
  6
Continuous
370
    15
100
AcDbLine
 10
123.6440584538
 20
13.0696538252
 30
0.0
 11
123.6440584538
 21
13.0697665372
 31
0.0
  0
LINE
  5
353
330
1F
100
AcDbEntity
  8
SLD-0
  6
Continuous
370
    15
100
AcDbLine
 10
123.6440584538
 20
13.0696538252
 30
0.0
 11
123.6104580953
 21
13.0696538252
 31
0.0
  0
LINE
  5
354
330
1F
100
AcDbEntity
  8
SLD-0
  6
Continuous
370
    15
100
AcDbLine
 10
123.6104580953
 20
13.0696538252
 30
0.0
 11
123.6104580953
 21
13.0697665372
 31
0.0
  0
LINE
  5
355
330
1F
100
AcDbEntity
  8
SLD-0
  6
Continuous
370
    15
100
AcDbLine
 10
123.6440584538
 20
46.8352276057
 30
0.0
 11
123.6104580953
 21
46.8352276057
 31
0.0
  0
LINE
  5
356
330
1F
100
AcDbEntity
  8
SLD-0
  6
Continuous
370
    15
100
AcDbLine
 10
123.6440584538
 20
46.8351149671
 30
0.0
 11
123.6440584538
 21
46.8352276057
 31
0.0
  0
LINE
  5
357
330
1F
100
AcDbEntity
  8
SLD-0
  6
Continuous
370
    15
100
AcDbLine
 10
123.6104580953
 20
46.8351149671
 30
0.0
 11
123.6104580953
 21
46.8352276057
 31
0.0
  0
LINE
  5
358
330
1F
100
AcDbEntity
  8
SLD-0
  6
Continuous
370
    15
100
AcDbLine
 10
123.6440584538
 20
12.6320411248
 30
0.0
 11
123.6104580953
 21
12.6320411248
 31
0.0
  0
LINE
  5
359
330
1F
100
AcDbEntity
  8
SLD-0
  6
Continuous
370
    15
100
AcDbLine
 10
123.6440584538
 20
13.0696538252
 30
0.0
 11
123.6440584538
 21
12.6320411248
 31
0.0
  0
LINE
  5
35A
330
1F
100
AcDbEntity
  8
SLD-0
  6
Continuous
370
    15
100
AcDbLine
 10
123.6104580953
 20
12.6320411248
 30
0.0
 11
123.6104580953
 21
13.0696538252
 31
0.0
  0
LINE
  5
35B
330
1F
100
AcDbEntity
  8
SLD-0
  6
Continuous
370
    15
100
AcDbLine
 10
124.3604581779
 20
12.6010411253
 30
0.0
 11
123.6750575624
 21
12.6010411253
 31
0.0
  0
LINE
  5
35C
330
1F
100
AcDbEntity
  8
SLD-0
  6
Continuous
370
    15
100
AcDbLine
 10
124.3604581779
 20
12.6010411253
 30
0.0
 11
124.3604581779
 21
12.5674411243
 31
0.0
  0
LINE
  5
35D
330
1F
100
AcDbEntity
  8
SLD-0
  6
Continuous
370
    15
100
AcDbLine
 10
123.6774581747
 20
12.5674411243
 30
0.0
 11
123.6750575624
 21
12.5674411243
 31
0.0
  0
LINE
  5
35E
330
1F
100
AcDbEntity
  8
SLD-0
  6
Continuous
370
    15
100
AcDbLine
 10
123.6750575624
 20
12.6010411253
 30
0.0
 11
123.6750575624
 21
12.5674411243
 31
0.0
  0
ARC
  5
35F
330
1F
100
AcDbEntity
  8
SLD-0
  6
Continuous
370
    15
100
AcDbCircle
 10
123.6750581256
 20
12.6320411246
 30
0.0
 40
0.0310000000000059
100
AcDbArc
 50
180.0
 51
270.0
  0
ARC
  5
360
330
1F
100
AcDbEntity
  8
SLD-0
  6
Continuous
370
    15
100
AcDbCircle
 10
123.6750581256
 20
12.6320411246
 30
0.0
 40
0.0645999999999987
100
AcDbArc
 50
180.0
 51
270.0
  0
LINE
  5
361
330
1F
100
AcDbEntity
  8
SLD-0
  6
Continuous
370
    15
100
AcDbLine
 10
124.3604581779
 20
47.3038421389
 30
0.0
 11
123.6750575624
 21
47.3038421389
 31
0.0
  0
LINE
  5
362
330
1F
100
AcDbEntity
  8
SLD-0
  6
Continuous
370
    15
100
AcDbLine
 10
123.6750575624
 20
47.3038421389
 30
0.0
 11
123.6750575624
 21
47.3374413241
 31
0.0
  0
LINE
  5
363
330
1F
100
AcDbEntity
  8
SLD-0
  6
Continuous
370
    15
100
AcDbLine
 10
124.3604581779
 20
47.3374413241
 30
0.0
 11
123.6750575624
 21
47.3374413241
 31
0.0
  0
LINE
  5
364
330
1F
100
AcDbEntity
  8
SLD-0
  6
Continuous
370
    15
100
AcDbLine
 10
124.3604581779
 20
47.3038421389
 30
0.0
 11
124.3604581779
 21
47.3374413241
 31
0.0
  0
LINE
  5
365
330
1F
100
AcDbEntity
  8
SLD-0
  6
Continuous
370
    15
100
AcDbLine
 10
123.6440584538
 20
47.2728406837
 30
0.0
 11
123.6104580953
 21
47.2728406837
 31
0.0
  0
LINE
  5
366
330
1F
100
AcDbEntity
  8
SLD-0
  6
Continuous
370
    15
100
AcDbLine
 10
123.6440584538
 20
47.2728406837
 30
0.0
 11
123.6440584538
 21
46.8352276057
 31
0.0
  0
LINE
  5
367
330
1F
100
AcDbEntity
  8
SLD-0
  6
Continuous
370
    15
100
AcDbLine
 10
123.6104580953
 20
46.8352276057
 30
0.0
 11
123.6104580953
 21
47.2728406837
 31
0.0
  0
ARC
  5
368
330
1F
100
AcDbEntity
  8
SLD-0
  6
Continuous
370
    15
100
AcDbCircle
 10
123.6750581256
 20
47.2728411246
 30
0.0
 40
0.0310000000000059
100
AcDbArc
 50
90.0
 51
180.0
  0
ARC
  5
369
330
1F
100
AcDbEntity
  8
SLD-0
  6
Continuous
370
    15
100
AcDbCircle
 10
123.6750581256
 20
47.2728411246
 30
0.0
 40
0.0646000000000129
100
AcDbArc
 50
90.0
 51
180.0
  0
LINE
  5
36A
330
1F
100
AcDbEntity
  8
SLD-0
  6
Continuous
370
    15
100
AcDbLine
 10
126.144057947
 20
12.5882236242
 30
0.0
 11
126.144057947
 21
12.6010411253
 31
0.0
  0
LINE
  5
36B
330
1F
100
AcDbEntity
  8
SLD-0
  6
Continuous
370
    15
100
AcDbLine
 10
126.144057947
 20
12.6227411246
 30
0.0
 11
126.144057947
 21
12.6278236245
 31
0.0
  0
LINE
  5
36C
330
1F
100
AcDbEntity
  8
SLD-0
  6
Continuous
370
    15
100
AcDbLine
 10
126.6202579925
 20
12.6278236245
 30
0.0
 11
126.5827000264
 21
12.6278236245
 31
0.0
  0
LINE
  5
36D
330
1F
100
AcDbEntity
  8
SLD-0
  6
Continuous
370
    15
100
AcDbLine
 10
126.1637579861
 20
12.6278236245
 30
0.0
 11
126.144057947
 21
12.6278236245
 31
0.0
  0
LINE
  5
36E
330
1F
100
AcDbEntity
  8
SLD-0
  6
Continuous
370
    15
100
AcDbLine
 10
129.1440582774
 20
12.5882236242
 30
0.0
 11
126.144057947
 21
12.5882236242
 31
0.0
  0
LINE
  5
36F
330
1F
100
AcDbEntity
  8
SLD-0
  6
Continuous
370
    15
100
AcDbLine
 10
129.1440582774
 20
12.5882236242
 30
0.0
 11
129.1440582774
 21
12.6010411253
 31
0.0
  0
LINE
  5
370
330
1F
100
AcDbEntity
  8
SLD-0
  6
Continuous
370
    15
100
AcDbLine
 10
126.144057947
 20
12.6328236242
 30
0.0
 11
126.144057947
 21
12.6278236245
 31
0.0
  0
LINE
  5
371
330
1F
100
AcDbEntity
  8
SLD-0
  6
Continuous
370
    15
100
AcDbLine
 10
126.144057947
 20
12.6537411247
 30
0.0
 11
126.144057947
 21
12.6328236242
 31
0.0
  0
LINE
  5
372
330
1F
100
AcDbEntity
  8
SLD-0
  6
Continuous
370
    15
100
AcDbLine
 10
123.7146324652
 20
47.1926419302
 30
0.0
 11
123.7146324652
 21
47.1917408206
 31
0.0
  0
LINE
  5
373
330
1F
100
AcDbEntity
  8
SLD-0
  6
Continuous
370
    15
100
AcDbLine
 10
124.2120156261
 20
47.1926419302
 30
0.0
 11
123.7146324652
 21
47.1926419302
 31
0.0
  0
LINE
  5
374
330
1F
100
AcDbEntity
  8
SLD-0
  6
Continuous
370
    15
100
AcDbLine
 10
124.221371678
 20
47.1926419302
 30
0.0
 11
124.2120156261
 21
47.1926419302
 31
0.0
  0
LINE
  5
375
330
1F
100
AcDbEntity
  8
SLD-0
  6
Continuous
370
    15
100
AcDbLine
 10
126.6471152823
 20
47.1926419302
 30
0.0
 11
126.5449519825
 21
47.1926419302
 31
0.0
  0
LINE
  5
376
330
1F
100
AcDbEntity
  8
SLD-0
  6
Continuous
370
    15
100
AcDbLine
 10
126.1637579861
 20
47.1926419302
 30
0.0
 11
124.8507580073
 21
47.1926419302
 31
0.0
  0
LINE
  5
377
330
1F
100
AcDbEntity
  8
SLD-0
  6
Continuous
370
    15
100
AcDbLine
 10
124.475757966
 20
47.1926419302
 30
0.0
 11
124.221371678
 21
47.1926419302
 31
0.0
  0
LINE
  5
378
330
1F
100
AcDbEntity
  8
SLD-0
  6
Continuous
370
    15
100
AcDbLine
 10
142.7790581247
 20
47.1926419302
 30
0.0
 11
142.7790581247
 21
47.1917408206
 31
0.0
  0
LINE
  5
379
330
1F
100
AcDbEntity
  8
SLD-0
  6
Continuous
370
    15
100
AcDbLine
 10
142.8090581257
 20
47.1926419302
 30
0.0
 11
142.7790581247
 21
47.1926419302
 31
0.0
  0
LINE
  5
37A
330
1F
100
AcDbEntity
  8
SLD-0
  6
Continuous
370
    15
100
AcDbLine
 10
142.8090581257
 20
47.1926419302
 30
0.0
 11
142.8090581257
 21
47.1917408206
 31
0.0
  0
LINE
  5
37B
330
1F
100
AcDbEntity
  8
SLD-0
  6
Continuous
370
    15
100
AcDbLine
 10
142.7640581251
 20
47.1926419302
 30
0.0
 11
141.8093512002
 21
47.1926419302
 31
0.0
  0
LINE
  5
37C
330
1F
100
AcDbEntity
  8
SLD-0
  6
Continuous
370
    15
100
AcDbLine
 10
142.7790581247
 20
47.1926419302
 30
0.0
 11
142.7640581251
 21
47.1926419302
 31
0.0
  0
LINE
  5
37D
330
1F
100
AcDbEntity
  8
SLD-0
  6
Continuous
370
    15
100
AcDbLine
 10
137.1705400081
 20
13.5287411118
 30
0.0
 11
137.1705400081
 21
18.4657410391
 31
0.0
  0
LINE
  5
37E
330
1F
100
AcDbEntity
  8
SLD-0
  6
Continuous
370
    15
100
AcDbLine
 10
137.1705400081
 20
13.5287411118
 30
0.0
 11
137.1643108534
 21
13.5287411118
 31
0.0
  0
LINE
  5
37F
330
1F
100
AcDbEntity
  8
SLD-0
  6
Continuous
370
    15
100
AcDbLine
 10
137.1643108534
 20
13.5287411118
 30
0.0
 11
137.1643108534
 21
18.4657410391
 31
0.0
  0
LINE
  5
380
330
1F
100
AcDbEntity
  8
SLD-0
  6
Continuous
370
    15
100
AcDbLine
 10
139.7383330381
 20
13.5287411118
 30
0.0
 11
139.7383330381
 21
13.2477411446
 31
0.0
  0
LINE
  5
381
330
1F
100
AcDbEntity
  8
SLD-0
  6
Continuous
370
    15
100
AcDbLine
 10
137.5373672905
 20
13.2477411446
 30
0.0
 11
137.5373672905
 21
13.5287411118
 31
0.0
  0
LINE
  5
382
330
1F
100
AcDbEntity
  8
SLD-0
  6
Continuous
370
    15
100
AcDbLine
 10
137.5373672905
 20
13.5287411118
 30
0.0
 11
137.1705400081
 21
13.5287411118
 31
0.0
  0
LINE
  5
383
330
1F
100
AcDbEntity
  8
SLD-0
  6
Continuous
370
    15
100
AcDbLine
 10
140.1051606138
 20
18.4657410391
 30
0.0
 11
140.1051606138
 21
13.5287411118
 31
0.0
  0
LINE
  5
384
330
1F
100
AcDbEntity
  8
SLD-0
  6
Continuous
370
    15
100
AcDbLine
 10
140.1051606138
 20
13.5287411118
 30
0.0
 11
139.7383330381
 21
13.5287411118
 31
0.0
  0
LINE
  5
385
330
1F
100
AcDbEntity
  8
SLD-0
  6
Continuous
370
    15
100
AcDbLine
 10
137.1705400081
 20
18.4657410391
 30
0.0
 11
140.1051606138
 21
18.4657410391
 31
0.0
  0
LINE
  5
386
330
1F
100
AcDbEntity
  8
SLD-0
  6
Continuous
370
    15
100
AcDbLine
 10
137.5311387224
 20
13.5287411118
 30
0.0
 11
137.5311387224
 21
13.2477411446
 31
0.0
  0
LINE
  5
387
330
1F
100
AcDbEntity
  8
SLD-0
  6
Continuous
370
    15
100
AcDbLine
 10
124.8507580073
 20
47.1951411013
 30
0.0
 11
126.1637579861
 21
47.1951411013
 31
0.0
  0
LINE
  5
388
330
1F
100
AcDbEntity
  8
SLD-0
  6
Continuous
370
    15
100
AcDbLine
 10
126.548109386
 20
47.1951411013
 30
0.0
 11
126.6455324739
 21
47.1951411013
 31
0.0
  0
LINE
  5
389
330
1F
100
AcDbEntity
  8
SLD-0
  6
Continuous
370
    15
100
AcDbLine
 10
124.4647580931
 20
47.1951411013
 30
0.0
 11
124.4647580931
 21
47.2227422758
 31
0.0
  0
LINE
  5
38A
330
1F
100
AcDbEntity
  8
SLD-0
  6
Continuous
370
    15
100
AcDbLine
 10
124.475757966
 20
47.1951411013
 30
0.0
 11
124.4647580931
 21
47.1951411013
 31
0.0
  0
LINE
  5
38B
330
1F
100
AcDbEntity
  8
SLD-0
  6
Continuous
370
    15
100
AcDbLine
 10
124.4647580931
 20
47.1951411013
 30
0.0
 11
124.4647580931
 21
47.1926419302
 31
0.0
  0
LINE
  5
38C
330
1F
100
AcDbEntity
  8
SLD-0
  6
Continuous
370
    15
100
AcDbLine
 10
123.6721582892
 20
47.1801413813
 30
0.0
 11
123.6721582892
 21
46.7730440041
 31
0.0
  0
LINE
  5
38D
330
1F
100
AcDbEntity
  8
SLD-0
  6
Continuous
370
    15
100
AcDbLine
 10
123.6997582904
 20
47.1801413813
 30
0.0
 11
123.6997582904
 21
46.7443047094
 31
0.0
  0
LINE
  5
38E
330
1F
100
AcDbEntity
  8
SLD-0
  6
Continuous
370
    15
100
AcDbLine
 10
123.6721582892
 20
47.1801413813
 30
0.0
 11
123.6997582904
 21
47.1801413813
 31
0.0
  0
LINE
  5
38F
330
1F
100
AcDbEntity
  8
SLD-0
  6
Continuous
370
    15
100
AcDbLine
 10
126.7151584429
 20
47.2744410919
 30
0.0
 11
126.7151584429
 21
47.2444416518
 31
0.0
  0
LINE
  5
390
330
1F
100
AcDbEntity
  8
SLD-0
  6
Continuous
370
    15
100
AcDbLine
 10
141.2151580843
 20
47.2744410919
 30
0.0
 11
126.7151584429
 21
47.2744410919
 31
0.0
  0
LINE
  5
391
330
1F
100
AcDbEntity
  8
SLD-0
  6
Continuous
370
    15
100
AcDbLine
 10
141.2151580843
 20
47.2744410919
 30
0.0
 11
141.2151580843
 21
47.2444416518
 31
0.0
  0
LINE
  5
392
330
1F
100
AcDbEntity
  8
SLD-0
  6
Continuous
370
    15
100
AcDbLine
 10
126.7151584429
 20
47.2744410919
 30
0.0
 11
126.7151584429
 21
47.281882286
 31
0.0
  0
LINE
  5
393
330
1F
100
AcDbEntity
  8
SLD-0
  6
Continuous
370
    15
100
AcDbLine
 10
141.2151580843
 20
47.281882286
 30
0.0
 11
126.7151584429
 21
47.281882286
 31
0.0
  0
LINE
  5
394
330
1F
100
AcDbEntity
  8
SLD-0
  6
Continuous
370
    15
100
AcDbLine
 10
141.2151580843
 20
47.281882286
 30
0.0
 11
141.2151580843
 21
47.2744410919
 31
0.0
  0
LINE
  5
395
330
1F
100
AcDbEntity
  8
SLD-0
  6
Continuous
370
    15
100
AcDbLine
 10
124.3401585724
 20
50.2373457442
 30
0.0
 11
141.2151580843
 21
50.2373457442
 31
0.0
  0
LINE
  5
396
330
1F
100
AcDbEntity
  8
SLD-0
  6
Continuous
370
    15
100
AcDbLine
 10
126.7151584429
 20
47.281882286
 30
0.0
 11
126.7151584429
 21
48.744441817
 31
0.0
  0
LINE
  5
397
330
1F
100
AcDbEntity
  8
SLD-0
  6
Continuous
370
    15
100
AcDbLine
 10
126.7151584429
 20
48.744441817
 30
0.0
 11
126.7151584429
 21
48.7595565224
 31
0.0
  0
LINE
  5
398
330
1F
100
AcDbEntity
  8
SLD-0
  6
Continuous
370
    15
100
AcDbLine
 10
124.5901578178
 20
48.7595565224
 30
0.0
 11
126.7151584429
 21
48.7595565224
 31
0.0
  0
LINE
  5
399
330
1F
100
AcDbEntity
  8
SLD-0
  6
Continuous
370
    15
100
AcDbLine
 10
124.3401585724
 20
48.9755013345
 30
0.0
 11
124.5901578178
 21
48.7595565224
 31
0.0
  0
LINE
  5
39A
330
1F
100
AcDbEntity
  8
SLD-0
  6
Continuous
370
    15
100
AcDbLine
 10
124.3401585724
 20
48.9755013345
 30
0.0
 11
124.3401585724
 21
50.2373457442
 31
0.0
  0
LINE
  5
39B
330
1F
100
AcDbEntity
  8
SLD-0
  6
Continuous
370
    15
100
AcDbLine
 10
132.7151579304
 20
49.4402016729
 30
0.0
 11
132.7151579304
 21
48.5764224247
 31
0.0
  0
ARC
  5
39C
330
1F
100
AcDbEntity
  8
SLD-0
  6
Continuous
370
    15
100
AcDbCircle
 10
132.8401581397
 20
48.5912059048
 30
0.0
 40
0.1258713772660796
100
AcDbArc
 50
186.7449057139
 51
353.2550942861
  0
LINE
  5
39D
330
1F
100
AcDbEntity
  8
SLD-0
  6
Continuous
370
    15
100
AcDbLine
 10
132.965158349
 20
48.5764224247
 30
0.0
 11
132.965158349
 21
49.4402016729
 31
0.0
  0
ARC
  5
39E
330
1F
100
AcDbEntity
  8
SLD-0
  6
Continuous
370
    15
100
AcDbCircle
 10
132.8401581397
 20
49.4254172774
 30
0.0
 40
0.1258714847704554
100
AcDbArc
 50
6.7453194679
 51
173.2546805321
  0
LINE
  5
39F
330
1F
100
AcDbEntity
  8
SLD-0
  6
Continuous
370
    15
100
AcDbLine
 10
129.7151576
 20
49.4402016729
 30
0.0
 11
129.7151576
 21
48.5764224247
 31
0.0
  0
ARC
  5
3A0
330
1F
100
AcDbEntity
  8
SLD-0
  6
Continuous
370
    15
100
AcDbCircle
 10
129.8401578093
 20
48.591205452
 30
0.0
 40
0.12587132408747
100
AcDbArc
 50
186.7447010348
 51
353.2552989652
  0
LINE
  5
3A1
330
1F
100
AcDbEntity
  8
SLD-0
  6
Continuous
370
    15
100
AcDbLine
 10
129.9651580186
 20
48.5764224247
 30
0.0
 11
129.9651580186
 21
49.4402016729
 31
0.0
  0
ARC
  5
3A2
330
1F
100
AcDbEntity
  8
SLD-0
  6
Continuous
370
    15
100
AcDbCircle
 10
129.8401578093
 20
49.4254177302
 30
0.0
 40
0.1258714315885987
100
AcDbArc
 50
6.7451147892
 51
173.2548852108
  0
LINE
  5
3A3
330
1F
100
AcDbEntity
  8
SLD-0
  6
Continuous
370
    15
100
AcDbLine
 10
141.2151580843
 20
47.281882286
 30
0.0
 11
141.2151580843
 21
50.2373457442
 31
0.0
  0
LINE
  5
3A4
330
1F
100
AcDbEntity
  8
SLD-0
  6
Continuous
370
    15
100
AcDbLine
 10
124.5901578178
 20
48.744441817
 30
0.0
 11
124.5901578178
 21
48.7595565224
 31
0.0
  0
LINE
  5
3A5
330
1F
100
AcDbEntity
  8
SLD-0
  6
Continuous
370
    15
100
AcDbLine
 10
124.5901578178
 20
48.744441817
 30
0.0
 11
126.7151584429
 21
48.744441817
 31
0.0
  0
LINE
  5
3A6
330
1F
100
AcDbEntity
  8
SLD-0
  6
Continuous
370
    15
100
AcDbLine
 10
124.3401585724
 20
48.9603866291
 30
0.0
 11
124.3401585724
 21
48.9755013345
 31
0.0
  0
LINE
  5
3A7
330
1F
100
AcDbEntity
  8
SLD-0
  6
Continuous
370
    15
100
AcDbLine
 10
124.3401585724
 20
48.9603866291
 30
0.0
 11
124.5901578178
 21
48.744441817
 31
0.0
  0
ARC
  5
3A8
330
1F
100
AcDbEntity
  8
SLD-0
  6
Continuous
370
    15
100
AcDbCircle
 10
132.8401581397
 20
49.4103011407
 30
0.0
 40
0.1258713772660804
100
AcDbArc
 50
6.7449057139
 51
173.2550942861
  0
ARC
  5
3A9
330
1F
100
AcDbEntity
  8
SLD-0
  6
Continuous
370
    15
100
AcDbCircle
 10
129.8401578093
 20
49.4103015935
 30
0.0
 40
0.1258713240874725
100
AcDbArc
 50
6.7447010348
 51
173.2552989652
  0
LINE
  5
3AA
330
1F
100
AcDbEntity
  8
SLD-0
  6
Continuous
370
    15
100
AcDbLine
 10
124.3401585724
 20
50.2373457442
 30
0.0
 11
124.3401585724
 21
50.2596716729
 31
0.0
  0
LINE
  5
3AB
330
1F
100
AcDbEntity
  8
SLD-0
  6
Continuous
370
    15
100
AcDbLine
 10
141.2151580843
 20
50.2596716729
 30
0.0
 11
141.2151580843
 21
50.2373457442
 31
0.0
  0
LINE
  5
3AC
330
1F
100
AcDbEntity
  8
SLD-0
  6
Continuous
370
    15
100
AcDbLine
 10
126.1637579861
 20
47.1917408206
 30
0.0
 11
126.5438150356
 21
47.1917408206
 31
0.0
  0
LINE
  5
3AD
330
1F
100
AcDbEntity
  8
SLD-0
  6
Continuous
370
    15
100
AcDbLine
 10
126.1637579861
 20
47.2444416518
 30
0.0
 11
126.1637579861
 21
47.1917408206
 31
0.0
  0
LINE
  5
3AE
330
1F
100
AcDbEntity
  8
SLD-0
  6
Continuous
370
    15
100
AcDbLine
 10
126.1637579861
 20
47.2444416518
 30
0.0
 11
126.6037575965
 21
47.2444416518
 31
0.0
  0
SPLINE
  5
3AF
330
1F
100
AcDbEntity
  8
SLD-0
  6
Continuous
370
    15
100
AcDbSpline
210
0.0
220
0.0
230
1.0
 70
     8
 71
     3
 72
    11
 73
     7
 74
     0
 42
0.00000001
 43
0.00000001
 12
1.0
 22
0.0
 32
0.0
 13
1.0
 23
0.0
 33
0.0
 40
0.0
 40
0.0
 40
0.0
 40
0.0
 40
0.249996059248829
 40
0.4999981823300368
 40
0.7500003054112446
 40
1.0
 40
1.0
 40
1.0
 40
1.0
 10
126.5438150356143
 20
47.19174082061154
 30
0.0
 10
126.5488102806069
 20
47.1986462636831
 30
0.0
 10
126.5588008917553
 20
47.21245731732264
 30
0.0
 10
126.5737863004844
 20
47.22987803514753
 30
0.0
 10
126.588771875244
 20
47.24206338424343
 30
0.0
 10
126.5987623722465
 20
47.24364889851943
 30
0.0
 10
126.6037575964861
 20
47.24444165180704
 30
0.0
  0
LINE
  5
3B0
330
1F
100
AcDbEntity
  8
SLD-0
  6
Continuous
370
    15
100
AcDbLine
 10
126.6037575965
 20
47.2444416518
 30
0.0
 11
126.6037575965
 21
47.2227422758
 31
0.0
  0
SPLINE
  5
3B1
330
1F
100
AcDbEntity
  8
SLD-0
  6
Continuous
370
    15
100
AcDbSpline
210
0.0
220
0.0
230
1.0
 70
     8
 71
     3
 72
    11
 73
     7
 74
     0
 42
0.00000001
 43
0.00000001
 12
1.0
 22
0.0
 32
0.0
 13
1.0
 23
0.0
 33
0.0
 40
0.0
 40
0.0
 40
0.0
 40
0.0
 40
0.2500139984372873
 40
0.499996114016241
 40
0.750004767375016
 40
1.0
 40
1.0
 40
1.0
 40
1.0
 10
126.5438150356143
 20
47.19174082061153
 30
0.0
 10
126.5488100356935
 20
47.19580365700363
 30
0.0
 10
126.5587993988681
 20
47.20392881167748
 30
0.0
 10
126.5737874947798
 20
47.21417353882851
 30
0.0
 10
126.5887713248719
 20
47.22134331022465
 30
0.0
 10
126.5987622620044
 20
47.22227596229502
 30
0.0
 10
126.6037575964861
 20
47.22274227581342
 30
0.0
  0
LINE
  5
3B2
330
1F
100
AcDbEntity
  8
SLD-0
  6
Continuous
370
    15
100
AcDbLine
 10
126.1637579861
 20
47.174713604
 30
0.0
 11
126.1637579861
 21
47.1917408206
 31
0.0
  0
LINE
  5
3B3
330
1F
100
AcDbEntity
  8
SLD-0
  6
Continuous
370
    15
100
AcDbLine
 10
125.9498148576
 20
46.5977406426
 30
0.0
 11
124.475757966
 21
46.5977406426
 31
0.0
  0
LINE
  5
3B4
330
1F
100
AcDbEntity
  8
SLD-0
  6
Continuous
370
    15
100
AcDbLine
 10
124.475757966
 20
46.5977406426
 30
0.0
 11
124.475757966
 21
47.1917408206
 31
0.0
  0
LINE
  5
3B5
330
1F
100
AcDbEntity
  8
SLD-0
  6
Continuous
370
    15
100
AcDbLine
 10
124.475757966
 20
47.1917408206
 30
0.0
 11
124.8507580073
 21
47.1917408206
 31
0.0
  0
LINE
  5
3B6
330
1F
100
AcDbEntity
  8
SLD-0
  6
Continuous
370
    15
100
AcDbLine
 10
124.8507580073
 20
47.1917408206
 30
0.0
 11
124.8507580073
 21
47.174713604
 31
0.0
  0
LINE
  5
3B7
330
1F
100
AcDbEntity
  8
SLD-0
  6
Continuous
370
    15
100
AcDbLine
 10
124.8507580073
 20
47.174713604
 30
0.0
 11
126.1637579861
 21
47.174713604
 31
0.0
  0
LINE
  5
3B8
330
1F
100
AcDbEntity
  8
SLD-0
  6
Continuous
370
    15
100
AcDbLine
 10
126.5438150356
 20
47.1917408206
 30
0.0
 11
125.9498148576
 21
46.5977406426
 31
0.0
  0
LINE
  5
3B9
330
1F
100
AcDbEntity
  8
SLD-0
  6
Continuous
370
    15
100
AcDbLine
 10
124.475757966
 20
47.2444416518
 30
0.0
 11
124.8507580073
 21
47.2444416518
 31
0.0
  0
LINE
  5
3BA
330
1F
100
AcDbEntity
  8
SLD-0
  6
Continuous
370
    15
100
AcDbLine
 10
124.8507580073
 20
47.1917408206
 30
0.0
 11
124.8507580073
 21
47.2444416518
 31
0.0
  0
LINE
  5
3BB
330
1F
100
AcDbEntity
  8
SLD-0
  6
Continuous
370
    15
100
AcDbLine
 10
124.475757966
 20
47.2444416518
 30
0.0
 11
124.475757966
 21
47.1917408206
 31
0.0
  0
SPLINE
  5
3BC
330
1F
100
AcDbEntity
  8
SLD-0
  6
Continuous
370
    15
100
AcDbSpline
210
0.0
220
0.0
230
1.0
 70
     8
 71
     3
 72
    11
 73
     7
 74
     0
 42
0.00000001
 43
0.00000001
 12
1.0
 22
0.0
 32
0.0
 13
1.0
 23
0.0
 33
0.0
 40
0.0
 40
0.0
 40
0.0
 40
0.0
 40
0.2499947195059734
 40
0.4999952285238249
 40
0.749994342685239
 40
1.0
 40
1.0
 40
1.0
 40
1.0
 10
141.8092497080103
 20
47.19174082061154
 30
0.0
 10
141.8101205117953
 20
47.19864626372131
 30
0.0
 10
141.8118621395319
 20
47.21245730986082
 30
0.0
 10
141.812442109504
 20
47.22987798377898
 30
0.0
 10
141.811937821351
 20
47.24206354385577
 30
0.0
 10
141.8111461999086
 20
47.24364894224101
 30
0.0
 10
141.8107503840077
 20
47.24444165180703
 30
0.0
  0
LINE
  5
3BD
330
1F
100
AcDbEntity
  8
SLD-0
  6
Continuous
370
    15
100
AcDbLine
 10
141.809249708
 20
47.1917408206
 30
0.0
 11
126.6528211364
 21
47.1917408206
 31
0.0
  0
SPLINE
  5
3BE
330
1F
100
AcDbEntity
  8
SLD-0
  6
Continuous
370
    15
100
AcDbSpline
210
0.0
220
0.0
230
1.0
 70
     8
 71
     3
 72
    12
 73
     8
 74
     0
 42
0.00000001
 43
0.00000001
 12
1.0
 22
0.0
 32
0.0
 13
1.0
 23
0.0
 33
0.0
 40
0.0
 40
0.0
 40
0.0
 40
0.0
 40
0.2373888836738411
 40
0.4748986034202146
 40
0.7124325671011181
 40
0.9499570578646304
 40
1.0
 40
1.0
 40
1.0
 40
1.0
 10
126.6037575964861
 20
47.24444165180704
 30
0.0
 10
126.6081341490097
 20
47.24372837823606
 30
0.0
 10
126.6168894818168
 20
47.24230146802242
 30
0.0
 10
126.6294662827871
 20
47.23125491435139
 30
0.0
 10
126.640984445893
 20
47.2153095198401
 30
0.0
 10
126.6485026709887
 20
47.20101203473616
 30
0.0
 10
126.6521810235945
 20
47.19311506401835
 30
0.0
 10
126.6528211363665
 20
47.19174082061153
 30
0.0
  0
LINE
  5
3BF
330
1F
100
AcDbEntity
  8
SLD-0
  6
Continuous
370
    15
100
AcDbLine
 10
126.6037575965
 20
47.2444416518
 30
0.0
 11
141.810750384
 21
47.2444416518
 31
0.0
  0
LINE
  5
3C0
330
1F
100
AcDbEntity
  8
SLD-0
  6
Continuous
370
    15
100
AcDbLine
 10
126.6528211364
 20
47.1917408206
 30
0.0
 11
126.6483261483
 21
47.1917408206
 31
0.0
  0
SPLINE
  5
3C1
330
1F
100
AcDbEntity
  8
SLD-0
  6
Continuous
370
    15
100
AcDbSpline
210
0.0
220
0.0
230
1.0
 70
     8
 71
     3
 72
    11
 73
     7
 74
     0
 42
0.00000001
 43
0.00000001
 12
1.0
 22
0.0
 32
0.0
 13
1.0
 23
0.0
 33
0.0
 40
0.0
 40
0.0
 40
0.0
 40
0.0
 40
0.2752218687951505
 40
0.5507824592751616
 40
0.8263760915926149
 40
1.0
 40
1.0
 40
1.0
 40
1.0
 10
126.6037575964861
 20
47.22274227581341
 30
0.0
 10
126.6081859475892
 20
47.22217472895277
 30
0.0
 10
126.6170480998657
 20
47.22103893673892
 30
0.0
 10
126.6298114444731
 20
47.2124052968564
 30
0.0
 10
126.6402599411146
 20
47.20183163155173
 30
0.0
 10
126.6460776042723
 20
47.19455374521197
 30
0.0
 10
126.648326148293
 20
47.19174082061153
 30
0.0
  0
LINE
  5
3C2
330
1F
100
AcDbEntity
  8
SLD-0
  6
Continuous
370
    15
100
AcDbLine
 10
127.0308131431
 20
46.5977406426
 30
0.0
 11
126.6528211364
 21
47.1917408206
 31
0.0
  0
LINE
  5
3C3
330
1F
100
AcDbEntity
  8
SLD-0
  6
Continuous
370
    15
100
AcDbLine
 10
141.809249708
 20
47.1917408206
 30
0.0
 11
141.6861815897
 21
46.5977406426
 31
0.0
  0
LINE
  5
3C4
330
1F
100
AcDbEntity
  8
SLD-0
  6
Continuous
370
    15
100
AcDbLine
 10
127.0308131431
 20
46.5977406426
 30
0.0
 11
141.6861815897
 21
46.5977406426
 31
0.0
  0
LINE
  5
3C5
330
1F
100
AcDbEntity
  8
SLD-0
  6
Continuous
370
    15
100
AcDbLine
 10
127.0308131431
 20
46.5977406426
 30
0.0
 11
127.0263169817
 21
46.5977406426
 31
0.0
  0
LINE
  5
3C6
330
1F
100
AcDbEntity
  8
SLD-0
  6
Continuous
370
    15
100
AcDbLine
 10
127.0263169817
 20
46.5977406426
 30
0.0
 11
126.6483261483
 21
47.1917408206
 31
0.0
  0
LINE
  5
3C7
330
1F
100
AcDbEntity
  8
SLD-0
  6
Continuous
370
    15
100
AcDbLine
 10
123.6657578298
 20
47.1917408206
 30
0.0
 11
123.6440584538
 21
47.1917408206
 31
0.0
  0
LINE
  5
3C8
330
1F
100
AcDbEntity
  8
SLD-0
  6
Continuous
370
    15
100
AcDbLine
 10
123.6657578298
 20
47.1917408206
 30
0.0
 11
123.6657578298
 21
46.7819612344
 31
0.0
  0
LINE
  5
3C9
330
1F
100
AcDbEntity
  8
SLD-0
  6
Continuous
370
    15
100
AcDbLine
 10
123.6967581117
 20
47.2227422758
 30
0.0
 11
123.6967581117
 21
47.2444416518
 31
0.0
  0
ARC
  5
3CA
330
1F
100
AcDbEntity
  8
SLD-0
  6
Continuous
370
    15
100
AcDbCircle
 10
123.6967581256
 20
47.1917411246
 30
0.0
 40
0.0309999999999988
100
AcDbArc
 50
90.0
 51
180.0
  0
ARC
  5
3CB
330
1F
100
AcDbEntity
  8
SLD-0
  6
Continuous
370
    15
100
AcDbCircle
 10
123.6967581256
 20
47.1917411246
 30
0.0
 40
0.0526999999999944
100
AcDbArc
 50
90.0
 51
180.0
  0
LINE
  5
3CC
330
1F
100
AcDbEntity
  8
SLD-0
  6
Continuous
370
    15
100
AcDbLine
 10
123.6967581117
 20
47.2444416518
 30
0.0
 11
124.475757966
 21
47.2444416518
 31
0.0
  0
LINE
  5
3CD
330
1F
100
AcDbEntity
  8
SLD-0
  6
Continuous
370
    15
100
AcDbLine
 10
123.6967581117
 20
47.2227422758
 30
0.0
 11
124.475757966
 21
47.2227422758
 31
0.0
  0
LINE
  5
3CE
330
1F
100
AcDbEntity
  8
SLD-0
  6
Continuous
370
    15
100
AcDbLine
 10
126.1637579861
 20
47.2444416518
 30
0.0
 11
124.8507580073
 21
47.2444416518
 31
0.0
  0
LINE
  5
3CF
330
1F
100
AcDbEntity
  8
SLD-0
  6
Continuous
370
    15
100
AcDbLine
 10
126.1637579861
 20
47.2227422758
 30
0.0
 11
124.8507580073
 21
47.2227422758
 31
0.0
  0
LINE
  5
3D0
330
1F
100
AcDbEntity
  8
SLD-0
  6
Continuous
370
    15
100
AcDbLine
 10
142.7997581256
 20
47.2444416518
 30
0.0
 11
142.7997581256
 21
47.2227422758
 31
0.0
  0
LINE
  5
3D1
330
1F
100
AcDbEntity
  8
SLD-0
  6
Continuous
370
    15
100
AcDbLine
 10
141.810750384
 20
47.2444416518
 30
0.0
 11
142.7997581256
 21
47.2444416518
 31
0.0
  0
LINE
  5
3D2
330
1F
100
AcDbEntity
  8
SLD-0
  6
Continuous
370
    15
100
AcDbLine
 10
141.810750384
 20
47.2227422758
 30
0.0
 11
142.7997581256
 21
47.2227422758
 31
0.0
  0
SPLINE
  5
3D3
330
1F
100
AcDbEntity
  8
SLD-0
  6
Continuous
370
    15
100
AcDbSpline
210
0.0
220
0.0
230
1.0
 70
     8
 71
     3
 72
    11
 73
     7
 74
     0
 42
0.00000001
 43
0.00000001
 12
1.0
 22
0.0
 32
0.0
 13
1.0
 23
0.0
 33
0.0
 40
0.0
 40
0.0
 40
0.0
 40
0.0
 40
0.2500033300187585
 40
0.5000006963225948
 40
0.7500062307230385
 40
1.0
 40
1.0
 40
1.0
 40
1.0
 10
142.799758125573
 20
47.24444165180703
 30
0.0
 10
142.8066637317428
 20
47.24364895410639
 30
0.0
 10
142.8204747793522
 20
47.24206357761457
 30
0.0
 10
142.8378951396983
 20
47.22987769932093
 30
0.0
 10
142.8500813849946
 20
47.21245760751767
 30
0.0
 10
142.8516658922224
 20
47.198646307919
 30
0.0
 10
142.8524581271943
 20
47.19174082061153
 30
0.0
  0
LINE
  5
3D4
330
1F
100
AcDbEntity
  8
SLD-0
  6
Continuous
370
    15
100
AcDbLine
 10
142.8524581272
 20
47.1917408206
 30
0.0
 11
142.8307581256
 21
47.1917408206
 31
0.0
  0
SPLINE
  5
3D5
330
1F
100
AcDbEntity
  8
SLD-0
  6
Continuous
370
    15
100
AcDbSpline
210
0.0
220
0.0
230
1.0
 70
     8
 71
     3
 72
    11
 73
     7
 74
     0
 42
0.00000001
 43
0.00000001
 12
1.0
 22
0.0
 32
0.0
 13
1.0
 23
0.0
 33
0.0
 40
0.0
 40
0.0
 40
0.0
 40
0.0
 40
0.2500024514286472
 40
0.5000100056941217
 40
0.7499802281877745
 40
1.0
 40
1.0
 40
1.0
 40
1.0
 10
142.799758125573
 20
47.22274227581341
 30
0.0
 10
142.8038203174184
 20
47.22227596886747
 30
0.0
 10
142.8119447840232
 20
47.22134334545774
 30
0.0
 10
142.8221906349371
 20
47.21417383369459
 30
0.0
 10
142.8293608033138
 20
47.20392831245893
 30
0.0
 10
142.8302923207219
 20
47.19580358628247
 30
0.0
 10
142.8307581255829
 20
47.19174082061153
 30
0.0
  0
LINE
  5
3D6
330
1F
100
AcDbEntity
  8
SLD-0
  6
Continuous
370
    15
100
AcDbLine
 10
142.8524581272
 20
46.5977406426
 30
0.0
 11
142.8307581256
 21
46.5977406426
 31
0.0
  0
LINE
  5
3D7
330
1F
100
AcDbEntity
  8
SLD-0
  6
Continuous
370
    15
100
AcDbLine
 10
142.8307581256
 20
47.0406735524
 30
0.0
 11
142.8307581256
 21
47.1917408206
 31
0.0
  0
LINE
  5
3D8
330
1F
100
AcDbEntity
  8
SLD-0
  6
Continuous
370
    15
100
AcDbLine
 10
142.8524581272
 20
46.5977406426
 30
0.0
 11
142.8524581272
 21
47.1917408206
 31
0.0
  0
LINE
  5
3D9
330
1F
100
AcDbEntity
  8
SLD-0
  6
Continuous
370
    15
100
AcDbLine
 10
123.7107581633
 20
47.1917408206
 30
0.0
 11
123.7107581633
 21
46.7333036632
 31
0.0
  0
LINE
  5
3DA
330
1F
100
AcDbEntity
  8
SLD-0
  6
Continuous
370
    15
100
AcDbLine
 10
123.7107581633
 20
13.1715782078
 30
0.0
 11
123.7107581633
 21
12.6537411247
 31
0.0
  0
LINE
  5
3DB
330
1F
100
AcDbEntity
  8
SLD-0
  6
Continuous
370
    15
100
AcDbLine
 10
123.7107581633
 20
47.1917408206
 30
0.0
 11
124.475757966
 21
47.1917408206
 31
0.0
  0
LINE
  5
3DC
330
1F
100
AcDbEntity
  8
SLD-0
  6
Continuous
370
    15
100
AcDbLine
 10
124.8507580073
 20
47.1917408206
 30
0.0
 11
126.1637579861
 21
47.1917408206
 31
0.0
  0
LINE
  5
3DD
330
1F
100
AcDbEntity
  8
SLD-0
  6
Continuous
370
    15
100
AcDbLine
 10
126.5438150356
 20
47.1917408206
 30
0.0
 11
126.6452262374
 21
47.1917408206
 31
0.0
  0
LINE
  5
3DE
330
1F
100
AcDbEntity
  8
SLD-0
  6
Continuous
370
    15
100
AcDbLine
 10
126.6452262374
 20
47.1917408206
 30
0.0
 11
126.6452262374
 21
12.6537411247
 31
0.0
  0
LINE
  5
3DF
330
1F
100
AcDbEntity
  8
SLD-0
  6
Continuous
370
    15
100
AcDbLine
 10
123.7107581633
 20
12.6537411247
 30
0.0
 11
124.475757966
 21
12.6537411247
 31
0.0
  0
LINE
  5
3E0
330
1F
100
AcDbEntity
  8
SLD-0
  6
Continuous
370
    15
100
AcDbLine
 10
124.8507580073
 20
12.6537411247
 30
0.0
 11
126.1637579861
 21
12.6537411247
 31
0.0
  0
LINE
  5
3E1
330
1F
100
AcDbEntity
  8
SLD-0
  6
Continuous
370
    15
100
AcDbLine
 10
126.5438150356
 20
12.6537411247
 30
0.0
 11
126.6452262374
 21
12.6537411247
 31
0.0
  0
LINE
  5
3E2
330
1F
100
AcDbEntity
  8
SLD-0
  6
Continuous
370
    15
100
AcDbLine
 10
142.7890003725
 20
47.1917408206
 30
0.0
 11
142.7890003725
 21
12.6537411247
 31
0.0
  0
LWPOLYLINE
  5
3E3
330
1F
100
AcDbEntity
  8
SLD-0
  6
Continuous
370
    15
100
AcDbPolyline
 90
      108
 70
   128
 43
0.0
 10
133.8628629653
 20
15.278741109
 10
133.864338415
 20
15.3300929158
 10
133.8687588972
 20
15.3812675512
 10
133.8761097457
 20
15.4320887242
 10
133.8863657338
 20
15.4823813165
 10
133.8994916622
 20
15.5319719703
 10
133.9154411846
 20
15.5806893808
 10
133.9341603284
 20
15.6283663501
 10
133.9555839742
 20
15.6748377332
 10
133.9796387897
 20
15.7199439588
 10
134.0062420557
 20
15.7635292687
 10
134.03530108
 20
15.8054431845
 10
134.0667161304
 20
15.8455416812
 10
134.1003792615
 20
15.8836863073
 10
134.1361743147
 20
15.9197453574
 10
134.1739780913
 20
15.953594753
 10
134.2136591796
 20
15.9851177489
 10
134.2550820611
 20
16.0142061062
 10
134.2981035907
 20
16.0407586261
 10
134.342574757
 20
16.0646846697
 10
134.3883430283
 20
16.0859012246
 10
134.4352505931
 20
16.104335545
 10
134.4831355332
 20
16.1199236849
 10
134.5318329973
 20
16.1326122583
 10
134.581174614
 20
16.1423572657
 10
134.6309908385
 20
16.1491252676
 10
134.6811097796
 20
16.1528927974
 10
134.7313589591
 20
16.1536469487
 10
134.7815641391
 20
16.1513850814
 10
134.8315534283
 20
16.1461151157
 10
134.881153762
 20
16.1378549444
 10
134.9301944221
 20
16.1266333141
 10
134.9785064507
 20
16.1124889441
 10
135.0259232362
 20
16.0954705274
 10
135.0722811007
 20
16.0756364365
 10
135.1174204726
 20
16.053055604
 10
135.161185887
 20
16.0278051757
 10
135.2034259857
 20
15.9999728572
 10
135.2439952771
 20
15.9696539808
 10
135.2827547226
 20
15.9369538519
 10
135.3195699773
 20
15.9019842292
 10
135.354313736
 20
15.8648665513
 10
135.3868669066
 20
15.8257281235
 10
135.4171174371
 20
15.7847041707
 10
135.4449603155
 20
15.7419363714
 10
135.4702999161
 20
15.6975713906
 10
135.4930494133
 20
15.6517629331
 10
135.513129608
 20
15.6046685172
 10
135.5304712743
 20
15.5564503542
 10
135.5450151596
 20
15.5072750556
 10
135.5567108112
 20
15.4573118728
 10
135.5655183361
 20
15.4067332837
 10
135.5714066414
 20
15.3557132331
 10
135.5743557807
 20
15.3044280122
 10
135.5743557807
 20
15.2530542057
 10
135.5714066414
 20
15.2017689848
 10
135.5655183361
 20
15.1507489342
 10
135.5567108112
 20
15.1001703452
 10
135.5450151596
 20
15.0502071624
 10
135.5304712743
 20
15.0010318638
 10
135.513129608
 20
14.9528138474
 10
135.4930494133
 20
14.9057194315
 10
135.4702999161
 20
14.8599108273
 10
135.4449603155
 20
14.8155459932
 10
135.4171174371
 20
14.7727779006
 10
135.3868669066
 20
14.7317540945
 10
135.354313736
 20
14.6926156666
 10
135.3195699773
 20
14.6554978421
 10
135.2827547226
 20
14.6205285127
 10
135.2439952771
 20
14.5878280905
 10
135.2034259857
 20
14.5575095074
 10
135.161185887
 20
14.5296770422
 10
135.1174204726
 20
14.5044267606
 10
135.0722811007
 20
14.4818457814
 10
135.0259232362
 20
14.4620118372
 10
134.9785064507
 20
14.4449932738
 10
134.9301944221
 20
14.4308489039
 10
134.881153762
 20
14.4196272735
 10
134.8315534283
 20
14.411367249
 10
134.7815641391
 20
14.4060972832
 10
134.7313589591
 20
14.403835416
 10
134.6811097796
 20
14.4045895672
 10
134.6309908385
 20
14.4083570971
 10
134.581174614
 20
14.4151250989
 10
134.5318329973
 20
14.4248701063
 10
134.4831355332
 20
14.4375585331
 10
134.4352505931
 20
14.453146673
 10
134.3883430283
 20
14.4715808467
 10
134.342574757
 20
14.4927975483
 10
134.2981035907
 20
14.5167234452
 10
134.2550820611
 20
14.5432762585
 10
134.2136591796
 20
14.5723643224
 10
134.1739780913
 20
14.6038874649
 10
134.1361743147
 20
14.6377370072
 10
134.1003792615
 20
14.6737960574
 10
134.0667161304
 20
14.7119405367
 10
134.03530108
 20
14.7520390335
 10
134.0062420557
 20
14.793953096
 10
133.9796387897
 20
14.8375382591
 10
133.9555839742
 20
14.8826443381
 10
133.9341603284
 20
14.9291160145
 10
133.9154411846
 20
14.9767926904
 10
133.8994916622
 20
15.0255103943
 10
133.8863657338
 20
15.0751010481
 10
133.8761097457
 20
15.1253934938
 10
133.8687588972
 20
15.17621496
 10
133.864338415
 20
15.2273895955
 10
133.8628629653
 20
15.278741109
  0
LINE
  5
3E4
330
1F
100
AcDbEntity
  8
SLD-0
  6
Continuous
370
    15
100
AcDbLine
 10
141.809249708
 20
47.1917408206
 30
0.0
 11
142.7890003725
 21
47.1917408206
 31
0.0
  0
LINE
  5
3E5
330
1F
100
AcDbEntity
  8
SLD-0
  6
Continuous
370
    15
100
AcDbLine
 10
141.809249708
 20
12.6537411247
 30
0.0
 11
142.7890003725
 21
12.6537411247
 31
0.0
  0
LWPOLYLINE
  5
3E6
330
1F
100
AcDbEntity
  8
SLD-0
  6
Continuous
370
    15
100
AcDbPolyline
 90
       56
 70
   128
 43
0.0
 10
134.7165411036
 20
16.1537381743
 10
134.7268534111
 20
16.1536469487
 10
134.7770585911
 20
16.1513850814
 10
134.8270478803
 20
16.1461151157
 10
134.876648214
 20
16.1378549444
 10
134.9256888742
 20
16.1266333141
 10
134.9740009027
 20
16.1124889441
 10
135.0214176883
 20
16.0954705274
 10
135.0677755528
 20
16.0756364365
 10
135.1129149246
 20
16.053055604
 10
135.1566803391
 20
16.0278051757
 10
135.1989204378
 20
15.9999728572
 10
135.2394897291
 20
15.9696539808
 10
135.2782491747
 20
15.9369538519
 10
135.3150638427
 20
15.9019842292
 10
135.349808188
 20
15.8648665513
 10
135.3823613586
 20
15.8257281235
 10
135.4126118892
 20
15.7847041707
 10
135.4404547675
 20
15.7419363714
 10
135.4657943681
 20
15.6975713906
 10
135.4885438653
 20
15.6517629331
 10
135.50862406
 20
15.6046685172
 10
135.5259657264
 20
15.5564503542
 10
135.5405096117
 20
15.5072750556
 10
135.5522052633
 20
15.4573118728
 10
135.5610127882
 20
15.4067332837
 10
135.5669010935
 20
15.3557132331
 10
135.5698502328
 20
15.3044280122
 10
135.5698502328
 20
15.2530542057
 10
135.5669010935
 20
15.2017689848
 10
135.5610127882
 20
15.1507489342
 10
135.5522052633
 20
15.1001703452
 10
135.5405096117
 20
15.0502071624
 10
135.5259657264
 20
15.0010318638
 10
135.50862406
 20
14.9528138474
 10
135.4885438653
 20
14.9057194315
 10
135.4657943681
 20
14.8599108273
 10
135.4404547675
 20
14.8155459932
 10
135.4126118892
 20
14.7727779006
 10
135.3823613586
 20
14.7317540945
 10
135.349808188
 20
14.6926156666
 10
135.3150638427
 20
14.6554978421
 10
135.2782491747
 20
14.6205285127
 10
135.2394897291
 20
14.5878280905
 10
135.1989204378
 20
14.5575095074
 10
135.1566803391
 20
14.5296770422
 10
135.1129149246
 20
14.5044267606
 10
135.0677755528
 20
14.4818457814
 10
135.0214176883
 20
14.4620118372
 10
134.9740009027
 20
14.4449932738
 10
134.9256888742
 20
14.4308489039
 10
134.876648214
 20
14.4196272735
 10
134.8270478803
 20
14.411367249
 10
134.7770585911
 20
14.4060972832
 10
134.7268534111
 20
14.403835416
 10
134.7165411036
 20
14.4037441903
  0
LINE
  5
3E7
330
1F
100
AcDbEntity
  8
SLD-0
  6
Continuous
370
    15
100
AcDbLine
 10
142.8307581256
 20
47.0406735524
 30
0.0
 11
142.8307581256
 21
12.8048089864
 31
0.0
  0
LINE
  5
3E8
330
1F
100
AcDbEntity
  8
SLD-0
  6
Continuous
370
    15
100
AcDbLine
 10
142.7890003725
 20
47.1917408206
 30
0.0
 11
142.8307581256
 21
47.1917408206
 31
0.0
  0
LINE
  5
3E9
330
1F
100
AcDbEntity
  8
SLD-0
  6
Continuous
370
    15
100
AcDbLine
 10
142.7890003725
 20
12.6537411247
 30
0.0
 11
142.8307581256
 21
12.6537411247
 31
0.0
  0
LINE
  5
3EA
330
1F
100
AcDbEntity
  8
SLD-0
  6
Continuous
370
    15
100
AcDbLine
 10
124.8507580073
 20
12.6707695444
 30
0.0
 11
124.8507580073
 21
12.6537411247
 31
0.0
  0
LINE
  5
3EB
330
1F
100
AcDbEntity
  8
SLD-0
  6
Continuous
370
    15
100
AcDbLine
 10
124.8507580073
 20
12.6537411247
 30
0.0
 11
124.475757966
 21
12.6537411247
 31
0.0
  0
LINE
  5
3EC
330
1F
100
AcDbEntity
  8
SLD-0
  6
Continuous
370
    15
100
AcDbLine
 10
124.475757966
 20
13.2477411446
 30
0.0
 11
124.475757966
 21
12.6537411247
 31
0.0
  0
LINE
  5
3ED
330
1F
100
AcDbEntity
  8
SLD-0
  6
Continuous
370
    15
100
AcDbLine
 10
125.9498148576
 20
13.2477411446
 30
0.0
 11
124.475757966
 21
13.2477411446
 31
0.0
  0
LINE
  5
3EE
330
1F
100
AcDbEntity
  8
SLD-0
  6
Continuous
370
    15
100
AcDbLine
 10
125.9498148576
 20
13.2477411446
 30
0.0
 11
126.5438150356
 21
12.6537411247
 31
0.0
  0
LINE
  5
3EF
330
1F
100
AcDbEntity
  8
SLD-0
  6
Continuous
370
    15
100
AcDbLine
 10
126.5438150356
 20
12.6537411247
 30
0.0
 11
126.1637579861
 21
12.6537411247
 31
0.0
  0
LINE
  5
3F0
330
1F
100
AcDbEntity
  8
SLD-0
  6
Continuous
370
    15
100
AcDbLine
 10
126.1637579861
 20
12.6537411247
 30
0.0
 11
126.1637579861
 21
12.6707695444
 31
0.0
  0
LINE
  5
3F1
330
1F
100
AcDbEntity
  8
SLD-0
  6
Continuous
370
    15
100
AcDbLine
 10
126.1637579861
 20
12.6707695444
 30
0.0
 11
124.8507580073
 21
12.6707695444
 31
0.0
  0
LINE
  5
3F2
330
1F
100
AcDbEntity
  8
SLD-0
  6
Continuous
370
    15
100
AcDbLine
 10
126.6037575965
 20
12.6010411253
 30
0.0
 11
126.1637579861
 21
12.6010411253
 31
0.0
  0
LINE
  5
3F3
330
1F
100
AcDbEntity
  8
SLD-0
  6
Continuous
370
    15
100
AcDbLine
 10
126.1637579861
 20
12.6537411247
 30
0.0
 11
126.1637579861
 21
12.6010411253
 31
0.0
  0
SPLINE
  5
3F4
330
1F
100
AcDbEntity
  8
SLD-0
  6
Continuous
370
    15
100
AcDbSpline
210
0.0
220
0.0
230
1.0
 70
     8
 71
     3
 72
    11
 73
     7
 74
     0
 42
0.00000001
 43
0.00000001
 12
1.0
 22
0.0
 32
0.0
 13
1.0
 23
0.0
 33
0.0
 40
0.0
 40
0.0
 40
0.0
 40
0.0
 40
0.2499978240257305
 40
0.5000020722088133
 40
0.7500008560752895
 40
1.0
 40
1.0
 40
1.0
 40
1.0
 10
126.6037575964861
 20
12.60104112532615
 30
0.0
 10
126.5987623407719
 20
12.60183332825823
 30
0.0
 10
126.5887717009812
 20
12.60341775447952
 30
0.0
 10
126.5737865478625
 20
12.61560424596609
 30
0.0
 10
126.5588006325849
 20
12.63302420339568
 30
0.0
 10
126.5488102370026
 20
12.64683548092081
 30
0.0
 10
126.5438150356143
 20
12.65374112465626
 30
0.0
  0
SPLINE
  5
3F5
330
1F
100
AcDbEntity
  8
SLD-0
  6
Continuous
370
    15
100
AcDbSpline
210
0.0
220
0.0
230
1.0
 70
     8
 71
     3
 72
    11
 73
     7
 74
     0
 42
0.00000001
 43
0.00000001
 12
1.0
 22
0.0
 32
0.0
 13
1.0
 23
0.0
 33
0.0
 40
0.0
 40
0.0
 40
0.0
 40
0.0
 40
0.2499948265912197
 40
0.5000009244227033
 40
0.7499962213581483
 40
1.0
 40
1.0
 40
1.0
 40
1.0
 10
126.6037575964861
 20
12.62274112464585
 30
0.0
 10
126.5987623043181
 20
12.62320714742091
 30
0.0
 10
126.5887714947648
 20
12.62413921398209
 30
0.0
 10
126.5737868014161
 20
12.63130752203125
 30
0.0
 10
126.5588003118675
 20
12.64155493065982
 30
0.0
 10
126.5488101841877
 20
12.6496790140533
 30
0.0
 10
126.5438150356143
 20
12.65374112465626
 30
0.0
  0
LINE
  5
3F6
330
1F
100
AcDbEntity
  8
SLD-0
  6
Continuous
370
    15
100
AcDbLine
 10
126.6037575965
 20
12.6010411253
 30
0.0
 11
126.6037575965
 21
12.6227411246
 31
0.0
  0
LINE
  5
3F7
330
1F
100
AcDbEntity
  8
SLD-0
  6
Continuous
370
    15
100
AcDbLine
 10
124.8507580073
 20
12.6010411253
 30
0.0
 11
124.8507580073
 21
12.6537411247
 31
0.0
  0
LINE
  5
3F8
330
1F
100
AcDbEntity
  8
SLD-0
  6
Continuous
370
    15
100
AcDbLine
 10
124.8507580073
 20
12.6010411253
 30
0.0
 11
124.475757966
 21
12.6010411253
 31
0.0
  0
LINE
  5
3F9
330
1F
100
AcDbEntity
  8
SLD-0
  6
Continuous
370
    15
100
AcDbLine
 10
124.475757966
 20
12.6537411247
 30
0.0
 11
124.475757966
 21
12.6010411253
 31
0.0
  0
SPLINE
  5
3FA
330
1F
100
AcDbEntity
  8
SLD-0
  6
Continuous
370
    15
100
AcDbSpline
210
0.0
220
0.0
230
1.0
 70
     8
 71
     3
 72
    11
 73
     7
 74
     0
 42
0.00000001
 43
0.00000001
 12
1.0
 22
0.0
 32
0.0
 13
1.0
 23
0.0
 33
0.0
 40
0.0
 40
0.0
 40
0.0
 40
0.0
 40
0.2500028599548663
 40
0.5000051522018845
 40
0.7500006673965046
 40
1.0
 40
1.0
 40
1.0
 40
1.0
 10
141.8107503840077
 20
12.60104112532615
 30
0.0
 10
141.8111461996746
 20
12.60183329990558
 30
0.0
 10
141.8119378301095
 20
12.60341764726555
 30
0.0
 10
141.8124421161491
 20
12.61560417831796
 30
0.0
 10
141.8118621036695
 20
12.63302436651359
 30
0.0
 10
141.8101205109957
 20
12.64683550345984
 30
0.0
 10
141.8092497080103
 20
12.65374112465626
 30
0.0
  0
LINE
  5
3FB
330
1F
100
AcDbEntity
  8
SLD-0
  6
Continuous
370
    15
100
AcDbLine
 10
141.810750384
 20
12.6010411253
 30
0.0
 11
126.6037575965
 21
12.6010411253
 31
0.0
  0
SPLINE
  5
3FC
330
1F
100
AcDbEntity
  8
SLD-0
  6
Continuous
370
    15
100
AcDbSpline
210
0.0
220
0.0
230
1.0
 70
     8
 71
     3
 72
    12
 73
     8
 74
     0
 42
0.00000001
 43
0.00000001
 12
1.0
 22
0.0
 32
0.0
 13
1.0
 23
0.0
 33
0.0
 40
0.0
 40
0.0
 40
0.0
 40
0.0
 40
0.2373941016816934
 40
0.474914906042833
 40
0.7124408061777259
 40
0.9499590277310953
 40
0.9999999999999999
 40
0.9999999999999999
 40
0.9999999999999999
 40
0.9999999999999999
 10
126.6528211363665
 20
12.65374112465626
 30
0.0
 10
126.6496544017195
 20
12.64719057261277
 30
0.0
 10
126.6433192422666
 20
12.63408597234583
 30
0.0
 10
126.6319689709738
 20
12.61711843154101
 30
0.0
 10
126.6196090701053
 20
12.60523890580578
 30
0.0
 10
126.6099521810776
 20
12.6012690906328
 30
0.0
 10
126.6046757922303
 20
12.60107491561044
 30
0.0
 10
126.6037575964861
 20
12.60104112532615
 30
0.0
  0
LINE
  5
3FD
330
1F
100
AcDbEntity
  8
SLD-0
  6
Continuous
370
    15
100
AcDbLine
 10
126.6528211364
 20
12.6537411247
 30
0.0
 11
141.809249708
 21
12.6537411247
 31
0.0
  0
LINE
  5
3FE
330
1F
100
AcDbEntity
  8
SLD-0
  6
Continuous
370
    15
100
AcDbLine
 10
126.6528211364
 20
12.6537411247
 30
0.0
 11
126.6483261483
 21
12.6537411247
 31
0.0
  0
SPLINE
  5
3FF
330
1F
100
AcDbEntity
  8
SLD-0
  6
Continuous
370
    15
100
AcDbSpline
210
0.0
220
0.0
230
1.0
 70
     8
 71
     3
 72
    11
 73
     7
 74
     0
 42
0.00000001
 43
0.00000001
 12
1.0
 22
0.0
 32
0.0
 13
1.0
 23
0.0
 33
0.0
 40
0.0
 40
0.0
 40
0.0
 40
0.0
 40
0.2752364191574315
 40
0.5508058463887642
 40
0.8263614793005808
 40
1.0
 40
1.0
 40
1.0
 40
1.0
 10
126.648326148293
 20
12.65374112465626
 30
0.0
 10
126.6447068434129
 20
12.64926793195338
 30
0.0
 10
126.637463854662
 20
12.64031613443939
 30
0.0
 10
126.6251663464275
 20
12.62943900299981
 30
0.0
 10
126.613744289858
 20
12.62355893172202
 30
0.0
 10
126.6065417706878
 20
12.6229691197668
 30
0.0
 10
126.6037575964861
 20
12.62274112464582
 30
0.0
  0
LINE
  5
400
330
1F
100
AcDbEntity
  8
SLD-0
  6
Continuous
370
    15
100
AcDbLine
 10
126.6528211364
 20
12.6537411247
 30
0.0
 11
127.0308131431
 21
13.2477411446
 31
0.0
  0
LINE
  5
401
330
1F
100
AcDbEntity
  8
SLD-0
  6
Continuous
370
    15
100
AcDbLine
 10
127.0308131431
 20
13.2477411446
 30
0.0
 11
141.6861815897
 21
13.2477411446
 31
0.0
  0
LINE
  5
402
330
1F
100
AcDbEntity
  8
SLD-0
  6
Continuous
370
    15
100
AcDbLine
 10
141.6861815897
 20
13.2477411446
 30
0.0
 11
141.809249708
 21
12.6537411247
 31
0.0
  0
LINE
  5
403
330
1F
100
AcDbEntity
  8
SLD-0
  6
Continuous
370
    15
100
AcDbLine
 10
126.6483261483
 20
12.6537411247
 30
0.0
 11
127.0263169817
 21
13.2477411446
 31
0.0
  0
LINE
  5
404
330
1F
100
AcDbEntity
  8
SLD-0
  6
Continuous
370
    15
100
AcDbLine
 10
127.0308131431
 20
13.2477411446
 30
0.0
 11
127.0263169817
 21
13.2477411446
 31
0.0
  0
LINE
  5
405
330
1F
100
AcDbEntity
  8
SLD-0
  6
Continuous
370
    15
100
AcDbLine
 10
123.6967581117
 20
12.6227411246
 30
0.0
 11
123.6967581117
 21
12.6010411253
 31
0.0
  0
LINE
  5
406
330
1F
100
AcDbEntity
  8
SLD-0
  6
Continuous
370
    15
100
AcDbLine
 10
124.475757966
 20
12.6010411253
 30
0.0
 11
124.3604581779
 21
12.6010411253
 31
0.0
  0
LINE
  5
407
330
1F
100
AcDbEntity
  8
SLD-0
  6
Continuous
370
    15
100
AcDbLine
 10
124.475757966
 20
12.6227411246
 30
0.0
 11
123.6967581117
 21
12.6227411246
 31
0.0
  0
LINE
  5
408
330
1F
100
AcDbEntity
  8
SLD-0
  6
Continuous
370
    15
100
AcDbLine
 10
123.6657578298
 20
13.1227411186
 30
0.0
 11
123.6657578298
 21
12.6537411247
 31
0.0
  0
LINE
  5
409
330
1F
100
AcDbEntity
  8
SLD-0
  6
Continuous
370
    15
100
AcDbLine
 10
123.6657578298
 20
12.6537411247
 30
0.0
 11
123.6440584538
 21
12.6537411247
 31
0.0
  0
ARC
  5
40A
330
1F
100
AcDbEntity
  8
SLD-0
  6
Continuous
370
    15
100
AcDbCircle
 10
123.6967581256
 20
12.6537411246
 30
0.0
 40
0.0310000000000059
100
AcDbArc
 50
180.0
 51
270.0
  0
ARC
  5
40B
330
1F
100
AcDbEntity
  8
SLD-0
  6
Continuous
370
    15
100
AcDbCircle
 10
123.6967581256
 20
12.6537411246
 30
0.0
 40
0.0527000000000015
100
AcDbArc
 50
180.0
 51
270.0
  0
LINE
  5
40C
330
1F
100
AcDbEntity
  8
SLD-0
  6
Continuous
370
    15
100
AcDbLine
 10
124.8507580073
 20
12.6010411253
 30
0.0
 11
126.1637579861
 21
12.6010411253
 31
0.0
  0
LINE
  5
40D
330
1F
100
AcDbEntity
  8
SLD-0
  6
Continuous
370
    15
100
AcDbLine
 10
124.8507580073
 20
12.6227411246
 30
0.0
 11
126.1637579861
 21
12.6227411246
 31
0.0
  0
LINE
  5
40E
330
1F
100
AcDbEntity
  8
SLD-0
  6
Continuous
370
    15
100
AcDbLine
 10
142.7997581256
 20
12.6010411253
 30
0.0
 11
142.7997581256
 21
12.6227411246
 31
0.0
  0
LINE
  5
40F
330
1F
100
AcDbEntity
  8
SLD-0
  6
Continuous
370
    15
100
AcDbLine
 10
142.7997581256
 20
12.6010411253
 30
0.0
 11
141.810750384
 21
12.6010411253
 31
0.0
  0
LINE
  5
410
330
1F
100
AcDbEntity
  8
SLD-0
  6
Continuous
370
    15
100
AcDbLine
 10
142.7997581256
 20
12.6227411246
 30
0.0
 11
141.810750384
 21
12.6227411246
 31
0.0
  0
LINE
  5
411
330
1F
100
AcDbEntity
  8
SLD-0
  6
Continuous
370
    15
100
AcDbLine
 10
142.8307581256
 20
12.6537411247
 30
0.0
 11
142.8524581272
 21
12.6537411247
 31
0.0
  0
SPLINE
  5
412
330
1F
100
AcDbEntity
  8
SLD-0
  6
Continuous
370
    15
100
AcDbSpline
210
0.0
220
0.0
230
1.0
 70
     8
 71
     3
 72
    11
 73
     7
 74
     0
 42
0.00000001
 43
0.00000001
 12
1.0
 22
0.0
 32
0.0
 13
1.0
 23
0.0
 33
0.0
 40
0.0
 40
0.0
 40
0.0
 40
0.0
 40
0.2499983823733169
 40
0.499998923008721
 40
0.7499994673982305
 40
1.0
 40
1.0
 40
1.0
 40
1.0
 10
142.8524581271943
 20
12.65374112465626
 30
0.0
 10
142.8516659535734
 20
12.64683545926018
 30
0.0
 10
142.8500815994927
 20
12.63302406885068
 30
0.0
 10
142.8378948018101
 20
12.61560446278654
 30
0.0
 10
142.8204750822398
 20
12.60341761350846
 30
0.0
 10
142.8066637776864
 20
12.60183328804114
 30
0.0
 10
142.7997581255726
 20
12.60104112532615
 30
0.0
  0
SPLINE
  5
413
330
1F
100
AcDbEntity
  8
SLD-0
  6
Continuous
370
    15
100
AcDbSpline
210
0.0
220
0.0
230
1.0
 70
     8
 71
     3
 72
    11
 73
     7
 74
     0
 42
0.00000001
 43
0.00000001
 12
1.0
 22
0.0
 32
0.0
 13
1.0
 23
0.0
 33
0.0
 40
0.0
 40
0.0
 40
0.0
 40
0.0
 40
0.2499955339962762
 40
0.4999970180910838
 40
0.7499985113973984
 40
0.9999999999999999
 40
0.9999999999999999
 40
0.9999999999999999
 40
0.9999999999999999
 10
142.8307581255829
 20
12.65374112465626
 30
0.0
 10
142.8302921308494
 20
12.64967895479421
 30
0.0
 10
142.8293601302914
 20
12.64155451838714
 30
0.0
 10
142.8221914648486
 20
12.63130780771119
 30
0.0
 10
142.8119445705909
 20
12.62413905574918
 30
0.0
 10
142.8038202738865
 20
12.62320710167741
 30
0.0
 10
142.7997581255726
 20
12.62274112464591
 30
0.0
  0
LINE
  5
414
330
1F
100
AcDbEntity
  8
SLD-0
  6
Continuous
370
    15
100
AcDbLine
 10
142.8524581272
 20
12.6537411247
 30
0.0
 11
142.8524581272
 21
13.2477411446
 31
0.0
  0
LINE
  5
415
330
1F
100
AcDbEntity
  8
SLD-0
  6
Continuous
370
    15
100
AcDbLine
 10
142.8307581256
 20
12.6537411247
 30
0.0
 11
142.8307581256
 21
12.8048089864
 31
0.0
  0
LINE
  5
416
330
1F
100
AcDbEntity
  8
SLD-0
  6
Continuous
370
    15
100
AcDbLine
 10
142.8307581256
 20
13.2477411446
 30
0.0
 11
142.8524581272
 21
13.2477411446
 31
0.0
  0
LINE
  5
417
330
1F
100
AcDbEntity
  8
SLD-0
  6
Continuous
370
    15
100
AcDbLine
 10
126.6154579413
 20
11.6160411141
 30
0.0
 11
126.6698612595
 21
11.6160411141
 31
0.0
  0
LINE
  5
418
330
1F
100
AcDbEntity
  8
SLD-0
  6
Continuous
370
    15
100
AcDbLine
 10
126.6154579413
 20
12.518441127
 30
0.0
 11
126.6698612595
 21
12.518441127
 31
0.0
  0
LINE
  5
419
330
1F
100
AcDbEntity
  8
SLD-0
  6
Continuous
370
    15
100
AcDbLine
 10
126.144057947
 20
12.6328236242
 30
0.0
 11
126.1637579861
 21
12.6328236242
 31
0.0
  0
LINE
  5
41A
330
1F
100
AcDbEntity
  8
SLD-0
  6
Continuous
370
    15
100
AcDbLine
 10
126.57229268
 20
12.6328236242
 30
0.0
 11
126.6281333149
 21
12.6328236242
 31
0.0
  0
LINE
  5
41B
330
1F
100
AcDbEntity
  8
SLD-0
  6
Continuous
370
    15
100
AcDbLine
 10
124.2120156261
 20
47.1917408206
 30
0.0
 11
124.2120156261
 21
47.1926419302
 31
0.0
  0
LINE
  5
41C
330
1F
100
AcDbEntity
  8
SLD-0
  6
Continuous
370
    15
100
AcDbLine
 10
124.221371678
 20
47.1917408206
 30
0.0
 11
124.221371678
 21
47.1926419302
 31
0.0
  0
LINE
  5
41D
330
1F
100
AcDbEntity
  8
SLD-0
  6
Continuous
370
    15
100
AcDbLine
 10
142.7640581251
 20
47.1926419302
 30
0.0
 11
142.7640581251
 21
47.1917408206
 31
0.0
  0
LINE
  5
41E
330
1F
100
AcDbEntity
  8
SLD-0
  6
Continuous
370
    15
100
AcDbLine
 10
126.6561686177
 20
47.1794162697
 30
0.0
 11
126.6561686177
 21
12.6660665671
 31
0.0
  0
LINE
  5
41F
330
1F
100
AcDbEntity
  8
DIM
  6
CENTERX2
100
AcDbLine
 10
134.7187938895
 20
14.2325716638
 30
0.0
 11
134.7187938895
 21
16.3601209261
 31
0.0
  0
LINE
  5
420
330
1F
100
AcDbEntity
  8
DIM
  6
CENTERX2
100
AcDbLine
 10
134.7187938895
 20
15.2787411246
 30
0.0
 11
135.915917533
 21
15.2787411246
 31
0.0
  0
LINE
  5
421
330
1F
100
AcDbEntity
  8
DIM
  6
CENTERX2
100
AcDbLine
 10
134.7187938895
 20
15.2787411246
 30
0.0
 11
133.5628170637
 21
15.2787411246
 31
0.0
  0
DIMENSION
  5
422
330
1F
100
AcDbEntity
  8
DIM
100
AcDbDimension
  2
_D_11
 10
142.8784581256
 20
7.5313417152
 30
0.0
 11
138.7986260075
 21
7.5313417152
 31
0.0
 70
   160
  1
<>
 71
     2
 42
-1.0
  3
SLDDIMSTYLE1
100
AcDbAlignedDimension
 13
134.7187938895
 23
14.2325716638
 33
0.0
 14
142.8784581256
 24
11.5984411246
 34
0.0
100
AcDbRotatedDimension
  0
DIMENSION
  5
431
330
1F
100
AcDbEntity
  8
DIM
100
AcDbDimension
  2
_D_12
 10
116.9876291411
 20
15.2787411246
 30
0.0
 11
116.9876291411
 21
7.5313417152
 31
0.0
 70
   160
  1
<>
 71
     2
 42
-1.0
  3
SLDDIMSTYLE1
100
AcDbAlignedDimension
 13
123.6774581256
 23
11.5314411246
 33
0.0
 14
133.5628170637
 24
15.2787411246
 34
0.0
 50
90.0
100
AcDbRotatedDimension
  0
DIMENSION
  5
441
330
1F
100
AcDbEntity
  8
DIM
100
AcDbDimension
  2
_D_13
 10
147.4537012842
 20
47.2444411246
 30
0.0
 11
147.4537012842
 21
48.7520563632
 31
0.0
 70
   160
  1
<>
 71
     2
 42
-1.0
  3
SLDDIMSTYLE1
100
AcDbAlignedDimension
 13
141.2151581256
 23
50.2596716018
 33
0.0
 14
142.7997581256
 24
47.2444411246
 34
0.0
 50
90.0
100
AcDbRotatedDimension
  0
LINE
  5
44C
330
1F
100
AcDbEntity
  8
SLD-0
  6
Continuous
370
    15
100
AcDbLine
 10
23.258942236
 20
50.2596716729
 30
0.0
 11
6.3839427241
 21
50.2596716729
 31
0.0
  0
LINE
  5
44D
330
1F
100
AcDbEntity
  8
SLD-0
  6
Continuous
370
    15
100
AcDbLine
 10
20.9836428671
 20
11.6010411007
 30
0.0
 11
20.9292395489
 21
11.6010411007
 31
0.0
  0
LINE
  5
44E
330
1F
100
AcDbEntity
  8
SLD-0
  6
Continuous
370
    15
100
AcDbLine
 10
20.9836428671
 20
12.5670411231
 30
0.0
 11
20.9292395489
 21
12.5670411231
 31
0.0
  0
LINE
  5
44F
330
1F
100
AcDbEntity
  8
SLD-0
  6
Continuous
370
    15
100
AcDbLine
 10
20.9836428671
 20
12.5674411243
 30
0.0
 11
20.9836428671
 21
11.5984410974
 31
0.0
  0
LINE
  5
450
330
1F
100
AcDbEntity
  8
SLD-0
  6
Continuous
370
    15
100
AcDbLine
 10
23.9216426338
 20
12.5674411243
 30
0.0
 11
20.9836428671
 21
12.5674411243
 31
0.0
  0
LINE
  5
451
330
1F
100
AcDbEntity
  8
SLD-0
  6
Continuous
370
    15
100
AcDbLine
 10
23.9216426338
 20
11.5984410974
 30
0.0
 11
23.9216426338
 21
12.5674411243
 31
0.0
  0
LINE
  5
452
330
1F
100
AcDbEntity
  8
SLD-0
  6
Continuous
370
    15
100
AcDbLine
 10
23.9216426338
 20
11.5984410974
 30
0.0
 11
20.9836428671
 21
11.5984410974
 31
0.0
  0
LINE
  5
453
330
1F
100
AcDbEntity
  8
SLD-0
  6
Continuous
370
    15
100
AcDbLine
 10
20.9979069157
 20
11.5314410914
 30
0.0
 11
23.9216426338
 21
11.5314410914
 31
0.0
  0
LINE
  5
454
330
1F
100
AcDbEntity
  8
SLD-0
  6
Continuous
370
    15
100
AcDbLine
 10
23.9216426338
 20
11.5984410974
 30
0.0
 11
23.9216426338
 21
11.5314410914
 31
0.0
  0
SPLINE
  5
455
330
1F
100
AcDbEntity
  8
SLD-0
  6
Continuous
370
    15
100
AcDbSpline
210
0.0
220
0.0
230
1.0
 70
     8
 71
     3
 72
    11
 73
     7
 74
     0
 42
0.00000001
 43
0.00000001
 12
1.0
 22
0.0
 32
0.0
 13
1.0
 23
0.0
 33
0.0
 40
0.0
 40
0.0
 40
0.0
 40
0.0
 40
0.2499968120238952
 40
0.5000013261502807
 40
0.7500014233995946
 40
1.0
 40
1.0
 40
1.0
 40
1.0
 10
20.99790691566952
 20
11.53144109143701
 30
0.0
 10
20.99671829663486
 20
11.53244829234904
 30
0.0
 10
20.99434102194562
 20
11.53446272520375
 30
0.0
 10
20.9907759423997
 20
11.54995589710225
 30
0.0
 10
20.98720819441492
 20
11.57210265319885
 30
0.0
 10
20.98483130713915
 20
11.58966163383184
 30
0.0
 10
20.98364286711569
 20
11.59844109744723
 30
0.0
  0
LINE
  5
456
330
1F
100
AcDbEntity
  8
SLD-0
  6
Continuous
370
    15
100
AcDbLine
 10
4.7876426829
 20
11.5314410914
 30
0.0
 11
20.9356623014
 21
11.5314410914
 31
0.0
  0
SPLINE
  5
457
330
1F
100
AcDbEntity
  8
SLD-0
  6
Continuous
370
    15
100
AcDbSpline
210
0.0
220
0.0
230
1.0
 70
     8
 71
     3
 72
    11
 73
     7
 74
     0
 42
0.00000001
 43
0.00000001
 12
1.0
 22
0.0
 32
0.0
 13
1.0
 23
0.0
 33
0.0
 40
0.0
 40
0.0
 40
0.0
 40
0.0
 40
0.2500020173653574
 40
0.4999970581981844
 40
0.7500020978140766
 40
1.0
 40
1.0
 40
1.0
 40
1.0
 10
4.787642682921045
 20
11.53144109143701
 30
0.0
 10
4.787042491595659
 20
11.53228138432062
 30
0.0
 10
4.78584212569377
 20
11.53396194663871
 30
0.0
 10
4.784710678651059
 20
11.54703280065884
 30
0.0
 10
4.784643834651074
 20
11.56597628277619
 30
0.0
 10
4.785984058598959
 20
11.58167606703145
 30
0.0
 10
4.786654161007201
 20
11.58952584710363
 30
0.0
  0
ARC
  5
458
330
1F
100
AcDbEntity
  8
SLD-0
  6
Continuous
370
    15
100
AcDbCircle
 10
5.1074465162
 20
11.5984260102
 30
0.0
 40
0.3209157958774103
100
AcDbArc
 50
179.9973063466
 51
181.5892242823
  0
LINE
  5
459
330
1F
100
AcDbEntity
  8
SLD-0
  6
Continuous
370
    15
100
AcDbLine
 10
20.9217807551
 20
11.5984410974
 30
0.0
 11
4.7865307207
 21
11.5984410974
 31
0.0
  0
ARC
  5
45A
330
1F
100
AcDbEntity
  8
SLD-0
  6
Continuous
370
    15
100
AcDbCircle
 10
21.0130267623
 20
11.5824080632
 30
0.0
 40
0.0926438990169028
100
AcDbArc
 50
170.0341672534
 51
213.3765122848
  0
LINE
  5
45B
330
1F
100
AcDbEntity
  8
SLD-0
  6
Continuous
370
    15
100
AcDbLine
 10
20.9217807551
 20
11.5984410974
 30
0.0
 11
20.9217807551
 21
12.5674411243
 31
0.0
  0
LINE
  5
45C
330
1F
100
AcDbEntity
  8
SLD-0
  6
Continuous
370
    15
100
AcDbLine
 10
4.7865307207
 20
12.5674411243
 30
0.0
 11
4.7865307207
 21
11.5984410974
 31
0.0
  0
LINE
  5
45D
330
1F
100
AcDbEntity
  8
SLD-0
  6
Continuous
370
    15
100
AcDbLine
 10
20.9217807551
 20
12.5674411243
 30
0.0
 11
4.7865307207
 21
12.5674411243
 31
0.0
  0
ARC
  5
45E
330
1F
100
AcDbEntity
  8
SLD-0
  6
Continuous
370
    15
100
AcDbCircle
 10
20.9714521331
 20
11.5910215934
 30
0.0
 40
0.0428596699390034
100
AcDbArc
 50
170.0312191281
 51
213.3792846501
  0
LINE
  5
45F
330
1F
100
AcDbEntity
  8
SLD-0
  6
Continuous
370
    15
100
AcDbLine
 10
20.9356623014
 20
11.5314410914
 30
0.0
 11
20.9356623014
 21
11.5674411089
 31
0.0
  0
LINE
  5
460
330
1F
100
AcDbEntity
  8
SLD-0
  6
Continuous
370
    15
100
AcDbLine
 10
20.9292395489
 20
11.5984410974
 30
0.0
 11
20.9217807551
 21
11.5984410974
 31
0.0
  0
LINE
  5
461
330
1F
100
AcDbEntity
  8
SLD-0
  6
Continuous
370
    15
100
AcDbLine
 10
20.9292395489
 20
11.5984410974
 30
0.0
 11
20.9292395489
 21
12.5674411243
 31
0.0
  0
LINE
  5
462
330
1F
100
AcDbEntity
  8
SLD-0
  6
Continuous
370
    15
100
AcDbLine
 10
20.9217807551
 20
12.5674411243
 30
0.0
 11
20.9292395489
 21
12.5674411243
 31
0.0
  0
LINE
  5
463
330
1F
100
AcDbEntity
  8
SLD-0
  6
Continuous
370
    15
100
AcDbLine
 10
20.9362747743
 20
11.5314410914
 30
0.0
 11
20.9362747743
 21
11.5674411089
 31
0.0
  0
LINE
  5
464
330
1F
100
AcDbEntity
  8
SLD-0
  6
Continuous
370
    15
100
AcDbLine
 10
20.9979069157
 20
11.5314410914
 30
0.0
 11
20.9362747743
 21
11.5314410914
 31
0.0
  0
LINE
  5
465
330
1F
100
AcDbEntity
  8
SLD-0
  6
Continuous
370
    15
100
AcDbLine
 10
20.9880885758
 20
11.5674411089
 30
0.0
 11
20.9362747743
 21
11.5674411089
 31
0.0
  0
LINE
  5
466
330
1F
100
AcDbEntity
  8
SLD-0
  6
Continuous
370
    15
100
AcDbLine
 10
23.9886427131
 20
12.5004411275
 30
0.0
 11
23.9886427131
 21
11.5984410974
 31
0.0
  0
LINE
  5
467
330
1F
100
AcDbEntity
  8
SLD-0
  6
Continuous
370
    15
100
AcDbLine
 10
23.9526429156
 20
11.5984410974
 30
0.0
 11
23.9886427131
 21
11.5984410974
 31
0.0
  0
LINE
  5
468
330
1F
100
AcDbEntity
  8
SLD-0
  6
Continuous
370
    15
100
AcDbLine
 10
23.9526429156
 20
12.5004411275
 30
0.0
 11
23.9526429156
 21
11.5984410974
 31
0.0
  0
LINE
  5
469
330
1F
100
AcDbEntity
  8
SLD-0
  6
Continuous
370
    15
100
AcDbLine
 10
23.9526429156
 20
12.5004411275
 30
0.0
 11
23.9886427131
 21
12.5004411275
 31
0.0
  0
ARC
  5
46A
330
1F
100
AcDbEntity
  8
SLD-0
  6
Continuous
370
    15
100
AcDbCircle
 10
23.9216426829
 20
12.5004411246
 30
0.0
 40
0.0670000000000019
100
AcDbArc
 50
0.0
 51
90.0
  0
ARC
  5
46B
330
1F
100
AcDbEntity
  8
SLD-0
  6
Continuous
370
    15
100
AcDbCircle
 10
23.9216426829
 20
12.5004411246
 30
0.0
 40
0.0310000000000024
100
AcDbArc
 50
0.0
 51
90.0
  0
ARC
  5
46C
330
1F
100
AcDbEntity
  8
SLD-0
  6
Continuous
370
    15
100
AcDbCircle
 10
23.9216426829
 20
11.5984411246
 30
0.0
 40
0.0670000000000002
100
AcDbArc
 50
270.0
 51
0.0
  0
ARC
  5
46D
330
1F
100
AcDbEntity
  8
SLD-0
  6
Continuous
370
    15
100
AcDbCircle
 10
23.9216426829
 20
11.5984411246
 30
0.0
 40
0.0309999999999988
100
AcDbArc
 50
270.0
 51
0.0
  0
LINE
  5
46E
330
1F
100
AcDbEntity
  8
SLD-0
  6
Continuous
370
    15
100
AcDbLine
 10
20.9362747743
 20
11.5314410914
 30
0.0
 11
20.9356623014
 21
11.5314410914
 31
0.0
  0
LINE
  5
46F
330
1F
100
AcDbEntity
  8
SLD-0
  6
Continuous
370
    15
100
AcDbLine
 10
20.9362747743
 20
11.5674411089
 30
0.0
 11
20.9356623014
 21
11.5674411089
 31
0.0
  0
ARC
  5
470
330
1F
100
AcDbEntity
  8
SLD-0
  6
Continuous
370
    15
100
AcDbCircle
 10
4.7876426829
 20
11.5984411246
 30
0.0
 40
0.0309999999999997
100
AcDbArc
 50
180.0
 51
265.1467149591
  0
ARC
  5
471
330
1F
100
AcDbEntity
  8
SLD-0
  6
Continuous
370
    15
100
AcDbCircle
 10
4.7876426829
 20
11.5984411246
 30
0.0
 40
0.0670000000000011
100
AcDbArc
 50
180.0
 51
270.0
  0
LINE
  5
472
330
1F
100
AcDbEntity
  8
SLD-0
  6
Continuous
370
    15
100
AcDbLine
 10
4.7566426841
 20
11.5984410974
 30
0.0
 11
4.7206426803
 21
11.5984410974
 31
0.0
  0
LINE
  5
473
330
1F
100
AcDbEntity
  8
SLD-0
  6
Continuous
370
    15
100
AcDbLine
 10
4.7566426841
 20
11.5984410974
 30
0.0
 11
4.7566426841
 21
12.5674411243
 31
0.0
  0
LINE
  5
474
330
1F
100
AcDbEntity
  8
SLD-0
  6
Continuous
370
    15
100
AcDbLine
 10
4.7206426803
 20
12.5674411243
 30
0.0
 11
4.7566426841
 21
12.5674411243
 31
0.0
  0
LINE
  5
475
330
1F
100
AcDbEntity
  8
SLD-0
  6
Continuous
370
    15
100
AcDbLine
 10
4.7206426803
 20
11.5984410974
 30
0.0
 11
4.7206426803
 21
12.5674411243
 31
0.0
  0
LWPOLYLINE
  5
476
330
1F
100
AcDbEntity
  8
SLD-0
  6
Continuous
370
    15
100
AcDbPolyline
 90
        9
 70
   128
 43
0.0
 10
24.4533629979
 20
42.8943468378
 10
24.4595569531
 20
42.9005396196
 10
24.4655127243
 20
42.9064953908
 10
24.4710015142
 20
42.9119865274
 10
24.4758132986
 20
42.9167971385
 10
24.4797615197
 20
42.9207441862
 10
24.4826959924
 20
42.9236798323
 10
24.4845017316
 20
42.9254867447
 10
24.4851118578
 20
42.9260945244
  0
LINE
  5
477
330
1F
100
AcDbEntity
  8
SLD-0
  6
Continuous
370
    15
100
AcDbLine
 10
24.4851118578
 20
42.9260945244
 30
0.0
 11
26.6020388696
 21
40.8091698593
 31
0.0
  0
SPLINE
  5
478
330
1F
100
AcDbEntity
  8
SLD-0
  6
Continuous
370
    15
100
AcDbSpline
210
0.0
220
0.0
230
1.0
 70
     8
 71
     3
 72
    11
 73
     7
 74
     0
 42
0.00000001
 43
0.00000001
 12
1.0
 22
0.0
 32
0.0
 13
1.0
 23
0.0
 33
0.0
 40
0.0
 40
0.0
 40
0.0
 40
0.0
 40
0.2582634593861957
 40
0.5167414318933885
 40
0.7751966606334798
 40
1.0
 40
1.0
 40
1.0
 40
1.0
 10
26.6020388695923
 20
40.80916985928258
 30
0.0
 10
26.59866390875504
 20
40.81152401258101
 30
0.0
 10
26.59191118384469
 20
40.81623427453296
 30
0.0
 10
26.57549027447273
 20
40.81700639139238
 30
0.0
 10
26.5566356368384
 20
40.81461428878179
 30
0.0
 10
26.54324975124306
 20
40.81193305225242
 30
0.0
 10
26.53702287399597
 20
40.81068578843711
 30
0.0
  0
LINE
  5
479
330
1F
100
AcDbEntity
  8
SLD-0
  6
Continuous
370
    15
100
AcDbLine
 10
24.4533629979
 20
42.8943468378
 30
0.0
 11
26.537022874
 21
40.8106857884
 31
0.0
  0
SPLINE
  5
47A
330
1F
100
AcDbEntity
  8
SLD-0
  6
Continuous
370
    15
100
AcDbSpline
210
0.0
220
0.0
230
1.0
 70
     8
 71
     3
 72
     9
 73
     5
 74
     0
 42
0.00000001
 43
0.00000001
 12
1.0
 22
0.0
 32
0.0
 13
1.0
 23
0.0
 33
0.0
 40
0.0
 40
0.0
 40
0.0
 40
0.0
 40
0.4999655832446803
 40
1.0
 40
1.0
 40
1.0
 40
1.0
 10
26.58089564717395
 20
40.78802663686424
 30
0.0
 10
26.57468261687188
 20
40.79290146900434
 30
0.0
 10
26.56225570087948
 20
40.80265180443433
 30
0.0
 10
26.5454342022514
 20
40.80800767088182
 30
0.0
 10
26.53702287399597
 20
40.81068578843711
 30
0.0
  0
LINE
  5
47B
330
1F
100
AcDbEntity
  8
SLD-0
  6
Continuous
370
    15
100
AcDbLine
 10
26.5808956472
 20
40.7880266369
 30
0.0
 11
26.6020388696
 21
40.8091698593
 31
0.0
  0
LINE
  5
47C
330
1F
100
AcDbEntity
  8
SLD-0
  6
Continuous
370
    15
100
AcDbLine
 10
23.9886427131
 20
42.8943468378
 30
0.0
 11
24.4533629979
 21
42.8943468378
 31
0.0
  0
LINE
  5
47D
330
1F
100
AcDbEntity
  8
SLD-0
  6
Continuous
370
    15
100
AcDbLine
 10
23.9886427131
 20
40.8106857884
 30
0.0
 11
26.537022874
 21
40.8106857884
 31
0.0
  0
LINE
  5
47E
330
1F
100
AcDbEntity
  8
SLD-0
  6
Continuous
370
    15
100
AcDbLine
 10
26.5569693102
 20
40.7641002999
 30
0.0
 11
26.5781125327
 21
40.7852411757
 31
0.0
  0
SPLINE
  5
47F
330
1F
100
AcDbEntity
  8
SLD-0
  6
Continuous
370
    15
100
AcDbSpline
210
0.0
220
0.0
230
1.0
 70
     8
 71
     3
 72
     9
 73
     5
 74
     0
 42
0.00000001
 43
0.00000001
 12
1.0
 22
0.0
 32
0.0
 13
1.0
 23
0.0
 33
0.0
 40
0.0
 40
0.0
 40
0.0
 40
0.0
 40
0.4999977123460988
 40
1.0
 40
1.0
 40
1.0
 40
1.0
 10
26.57811253265806
 20
40.78524117570879
 30
0.0
 10
26.57927216264522
 20
40.7850090571319
 30
0.0
 10
26.5815914332309
 20
40.78454481785408
 30
0.0
 10
26.58112757656702
 20
40.78686602698743
 30
0.0
 10
26.58089564717395
 20
40.78802663686423
 30
0.0
  0
SPLINE
  5
480
330
1F
100
AcDbEntity
  8
SLD-0
  6
Continuous
370
    15
100
AcDbSpline
210
0.0
220
0.0
230
1.0
 70
     8
 71
     3
 72
    15
 73
    11
 74
     0
 42
0.00000001
 43
0.00000001
 12
1.0
 22
0.0
 32
0.0
 13
1.0
 23
0.0
 33
0.0
 40
0.0
 40
0.0
 40
0.0
 40
0.0
 40
0.1250090916943575
 40
0.2500049027036541
 40
0.3750007137129506
 40
0.4999999999999999
 40
0.6250090916943575
 40
0.750004902703654
 40
0.8750007137129507
 40
1.0
 40
1.0
 40
1.0
 40
1.0
 10
26.5569693102397
 20
40.76410029992999
 30
0.0
 10
26.56025744424725
 20
40.76148965313627
 30
0.0
 10
26.56683336293838
 20
40.75626863689808
 30
0.0
 10
26.57954606438537
 20
40.75397716564463
 30
0.0
 10
26.59200658427419
 20
40.75641501087666
 30
0.0
 10
26.60262607901493
 20
40.76351404423227
 30
0.0
 10
26.60972378568523
 20
40.77413192291088
 30
0.0
 10
26.61216204055094
 20
40.78659324396726
 30
0.0
 10
26.60987075505142
 20
40.79930525534922
 30
0.0
 10
26.60464952227279
 20
40.8058816274979
 30
0.0
 10
26.60203886959231
 20
40.8091698592826
 30
0.0
  0
LINE
  5
481
330
1F
100
AcDbEntity
  8
SLD-0
  6
Continuous
370
    15
100
AcDbLine
 10
23.9886427131
 20
42.9392474391
 30
0.0
 11
24.4533629979
 21
42.9392474391
 31
0.0
  0
LINE
  5
482
330
1F
100
AcDbEntity
  8
SLD-0
  6
Continuous
370
    15
100
AcDbLine
 10
24.4533629979
 20
42.9093465579
 30
0.0
 11
24.4533629979
 21
42.9392474391
 31
0.0
  0
LINE
  5
483
330
1F
100
AcDbEntity
  8
SLD-0
  6
Continuous
370
    15
100
AcDbLine
 10
23.9886427131
 20
42.9093465579
 30
0.0
 11
24.4533629979
 21
42.9093465579
 31
0.0
  0
ARC
  5
484
330
1F
100
AcDbEntity
  8
SLD-0
  6
Continuous
370
    15
100
AcDbCircle
 10
24.4533631337
 20
42.8943465539
 30
0.0
 40
0.0448999999999989
100
AcDbArc
 50
45.0
 51
90.0
  0
ARC
  5
485
330
1F
100
AcDbEntity
  8
SLD-0
  6
Continuous
370
    15
100
AcDbCircle
 10
24.4533631337
 20
42.8943465539
 30
0.0
 40
0.0150000000000006
100
AcDbArc
 50
45.0
 51
90.0
  0
LINE
  5
486
330
1F
100
AcDbEntity
  8
SLD-0
  6
Continuous
370
    15
100
AcDbLine
 10
26.5781125327
 20
40.7852411757
 30
0.0
 11
26.5632066782
 21
40.8001470302
 31
0.0
  0
LINE
  5
487
330
1F
100
AcDbEntity
  8
SLD-0
  6
Continuous
370
    15
100
AcDbLine
 10
26.5569693102
 20
40.7641002999
 30
0.0
 11
26.5103838217
 21
40.8106857884
 31
0.0
  0
LINE
  5
488
330
1F
100
AcDbEntity
  8
SLD-0
  6
Continuous
370
    15
100
AcDbLine
 10
23.1529679936
 20
18.653740894
 30
0.0
 11
23.1529679936
 21
21.7787408471
 31
0.0
  0
LINE
  5
489
330
1F
100
AcDbEntity
  8
SLD-0
  6
Continuous
370
    15
100
AcDbLine
 10
23.1529679936
 20
21.7787408471
 30
0.0
 11
23.2009673324
 21
21.7787408471
 31
0.0
  0
LINE
  5
48A
330
1F
100
AcDbEntity
  8
SLD-0
  6
Continuous
370
    15
100
AcDbLine
 10
23.2009673324
 20
18.653740894
 30
0.0
 11
23.2009673324
 21
21.7787408471
 31
0.0
  0
LINE
  5
48B
330
1F
100
AcDbEntity
  8
SLD-0
  6
Continuous
370
    15
100
AcDbLine
 10
23.1529679936
 20
18.653740894
 30
0.0
 11
23.2009673324
 21
18.653740894
 31
0.0
  0
LINE
  5
48C
330
1F
100
AcDbEntity
  8
SLD-0
  6
Continuous
370
    15
100
AcDbLine
 10
23.1379671002
 20
21.7787408471
 30
0.0
 11
23.1379671002
 21
18.653740894
 31
0.0
  0
LINE
  5
48D
330
1F
100
AcDbEntity
  8
SLD-0
  6
Continuous
370
    15
100
AcDbLine
 10
23.1379671002
 20
21.7787408471
 30
0.0
 11
23.1529679936
 21
21.7787408471
 31
0.0
  0
LINE
  5
48E
330
1F
100
AcDbEntity
  8
SLD-0
  6
Continuous
370
    15
100
AcDbLine
 10
23.1529679936
 20
18.653740894
 30
0.0
 11
23.1379671002
 21
18.653740894
 31
0.0
  0
LINE
  5
48F
330
1F
100
AcDbEntity
  8
SLD-0
  6
Continuous
370
    15
100
AcDbLine
 10
23.1379671002
 20
18.653740894
 30
0.0
 11
21.560342445
 21
18.653740894
 31
0.0
  0
LINE
  5
490
330
1F
100
AcDbEntity
  8
SLD-0
  6
Continuous
370
    15
100
AcDbLine
 10
21.560342445
 20
18.653740894
 30
0.0
 11
21.560342445
 21
21.7787408471
 31
0.0
  0
LINE
  5
491
330
1F
100
AcDbEntity
  8
SLD-0
  6
Continuous
370
    15
100
AcDbLine
 10
23.1379671002
 20
21.7787408471
 30
0.0
 11
21.560342445
 21
21.7787408471
 31
0.0
  0
LINE
  5
492
330
1F
100
AcDbEntity
  8
SLD-0
  6
Continuous
370
    15
100
AcDbLine
 10
23.1529679936
 20
38.5667422173
 30
0.0
 11
23.1529679936
 21
41.6917409971
 31
0.0
  0
LINE
  5
493
330
1F
100
AcDbEntity
  8
SLD-0
  6
Continuous
370
    15
100
AcDbLine
 10
23.2009673324
 20
38.5667422173
 30
0.0
 11
23.2009673324
 21
41.6917409971
 31
0.0
  0
LINE
  5
494
330
1F
100
AcDbEntity
  8
SLD-0
  6
Continuous
370
    15
100
AcDbLine
 10
23.1529679936
 20
38.5667422173
 30
0.0
 11
23.2009673324
 21
38.5667422173
 31
0.0
  0
LINE
  5
495
330
1F
100
AcDbEntity
  8
SLD-0
  6
Continuous
370
    15
100
AcDbLine
 10
23.1529679936
 20
41.6917409971
 30
0.0
 11
23.2009673324
 21
41.6917409971
 31
0.0
  0
LINE
  5
496
330
1F
100
AcDbEntity
  8
SLD-0
  6
Continuous
370
    15
100
AcDbLine
 10
23.1529679936
 20
38.5667422173
 30
0.0
 11
23.1379671002
 21
38.5667422173
 31
0.0
  0
LINE
  5
497
330
1F
100
AcDbEntity
  8
SLD-0
  6
Continuous
370
    15
100
AcDbLine
 10
23.1379671002
 20
41.6917409971
 30
0.0
 11
23.1379671002
 21
38.5667422173
 31
0.0
  0
LINE
  5
498
330
1F
100
AcDbEntity
  8
SLD-0
  6
Continuous
370
    15
100
AcDbLine
 10
23.1379671002
 20
41.6917409971
 30
0.0
 11
23.1529679936
 21
41.6917409971
 31
0.0
  0
LINE
  5
499
330
1F
100
AcDbEntity
  8
SLD-0
  6
Continuous
370
    15
100
AcDbLine
 10
23.1379671002
 20
38.5667422173
 30
0.0
 11
21.560342445
 21
38.5667422173
 31
0.0
  0
LINE
  5
49A
330
1F
100
AcDbEntity
  8
SLD-0
  6
Continuous
370
    15
100
AcDbLine
 10
21.560342445
 20
38.5667422173
 30
0.0
 11
21.560342445
 21
41.6917409971
 31
0.0
  0
LINE
  5
49B
330
1F
100
AcDbEntity
  8
SLD-0
  6
Continuous
370
    15
100
AcDbLine
 10
23.1379671002
 20
41.6917409971
 30
0.0
 11
21.560342445
 21
41.6917409971
 31
0.0
  0
SPLINE
  5
49C
330
1F
100
AcDbEntity
  8
SLD-0
  6
Continuous
370
    15
100
AcDbSpline
210
0.0
220
0.0
230
1.0
 70
     8
 71
     3
 72
    11
 73
     7
 74
     0
 42
0.00000001
 43
0.00000001
 12
1.0
 22
0.0
 32
0.0
 13
1.0
 23
0.0
 33
0.0
 40
0.0
 40
0.0
 40
0.0
 40
0.0
 40
0.2500039819398441
 40
0.5000054576041462
 40
0.7500022452690907
 40
1.0
 40
1.0
 40
1.0
 40
1.0
 10
23.98864271310104
 20
13.06976653723686
 30
0.0
 10
23.98767167609073
 20
13.07527582441617
 30
0.0
 10
23.9857296118047
 20
13.08629434354449
 30
0.0
 10
23.97079112128857
 20
13.10282219649219
 30
0.0
 10
23.9494372694734
 20
13.11935030562924
 30
0.0
 10
23.93250793142329
 20
13.13036889044545
 30
0.0
 10
23.92404324602627
 20
13.13587819350936
 30
0.0
  0
LINE
  5
49D
330
1F
100
AcDbEntity
  8
SLD-0
  6
Continuous
370
    15
100
AcDbLine
 10
23.924043246
 20
46.7690030908
 30
0.0
 11
23.924043246
 21
13.1358781935
 31
0.0
  0
SPLINE
  5
49E
330
1F
100
AcDbEntity
  8
SLD-0
  6
Continuous
370
    15
100
AcDbSpline
210
0.0
220
0.0
230
1.0
 70
     8
 71
     3
 72
    11
 73
     7
 74
     0
 42
0.00000001
 43
0.00000001
 12
1.0
 22
0.0
 32
0.0
 13
1.0
 23
0.0
 33
0.0
 40
0.0
 40
0.0
 40
0.0
 40
0.0
 40
0.2500056762961815
 40
0.4999998789945847
 40
0.7499986029667137
 40
1.0
 40
1.0
 40
1.0
 40
1.0
 10
23.92404324602627
 20
46.76900309078052
 30
0.0
 10
23.93250785270483
 20
46.77451313619599
 30
0.0
 10
23.94943667759281
 20
46.78553297415249
 30
0.0
 10
23.97079119200456
 20
46.8020602612181
 30
0.0
 10
23.98572959676958
 20
46.81858769788946
 30
0.0
 10
23.98767167086303
 20
46.82960585769533
 30
0.0
 10
23.98864271310104
 20
46.83511496705049
 30
0.0
  0
LINE
  5
49F
330
1F
100
AcDbEntity
  8
SLD-0
  6
Continuous
370
    15
100
AcDbLine
 10
23.9886427131
 20
13.0697665372
 30
0.0
 11
23.9886427131
 21
46.8351149671
 31
0.0
  0
LINE
  5
4A0
330
1F
100
AcDbEntity
  8
SLD-0
  6
Continuous
370
    15
100
AcDbLine
 10
23.9550423546
 20
13.0697665372
 30
0.0
 11
23.9886427131
 21
13.0697665372
 31
0.0
  0
SPLINE
  5
4A1
330
1F
100
AcDbEntity
  8
SLD-0
  6
Continuous
370
    15
100
AcDbSpline
210
0.0
220
0.0
230
1.0
 70
     8
 71
     3
 72
    11
 73
     7
 74
     0
 42
0.00000001
 43
0.00000001
 12
1.0
 22
0.0
 32
0.0
 13
1.0
 23
0.0
 33
0.0
 40
0.0
 40
0.0
 40
0.0
 40
0.0
 40
0.249994648513892
 40
0.4999984751918723
 40
0.7500066399268115
 40
1.0
 40
1.0
 40
1.0
 40
1.0
 10
23.95504235458859
 20
13.06976653723686
 30
0.0
 10
23.95457637676977
 20
13.07527587297201
 30
0.0
 10
23.95364440402449
 20
13.08629474670897
 30
0.0
 10
23.94647647204666
 20
13.10282258519396
 30
0.0
 10
23.93622870662164
 20
13.11934964994476
 30
0.0
 10
23.92810498604568
 20
13.1303687877439
 30
0.0
 10
23.92404324602627
 20
13.13587819350936
 30
0.0
  0
SPLINE
  5
4A2
330
1F
100
AcDbEntity
  8
SLD-0
  6
Continuous
370
    15
100
AcDbSpline
210
0.0
220
0.0
230
1.0
 70
     8
 71
     3
 72
    11
 73
     7
 74
     0
 42
0.00000001
 43
0.00000001
 12
1.0
 22
0.0
 32
0.0
 13
1.0
 23
0.0
 33
0.0
 40
0.0
 40
0.0
 40
0.0
 40
0.0
 40
0.2500105166547634
 40
0.5000130830303519
 40
0.7500109500895339
 40
1.0
 40
1.0
 40
1.0
 40
1.0
 10
23.92404324602627
 20
46.76900309078052
 30
0.0
 10
23.92810490422929
 20
46.77451316698697
 30
0.0
 10
23.93622809147552
 20
46.78553314418064
 30
0.0
 10
23.94647654552829
 20
46.80205992148855
 30
0.0
 10
23.9536443883973
 20
46.8185872889058
 30
0.0
 10
23.95457637133659
 20
46.82960580577189
 30
0.0
 10
23.95504235458859
 20
46.83511496705049
 30
0.0
  0
LINE
  5
4A3
330
1F
100
AcDbEntity
  8
SLD-0
  6
Continuous
370
    15
100
AcDbLine
 10
23.9550423546
 20
46.8351149671
 30
0.0
 11
23.9886427131
 21
46.8351149671
 31
0.0
  0
LINE
  5
4A4
330
1F
100
AcDbEntity
  8
SLD-0
  6
Continuous
370
    15
100
AcDbLine
 10
23.2386426305
 20
18.0428413912
 30
0.0
 11
23.2386426305
 21
13.8212781857
 31
0.0
  0
LINE
  5
4A5
330
1F
100
AcDbEntity
  8
SLD-0
  6
Continuous
370
    15
100
AcDbLine
 10
23.2386426305
 20
18.0428413912
 30
0.0
 11
23.676642904
 21
18.0428413912
 31
0.0
  0
LINE
  5
4A6
330
1F
100
AcDbEntity
  8
SLD-0
  6
Continuous
370
    15
100
AcDbLine
 10
23.676642904
 20
18.0428413912
 30
0.0
 11
23.676642904
 21
21.9178408402
 31
0.0
  0
LINE
  5
4A7
330
1F
100
AcDbEntity
  8
SLD-0
  6
Continuous
370
    15
100
AcDbLine
 10
23.676642904
 20
21.9178408402
 30
0.0
 11
23.2386426305
 21
21.9178408402
 31
0.0
  0
LINE
  5
4A8
330
1F
100
AcDbEntity
  8
SLD-0
  6
Continuous
370
    15
100
AcDbLine
 10
23.2386426305
 20
37.9068413606
 30
0.0
 11
23.2386426305
 21
21.9178408402
 31
0.0
  0
LINE
  5
4A9
330
1F
100
AcDbEntity
  8
SLD-0
  6
Continuous
370
    15
100
AcDbLine
 10
23.2386426305
 20
37.9068413606
 30
0.0
 11
23.676642904
 21
37.9068413606
 31
0.0
  0
LINE
  5
4AA
330
1F
100
AcDbEntity
  8
SLD-0
  6
Continuous
370
    15
100
AcDbLine
 10
23.676642904
 20
37.9068413606
 30
0.0
 11
23.676642904
 21
41.7818402229
 31
0.0
  0
LINE
  5
4AB
330
1F
100
AcDbEntity
  8
SLD-0
  6
Continuous
370
    15
100
AcDbLine
 10
23.676642904
 20
41.7818402229
 30
0.0
 11
23.2386426305
 21
41.7818402229
 31
0.0
  0
LINE
  5
4AC
330
1F
100
AcDbEntity
  8
SLD-0
  6
Continuous
370
    15
100
AcDbLine
 10
23.2386426305
 20
46.0836036486
 30
0.0
 11
23.2386426305
 21
41.7818402229
 31
0.0
  0
LINE
  5
4AD
330
1F
100
AcDbEntity
  8
SLD-0
  6
Continuous
370
    15
100
AcDbLine
 10
23.2386426305
 20
46.0836036486
 30
0.0
 11
23.924043246
 21
46.7690030908
 31
0.0
  0
LINE
  5
4AE
330
1F
100
AcDbEntity
  8
SLD-0
  6
Continuous
370
    15
100
AcDbLine
 10
23.924043246
 20
13.1358781935
 30
0.0
 11
23.2386426305
 21
13.8212781857
 31
0.0
  0
LINE
  5
4AF
330
1F
100
AcDbEntity
  8
SLD-0
  6
Continuous
370
    15
100
AcDbLine
 10
23.9550423546
 20
46.8352276057
 30
0.0
 11
23.9550423546
 21
46.8351149671
 31
0.0
  0
LINE
  5
4B0
330
1F
100
AcDbEntity
  8
SLD-0
  6
Continuous
370
    15
100
AcDbLine
 10
23.9550423546
 20
46.8352276057
 30
0.0
 11
23.9886427131
 21
46.8352276057
 31
0.0
  0
LINE
  5
4B1
330
1F
100
AcDbEntity
  8
SLD-0
  6
Continuous
370
    15
100
AcDbLine
 10
23.9886427131
 20
46.8352276057
 30
0.0
 11
23.9886427131
 21
46.8351149671
 31
0.0
  0
LINE
  5
4B2
330
1F
100
AcDbEntity
  8
SLD-0
  6
Continuous
370
    15
100
AcDbLine
 10
23.9550423546
 20
13.0696538252
 30
0.0
 11
23.9886427131
 21
13.0696538252
 31
0.0
  0
LINE
  5
4B3
330
1F
100
AcDbEntity
  8
SLD-0
  6
Continuous
370
    15
100
AcDbLine
 10
23.9550423546
 20
13.0697665372
 30
0.0
 11
23.9550423546
 21
13.0696538252
 31
0.0
  0
LINE
  5
4B4
330
1F
100
AcDbEntity
  8
SLD-0
  6
Continuous
370
    15
100
AcDbLine
 10
23.9886427131
 20
13.0697665372
 30
0.0
 11
23.9886427131
 21
13.0696538252
 31
0.0
  0
ARC
  5
4B5
330
1F
100
AcDbEntity
  8
SLD-0
  6
Continuous
370
    15
100
AcDbCircle
 10
23.9240426829
 20
12.6320411246
 30
0.0
 40
0.0309999999999953
100
AcDbArc
 50
270.0
 51
0.0
  0
LINE
  5
4B6
330
1F
100
AcDbEntity
  8
SLD-0
  6
Continuous
370
    15
100
AcDbLine
 10
23.9550423546
 20
12.6320411248
 30
0.0
 11
23.9886427131
 21
12.6320411248
 31
0.0
  0
ARC
  5
4B7
330
1F
100
AcDbEntity
  8
SLD-0
  6
Continuous
370
    15
100
AcDbCircle
 10
23.9240426829
 20
12.6320411246
 30
0.0
 40
0.0646000000000058
100
AcDbArc
 50
270.0
 51
0.0
  0
LINE
  5
4B8
330
1F
100
AcDbEntity
  8
SLD-0
  6
Continuous
370
    15
100
AcDbLine
 10
23.924043246
 20
12.6010411253
 30
0.0
 11
23.924043246
 21
12.5674411243
 31
0.0
  0
LINE
  5
4B9
330
1F
100
AcDbEntity
  8
SLD-0
  6
Continuous
370
    15
100
AcDbLine
 10
23.9550423546
 20
12.6320411248
 30
0.0
 11
23.9550423546
 21
13.0696538252
 31
0.0
  0
LINE
  5
4BA
330
1F
100
AcDbEntity
  8
SLD-0
  6
Continuous
370
    15
100
AcDbLine
 10
23.9886427131
 20
13.0696538252
 30
0.0
 11
23.9886427131
 21
12.6320411248
 31
0.0
  0
LINE
  5
4BB
330
1F
100
AcDbEntity
  8
SLD-0
  6
Continuous
370
    15
100
AcDbLine
 10
23.924043246
 20
47.3038421389
 30
0.0
 11
23.924043246
 21
47.3374413241
 31
0.0
  0
ARC
  5
4BC
330
1F
100
AcDbEntity
  8
SLD-0
  6
Continuous
370
    15
100
AcDbCircle
 10
23.9240426829
 20
47.2728411246
 30
0.0
 40
0.0645999999999951
100
AcDbArc
 50
0.0
 51
90.0
  0
LINE
  5
4BD
330
1F
100
AcDbEntity
  8
SLD-0
  6
Continuous
370
    15
100
AcDbLine
 10
23.9550423546
 20
47.2728406837
 30
0.0
 11
23.9886427131
 21
47.2728406837
 31
0.0
  0
ARC
  5
4BE
330
1F
100
AcDbEntity
  8
SLD-0
  6
Continuous
370
    15
100
AcDbCircle
 10
23.9240426829
 20
47.2728411246
 30
0.0
 40
0.0310000000000059
100
AcDbArc
 50
0.0
 51
90.0
  0
LINE
  5
4BF
330
1F
100
AcDbEntity
  8
SLD-0
  6
Continuous
370
    15
100
AcDbLine
 10
23.2386426305
 20
47.3038421389
 30
0.0
 11
23.2386426305
 21
47.3374413241
 31
0.0
  0
LINE
  5
4C0
330
1F
100
AcDbEntity
  8
SLD-0
  6
Continuous
370
    15
100
AcDbLine
 10
23.2386426305
 20
47.3374413241
 30
0.0
 11
23.924043246
 21
47.3374413241
 31
0.0
  0
LINE
  5
4C1
330
1F
100
AcDbEntity
  8
SLD-0
  6
Continuous
370
    15
100
AcDbLine
 10
23.2386426305
 20
47.3038421389
 30
0.0
 11
23.924043246
 21
47.3038421389
 31
0.0
  0
LINE
  5
4C2
330
1F
100
AcDbEntity
  8
SLD-0
  6
Continuous
370
    15
100
AcDbLine
 10
23.9216426338
 20
12.5674411243
 30
0.0
 11
23.924043246
 21
12.5674411243
 31
0.0
  0
LINE
  5
4C3
330
1F
100
AcDbEntity
  8
SLD-0
  6
Continuous
370
    15
100
AcDbLine
 10
23.2386426305
 20
12.6010411253
 30
0.0
 11
23.2386426305
 21
12.5674411243
 31
0.0
  0
LINE
  5
4C4
330
1F
100
AcDbEntity
  8
SLD-0
  6
Continuous
370
    15
100
AcDbLine
 10
23.2386426305
 20
12.6010411253
 30
0.0
 11
23.924043246
 21
12.6010411253
 31
0.0
  0
LINE
  5
4C5
330
1F
100
AcDbEntity
  8
SLD-0
  6
Continuous
370
    15
100
AcDbLine
 10
23.9550423546
 20
46.8352276057
 30
0.0
 11
23.9550423546
 21
47.2728406837
 31
0.0
  0
LINE
  5
4C6
330
1F
100
AcDbEntity
  8
SLD-0
  6
Continuous
370
    15
100
AcDbLine
 10
23.9886427131
 20
47.2728406837
 30
0.0
 11
23.9886427131
 21
46.8352276057
 31
0.0
  0
LINE
  5
4C7
330
1F
100
AcDbEntity
  8
SLD-0
  6
Continuous
370
    15
100
AcDbLine
 10
21.4550428615
 20
12.5882236242
 30
0.0
 11
21.4550428615
 21
12.6010411253
 31
0.0
  0
LINE
  5
4C8
330
1F
100
AcDbEntity
  8
SLD-0
  6
Continuous
370
    15
100
AcDbLine
 10
21.4550428615
 20
12.6227411246
 30
0.0
 11
21.4550428615
 21
12.6278236245
 31
0.0
  0
LINE
  5
4C9
330
1F
100
AcDbEntity
  8
SLD-0
  6
Continuous
370
    15
100
AcDbLine
 10
21.4550428615
 20
12.5882236242
 30
0.0
 11
18.4550425311
 21
12.5882236242
 31
0.0
  0
LINE
  5
4CA
330
1F
100
AcDbEntity
  8
SLD-0
  6
Continuous
370
    15
100
AcDbLine
 10
18.4550425311
 20
12.5882236242
 30
0.0
 11
18.4550425311
 21
12.6010411253
 31
0.0
  0
LINE
  5
4CB
330
1F
100
AcDbEntity
  8
SLD-0
  6
Continuous
370
    15
100
AcDbLine
 10
21.4550428615
 20
12.6278236245
 30
0.0
 11
21.4353428224
 21
12.6278236245
 31
0.0
  0
LINE
  5
4CC
330
1F
100
AcDbEntity
  8
SLD-0
  6
Continuous
370
    15
100
AcDbLine
 10
21.016400782
 20
12.6278236245
 30
0.0
 11
20.9786292717
 21
12.6278236245
 31
0.0
  0
LINE
  5
4CD
330
1F
100
AcDbEntity
  8
SLD-0
  6
Continuous
370
    15
100
AcDbLine
 10
21.4550428615
 20
12.6278236245
 30
0.0
 11
21.4550428615
 21
12.6328236242
 31
0.0
  0
LINE
  5
4CE
330
1F
100
AcDbEntity
  8
SLD-0
  6
Continuous
370
    15
100
AcDbLine
 10
21.4550428615
 20
12.6328236242
 30
0.0
 11
21.4550428615
 21
12.6537411247
 31
0.0
  0
LINE
  5
4CF
330
1F
100
AcDbEntity
  8
SLD-0
  6
Continuous
370
    15
100
AcDbLine
 10
23.8844683432
 20
47.1926419302
 30
0.0
 11
23.8844683432
 21
47.1917408206
 31
0.0
  0
LINE
  5
4D0
330
1F
100
AcDbEntity
  8
SLD-0
  6
Continuous
370
    15
100
AcDbLine
 10
23.3870851823
 20
47.1926419302
 30
0.0
 11
23.8844683432
 21
47.1926419302
 31
0.0
  0
LINE
  5
4D1
330
1F
100
AcDbEntity
  8
SLD-0
  6
Continuous
370
    15
100
AcDbLine
 10
23.3777291304
 20
47.1926419302
 30
0.0
 11
23.3870851823
 21
47.1926419302
 31
0.0
  0
LINE
  5
4D2
330
1F
100
AcDbEntity
  8
SLD-0
  6
Continuous
370
    15
100
AcDbLine
 10
20.9519855262
 20
47.1926419302
 30
0.0
 11
21.054148826
 21
47.1926419302
 31
0.0
  0
LINE
  5
4D3
330
1F
100
AcDbEntity
  8
SLD-0
  6
Continuous
370
    15
100
AcDbLine
 10
21.4353428224
 20
47.1926419302
 30
0.0
 11
22.7483428012
 21
47.1926419302
 31
0.0
  0
LINE
  5
4D4
330
1F
100
AcDbEntity
  8
SLD-0
  6
Continuous
370
    15
100
AcDbLine
 10
23.1233428425
 20
47.1926419302
 30
0.0
 11
23.3777291304
 21
47.1926419302
 31
0.0
  0
LINE
  5
4D5
330
1F
100
AcDbEntity
  8
SLD-0
  6
Continuous
370
    15
100
AcDbLine
 10
4.7900426827
 20
47.1926419302
 30
0.0
 11
4.7900426827
 21
47.1917408206
 31
0.0
  0
LINE
  5
4D6
330
1F
100
AcDbEntity
  8
SLD-0
  6
Continuous
370
    15
100
AcDbLine
 10
4.7900426827
 20
47.1926419302
 30
0.0
 11
4.8200426837
 21
47.1926419302
 31
0.0
  0
LINE
  5
4D7
330
1F
100
AcDbEntity
  8
SLD-0
  6
Continuous
370
    15
100
AcDbLine
 10
4.8200426837
 20
47.1926419302
 30
0.0
 11
4.8200426837
 21
47.1917408206
 31
0.0
  0
LINE
  5
4D8
330
1F
100
AcDbEntity
  8
SLD-0
  6
Continuous
370
    15
100
AcDbLine
 10
4.8350426834
 20
47.1926419302
 30
0.0
 11
5.7897496083
 21
47.1926419302
 31
0.0
  0
LINE
  5
4D9
330
1F
100
AcDbEntity
  8
SLD-0
  6
Continuous
370
    15
100
AcDbLine
 10
4.8200426837
 20
47.1926419302
 30
0.0
 11
4.8350426834
 21
47.1926419302
 31
0.0
  0
LINE
  5
4DA
330
1F
100
AcDbEntity
  8
SLD-0
  6
Continuous
370
    15
100
AcDbLine
 10
13.1248584525
 20
13.7787410904
 30
0.0
 11
13.1248584525
 21
18.2787408527
 31
0.0
  0
LINE
  5
4DB
330
1F
100
AcDbEntity
  8
SLD-0
  6
Continuous
370
    15
100
AcDbLine
 10
13.1198753634
 20
13.7787410904
 30
0.0
 11
13.1198753634
 21
18.2787408527
 31
0.0
  0
LINE
  5
4DC
330
1F
100
AcDbEntity
  8
SLD-0
  6
Continuous
370
    15
100
AcDbLine
 10
13.1248584525
 20
13.7787410904
 30
0.0
 11
13.1198753634
 21
13.7787410904
 31
0.0
  0
LINE
  5
4DD
330
1F
100
AcDbEntity
  8
SLD-0
  6
Continuous
370
    15
100
AcDbLine
 10
13.1248584525
 20
18.2787408527
 30
0.0
 11
13.1198753634
 21
18.2787408527
 31
0.0
  0
LINE
  5
4DE
330
1F
100
AcDbEntity
  8
SLD-0
  6
Continuous
370
    15
100
AcDbLine
 10
12.814185668
 20
13.2787411331
 30
0.0
 11
12.814185668
 21
13.7787410904
 31
0.0
  0
LINE
  5
4DF
330
1F
100
AcDbEntity
  8
SLD-0
  6
Continuous
370
    15
100
AcDbLine
 10
7.0672205108
 20
13.2787411331
 30
0.0
 11
12.814185668
 21
13.2787411331
 31
0.0
  0
LINE
  5
4E0
330
1F
100
AcDbEntity
  8
SLD-0
  6
Continuous
370
    15
100
AcDbLine
 10
7.0672205108
 20
13.7787410904
 30
0.0
 11
7.0672205108
 21
13.2787411331
 31
0.0
  0
LINE
  5
4E1
330
1F
100
AcDbEntity
  8
SLD-0
  6
Continuous
370
    15
100
AcDbLine
 10
6.7615309622
 20
13.7787410904
 30
0.0
 11
7.0672205108
 21
13.7787410904
 31
0.0
  0
LINE
  5
4E2
330
1F
100
AcDbEntity
  8
SLD-0
  6
Continuous
370
    15
100
AcDbLine
 10
6.7615309622
 20
18.2787408527
 30
0.0
 11
6.7615309622
 21
13.7787410904
 31
0.0
  0
LWPOLYLINE
  5
4E3
330
1F
100
AcDbEntity
  8
SLD-0
  6
Continuous
370
    15
100
AcDbPolyline
 90
      108
 70
   128
 43
0.0
 10
10.7966341483
 20
15.278741109
 10
10.7951586987
 20
15.3300929158
 10
10.7907382164
 20
15.3812675512
 10
10.783387368
 20
15.4320887242
 10
10.7731313798
 20
15.4823813165
 10
10.7600054514
 20
15.5319719703
 10
10.744055929
 20
15.5806893808
 10
10.7253367853
 20
15.6283663501
 10
10.7039131394
 20
15.6748377332
 10
10.679858324
 20
15.7199439588
 10
10.653255058
 20
15.7635292687
 10
10.6241960337
 20
15.8054431845
 10
10.5927809832
 20
15.8455416812
 10
10.5591178521
 20
15.8836863073
 10
10.523322799
 20
15.9197453574
 10
10.4855190223
 20
15.953594753
 10
10.4458379341
 20
15.9851177489
 10
10.4044150526
 20
16.0142061062
 10
10.3613935229
 20
16.0407586261
 10
10.3169223566
 20
16.0646846697
 10
10.2711540854
 20
16.0859012246
 10
10.2242465206
 20
16.104335545
 10
10.1763615804
 20
16.1199236849
 10
10.1276641163
 20
16.1326122583
 10
10.078321913
 20
16.1423572657
 10
10.0285056885
 20
16.1491252676
 10
9.9783873341
 20
16.1528927974
 10
9.9281381546
 20
16.1536469487
 10
9.8779329746
 20
16.1513850814
 10
9.8279436854
 20
16.1461151157
 10
9.7783433517
 20
16.1378549444
 10
9.7293026915
 20
16.1266333141
 10
9.680990663
 20
16.1124889441
 10
9.6335738774
 20
16.0954705274
 10
9.5872160129
 20
16.0756364365
 10
9.5420766411
 20
16.053055604
 10
9.49831152
 20
16.0278051757
 10
9.4560711279
 20
15.9999728572
 10
9.4155015433
 20
15.9696539808
 10
9.376742391
 20
15.9369538519
 10
9.3399274296
 20
15.9019842292
 10
9.3051833777
 20
15.8648665513
 10
9.2726302071
 20
15.8257281235
 10
9.2423796765
 20
15.7847041707
 10
9.2145367982
 20
15.7419363714
 10
9.1891969042
 20
15.6975713906
 10
9.1664477004
 20
15.6517629331
 10
9.146367799
 20
15.6046685172
 10
9.1290258393
 20
15.5564503542
 10
9.114481954
 20
15.5072750556
 10
9.1027860091
 20
15.4573118728
 10
9.0939787775
 20
15.4067332837
 10
9.0880904722
 20
15.3557132331
 10
9.0851410396
 20
15.3044280122
 10
9.0851410396
 20
15.2530542057
 10
9.0880904722
 20
15.2017689848
 10
9.0939787775
 20
15.1507489342
 10
9.1027860091
 20
15.1001703452
 10
9.114481954
 20
15.0502071624
 10
9.1290258393
 20
15.0010318638
 10
9.146367799
 20
14.9528138474
 10
9.1664477004
 20
14.9057194315
 10
9.1891969042
 20
14.8599108273
 10
9.2145367982
 20
14.8155459932
 10
9.2423796765
 20
14.7727779006
 10
9.2726302071
 20
14.7317540945
 10
9.3051833777
 20
14.6926156666
 10
9.3399274296
 20
14.6554978421
 10
9.376742391
 20
14.6205285127
 10
9.4155015433
 20
14.5878280905
 10
9.4560711279
 20
14.5575095074
 10
9.49831152
 20
14.5296770422
 10
9.5420766411
 20
14.5044267606
 10
9.5872160129
 20
14.4818457814
 10
9.6335738774
 20
14.4620118372
 10
9.680990663
 20
14.4449932738
 10
9.7293026915
 20
14.4308489039
 10
9.7783433517
 20
14.4196272735
 10
9.8279436854
 20
14.411367249
 10
9.8779329746
 20
14.4060972832
 10
9.9281381546
 20
14.403835416
 10
9.9783873341
 20
14.4045895672
 10
10.0285056885
 20
14.4083570971
 10
10.078321913
 20
14.4151250989
 10
10.1276641163
 20
14.4248701063
 10
10.1763615804
 20
14.4375585331
 10
10.2242465206
 20
14.453146673
 10
10.2711540854
 20
14.4715808467
 10
10.3169223566
 20
14.4927975483
 10
10.3613935229
 20
14.5167234452
 10
10.4044150526
 20
14.5432762585
 10
10.4458379341
 20
14.5723643224
 10
10.4855190223
 20
14.6038874649
 10
10.523322799
 20
14.6377370072
 10
10.5591178521
 20
14.6737960574
 10
10.5927809832
 20
14.7119405367
 10
10.6241960337
 20
14.7520390335
 10
10.653255058
 20
14.793953096
 10
10.679858324
 20
14.8375382591
 10
10.7039131394
 20
14.8826443381
 10
10.7253367853
 20
14.9291160145
 10
10.744055929
 20
14.9767926904
 10
10.7600054514
 20
15.0255103943
 10
10.7731313798
 20
15.0751010481
 10
10.783387368
 20
15.1253934938
 10
10.7907382164
 20
15.17621496
 10
10.7951586987
 20
15.2273895955
 10
10.7966341483
 20
15.278741109
  0
LINE
  5
4E4
330
1F
100
AcDbEntity
  8
SLD-0
  6
Continuous
370
    15
100
AcDbLine
 10
12.814185668
 20
13.7787410904
 30
0.0
 11
13.1198753634
 21
13.7787410904
 31
0.0
  0
LINE
  5
4E5
330
1F
100
AcDbEntity
  8
SLD-0
  6
Continuous
370
    15
100
AcDbLine
 10
13.1198753634
 20
18.2787408527
 30
0.0
 11
6.7615309622
 21
18.2787408527
 31
0.0
  0
LINE
  5
4E6
330
1F
100
AcDbEntity
  8
SLD-0
  6
Continuous
370
    15
100
AcDbLine
 10
12.8191687572
 20
13.2787411331
 30
0.0
 11
12.814185668
 21
13.2787411331
 31
0.0
  0
LINE
  5
4E7
330
1F
100
AcDbEntity
  8
SLD-0
  6
Continuous
370
    15
100
AcDbLine
 10
12.8191687572
 20
13.2787411331
 30
0.0
 11
12.8191687572
 21
13.7787410904
 31
0.0
  0
LWPOLYLINE
  5
4E8
330
1F
100
AcDbEntity
  8
SLD-0
  6
Continuous
370
    15
100
AcDbPolyline
 90
       56
 70
   128
 43
0.0
 10
9.9431947806
 20
16.1537372943
 10
9.9331212437
 20
16.1536469487
 10
9.8829160637
 20
16.1513850814
 10
9.8329267745
 20
16.1461151157
 10
9.7833264408
 20
16.1378549444
 10
9.7342857806
 20
16.1266333141
 10
9.6859737521
 20
16.1124889441
 10
9.6385572598
 20
16.0954705274
 10
9.592199102
 20
16.0756364365
 10
9.5470597302
 20
16.053055604
 10
9.5032946091
 20
16.0278051757
 10
9.461054217
 20
15.9999728572
 10
9.4204846324
 20
15.9696539808
 10
9.3817254801
 20
15.9369538519
 10
9.3449105187
 20
15.9019842292
 10
9.3101664668
 20
15.8648665513
 10
9.2776132962
 20
15.8257281235
 10
9.247363059
 20
15.7847041707
 10
9.2195198873
 20
15.7419363714
 10
9.1941802867
 20
15.6975713906
 10
9.1714310828
 20
15.6517629331
 10
9.1513508881
 20
15.6046685172
 10
9.1340089284
 20
15.5564503542
 10
9.1194650431
 20
15.5072750556
 10
9.1077693916
 20
15.4573118728
 10
9.09896216
 20
15.4067332837
 10
9.0930735613
 20
15.3557132331
 10
9.0901244221
 20
15.3044280122
 10
9.0901244221
 20
15.2530542057
 10
9.0930735613
 20
15.2017689848
 10
9.09896216
 20
15.1507489342
 10
9.1077693916
 20
15.1001703452
 10
9.1194650431
 20
15.0502071624
 10
9.1340089284
 20
15.0010318638
 10
9.1513508881
 20
14.9528138474
 10
9.1714310828
 20
14.9057194315
 10
9.1941802867
 20
14.8599108273
 10
9.2195198873
 20
14.8155459932
 10
9.247363059
 20
14.7727779006
 10
9.2776132962
 20
14.7317540945
 10
9.3101664668
 20
14.6926156666
 10
9.3449105187
 20
14.6554978421
 10
9.3817254801
 20
14.6205285127
 10
9.4204846324
 20
14.5878280905
 10
9.461054217
 20
14.5575095074
 10
9.5032946091
 20
14.5296770422
 10
9.5470597302
 20
14.5044267606
 10
9.592199102
 20
14.4818457814
 10
9.6385572598
 20
14.4620118372
 10
9.6859737521
 20
14.4449932738
 10
9.7342857806
 20
14.4308489039
 10
9.7833264408
 20
14.4196272735
 10
9.8329267745
 20
14.411367249
 10
9.8829160637
 20
14.4060972832
 10
9.9331212437
 20
14.403835416
 10
9.9431947806
 20
14.403744777
  0
LINE
  5
4E9
330
1F
100
AcDbEntity
  8
SLD-0
  6
Continuous
370
    15
100
AcDbLine
 10
22.7483428012
 20
47.1951411013
 30
0.0
 11
21.4353428224
 21
47.1951411013
 31
0.0
  0
LINE
  5
4EA
330
1F
100
AcDbEntity
  8
SLD-0
  6
Continuous
370
    15
100
AcDbLine
 10
21.0509914224
 20
47.1951411013
 30
0.0
 11
20.9536786266
 21
47.1951411013
 31
0.0
  0
LINE
  5
4EB
330
1F
100
AcDbEntity
  8
SLD-0
  6
Continuous
370
    15
100
AcDbLine
 10
23.1343427154
 20
47.2227422758
 30
0.0
 11
23.1343427154
 21
47.1951411013
 31
0.0
  0
LINE
  5
4EC
330
1F
100
AcDbEntity
  8
SLD-0
  6
Continuous
370
    15
100
AcDbLine
 10
23.1343427154
 20
47.1951411013
 30
0.0
 11
23.1233428425
 21
47.1951411013
 31
0.0
  0
LINE
  5
4ED
330
1F
100
AcDbEntity
  8
SLD-0
  6
Continuous
370
    15
100
AcDbLine
 10
23.1343427154
 20
47.1926419302
 30
0.0
 11
23.1343427154
 21
47.1951411013
 31
0.0
  0
LINE
  5
4EE
330
1F
100
AcDbEntity
  8
SLD-0
  6
Continuous
370
    15
100
AcDbLine
 10
23.9269425192
 20
47.1801413813
 30
0.0
 11
23.899342518
 21
47.1801413813
 31
0.0
  0
LINE
  5
4EF
330
1F
100
AcDbEntity
  8
SLD-0
  6
Continuous
370
    15
100
AcDbLine
 10
23.9269425192
 20
47.1801413813
 30
0.0
 11
23.9269425192
 21
46.7730440041
 31
0.0
  0
LINE
  5
4F0
330
1F
100
AcDbEntity
  8
SLD-0
  6
Continuous
370
    15
100
AcDbLine
 10
23.899342518
 20
47.1801413813
 30
0.0
 11
23.899342518
 21
46.7443047094
 31
0.0
  0
LINE
  5
4F1
330
1F
100
AcDbEntity
  8
SLD-0
  6
Continuous
370
    15
100
AcDbLine
 10
6.3839427241
 20
47.2744410919
 30
0.0
 11
20.8839423655
 21
47.2744410919
 31
0.0
  0
LINE
  5
4F2
330
1F
100
AcDbEntity
  8
SLD-0
  6
Continuous
370
    15
100
AcDbLine
 10
20.8839423655
 20
47.2744410919
 30
0.0
 11
20.8839423655
 21
47.2444416518
 31
0.0
  0
LINE
  5
4F3
330
1F
100
AcDbEntity
  8
SLD-0
  6
Continuous
370
    15
100
AcDbLine
 10
6.3839427241
 20
47.2744410919
 30
0.0
 11
6.3839427241
 21
47.2444416518
 31
0.0
  0
LINE
  5
4F4
330
1F
100
AcDbEntity
  8
SLD-0
  6
Continuous
370
    15
100
AcDbLine
 10
6.3839427241
 20
47.281882286
 30
0.0
 11
6.3839427241
 21
47.2744410919
 31
0.0
  0
LINE
  5
4F5
330
1F
100
AcDbEntity
  8
SLD-0
  6
Continuous
370
    15
100
AcDbLine
 10
20.8839423655
 20
47.281882286
 30
0.0
 11
6.3839427241
 21
47.281882286
 31
0.0
  0
LINE
  5
4F6
330
1F
100
AcDbEntity
  8
SLD-0
  6
Continuous
370
    15
100
AcDbLine
 10
20.8839423655
 20
47.2744410919
 30
0.0
 11
20.8839423655
 21
47.281882286
 31
0.0
  0
ARC
  5
4F7
330
1F
100
AcDbEntity
  8
SLD-0
  6
Continuous
370
    15
100
AcDbCircle
 10
17.7589429991
 20
49.4254177302
 30
0.0
 40
0.1258714315885898
100
AcDbArc
 50
6.7451147892
 51
173.2548852108
  0
LINE
  5
4F8
330
1F
100
AcDbEntity
  8
SLD-0
  6
Continuous
370
    15
100
AcDbLine
 10
17.6339427898
 20
49.4402016729
 30
0.0
 11
17.6339427898
 21
48.5764224247
 31
0.0
  0
ARC
  5
4F9
330
1F
100
AcDbEntity
  8
SLD-0
  6
Continuous
370
    15
100
AcDbCircle
 10
17.7589429991
 20
48.591205452
 30
0.0
 40
0.1258713240874611
100
AcDbArc
 50
186.7447010348
 51
353.2552989652
  0
LINE
  5
4FA
330
1F
100
AcDbEntity
  8
SLD-0
  6
Continuous
370
    15
100
AcDbLine
 10
17.8839432084
 20
49.4402016729
 30
0.0
 11
17.8839432084
 21
48.5764224247
 31
0.0
  0
LINE
  5
4FB
330
1F
100
AcDbEntity
  8
SLD-0
  6
Continuous
370
    15
100
AcDbLine
 10
23.0089429907
 20
48.7595565224
 30
0.0
 11
20.8839423655
 21
48.7595565224
 31
0.0
  0
LINE
  5
4FC
330
1F
100
AcDbEntity
  8
SLD-0
  6
Continuous
370
    15
100
AcDbLine
 10
20.8839423655
 20
48.744441817
 30
0.0
 11
20.8839423655
 21
48.7595565224
 31
0.0
  0
LINE
  5
4FD
330
1F
100
AcDbEntity
  8
SLD-0
  6
Continuous
370
    15
100
AcDbLine
 10
20.8839423655
 20
48.744441817
 30
0.0
 11
20.8839423655
 21
47.281882286
 31
0.0
  0
LINE
  5
4FE
330
1F
100
AcDbEntity
  8
SLD-0
  6
Continuous
370
    15
100
AcDbLine
 10
6.3839427241
 20
50.2373457442
 30
0.0
 11
6.3839427241
 21
47.281882286
 31
0.0
  0
LINE
  5
4FF
330
1F
100
AcDbEntity
  8
SLD-0
  6
Continuous
370
    15
100
AcDbLine
 10
6.3839427241
 20
50.2373457442
 30
0.0
 11
23.258942236
 21
50.2373457442
 31
0.0
  0
LINE
  5
500
330
1F
100
AcDbEntity
  8
SLD-0
  6
Continuous
370
    15
100
AcDbLine
 10
23.258942236
 20
50.2373457442
 30
0.0
 11
23.258942236
 21
48.9755013345
 31
0.0
  0
LINE
  5
501
330
1F
100
AcDbEntity
  8
SLD-0
  6
Continuous
370
    15
100
AcDbLine
 10
23.258942236
 20
48.9755013345
 30
0.0
 11
23.0089429907
 21
48.7595565224
 31
0.0
  0
ARC
  5
502
330
1F
100
AcDbEntity
  8
SLD-0
  6
Continuous
370
    15
100
AcDbCircle
 10
14.7589426687
 20
49.4254172774
 30
0.0
 40
0.125871484770443
100
AcDbArc
 50
6.7453194679
 51
173.2546805321
  0
LINE
  5
503
330
1F
100
AcDbEntity
  8
SLD-0
  6
Continuous
370
    15
100
AcDbLine
 10
14.6339424594
 20
48.5764224247
 30
0.0
 11
14.6339424594
 21
49.4402016729
 31
0.0
  0
ARC
  5
504
330
1F
100
AcDbEntity
  8
SLD-0
  6
Continuous
370
    15
100
AcDbCircle
 10
14.7589426687
 20
48.5912059048
 30
0.0
 40
0.1258713772660681
100
AcDbArc
 50
186.7449057139
 51
353.2550942861
  0
LINE
  5
505
330
1F
100
AcDbEntity
  8
SLD-0
  6
Continuous
370
    15
100
AcDbLine
 10
14.883942878
 20
49.4402016729
 30
0.0
 11
14.883942878
 21
48.5764224247
 31
0.0
  0
LINE
  5
506
330
1F
100
AcDbEntity
  8
SLD-0
  6
Continuous
370
    15
100
AcDbLine
 10
23.0089429907
 20
48.744441817
 30
0.0
 11
23.0089429907
 21
48.7595565224
 31
0.0
  0
LINE
  5
507
330
1F
100
AcDbEntity
  8
SLD-0
  6
Continuous
370
    15
100
AcDbLine
 10
20.8839423655
 20
48.744441817
 30
0.0
 11
23.0089429907
 21
48.744441817
 31
0.0
  0
LINE
  5
508
330
1F
100
AcDbEntity
  8
SLD-0
  6
Continuous
370
    15
100
AcDbLine
 10
23.258942236
 20
48.9603866291
 30
0.0
 11
23.258942236
 21
48.9755013345
 31
0.0
  0
LINE
  5
509
330
1F
100
AcDbEntity
  8
SLD-0
  6
Continuous
370
    15
100
AcDbLine
 10
23.258942236
 20
48.9603866291
 30
0.0
 11
23.0089429907
 21
48.744441817
 31
0.0
  0
ARC
  5
50A
330
1F
100
AcDbEntity
  8
SLD-0
  6
Continuous
370
    15
100
AcDbCircle
 10
14.7589426687
 20
49.4103011407
 30
0.0
 40
0.1258713772660681
100
AcDbArc
 50
6.7449057139
 51
173.2550942861
  0
ARC
  5
50B
330
1F
100
AcDbEntity
  8
SLD-0
  6
Continuous
370
    15
100
AcDbCircle
 10
17.7589429991
 20
49.4103015935
 30
0.0
 40
0.1258713240874619
100
AcDbArc
 50
6.7447010348
 51
173.2552989652
  0
LINE
  5
50C
330
1F
100
AcDbEntity
  8
SLD-0
  6
Continuous
370
    15
100
AcDbLine
 10
23.258942236
 20
50.2596716729
 30
0.0
 11
23.258942236
 21
50.2373457442
 31
0.0
  0
LINE
  5
50D
330
1F
100
AcDbEntity
  8
SLD-0
  6
Continuous
370
    15
100
AcDbLine
 10
6.3839427241
 20
50.2373457442
 30
0.0
 11
6.3839427241
 21
50.2596716729
 31
0.0
  0
SPLINE
  5
50E
330
1F
100
AcDbEntity
  8
SLD-0
  6
Continuous
370
    15
100
AcDbSpline
210
0.0
220
0.0
230
1.0
 70
     8
 71
     3
 72
    11
 73
     7
 74
     0
 42
0.00000001
 43
0.00000001
 12
1.0
 22
0.0
 32
0.0
 13
1.0
 23
0.0
 33
0.0
 40
0.0
 40
0.0
 40
0.0
 40
0.0
 40
0.2499996945887553
 40
0.5000018176699632
 40
0.750003940751171
 40
1.0
 40
1.0
 40
1.0
 40
1.0
 10
20.99534321195231
 20
47.24444165180703
 30
0.0
 10
21.00033843619184
 20
47.24364889851944
 30
0.0
 10
21.0103289331944
 20
47.24206338424344
 30
0.0
 10
21.02531450795398
 20
47.22987803514754
 30
0.0
 10
21.04029991668306
 20
47.21245731732264
 30
0.0
 10
21.05029052783148
 20
47.19864626368309
 30
0.0
 10
21.05528577282406
 20
47.19174082061154
 30
0.0
  0
SPLINE
  5
50F
330
1F
100
AcDbEntity
  8
SLD-0
  6
Continuous
370
    15
100
AcDbSpline
210
0.0
220
0.0
230
1.0
 70
     8
 71
     3
 72
    11
 73
     7
 74
     0
 42
0.00000001
 43
0.00000001
 12
1.0
 22
0.0
 32
0.0
 13
1.0
 23
0.0
 33
0.0
 40
0.0
 40
0.0
 40
0.0
 40
0.0
 40
0.249995232624984
 40
0.500003885983759
 40
0.7499860015627126
 40
1.0
 40
1.0
 40
1.0
 40
1.0
 10
20.99534321195231
 20
47.22274227581342
 30
0.0
 10
21.00033854643394
 20
47.22227596229502
 30
0.0
 10
21.01032948356652
 20
47.22134331022467
 30
0.0
 10
21.02531331365861
 20
47.2141735388285
 30
0.0
 10
21.04030140957033
 20
47.20392881167749
 30
0.0
 10
21.05029077274487
 20
47.19580365700363
 30
0.0
 10
21.05528577282406
 20
47.19174082061153
 30
0.0
  0
LINE
  5
510
330
1F
100
AcDbEntity
  8
SLD-0
  6
Continuous
370
    15
100
AcDbLine
 10
20.995343212
 20
47.2444416518
 30
0.0
 11
20.995343212
 21
47.2227422758
 31
0.0
  0
LINE
  5
511
330
1F
100
AcDbEntity
  8
SLD-0
  6
Continuous
370
    15
100
AcDbLine
 10
22.7483428012
 20
47.174713604
 30
0.0
 11
22.7483428012
 21
47.1917408206
 31
0.0
  0
LINE
  5
512
330
1F
100
AcDbEntity
  8
SLD-0
  6
Continuous
370
    15
100
AcDbLine
 10
22.7483428012
 20
47.1917408206
 30
0.0
 11
23.1233428425
 21
47.1917408206
 31
0.0
  0
LINE
  5
513
330
1F
100
AcDbEntity
  8
SLD-0
  6
Continuous
370
    15
100
AcDbLine
 10
23.1233428425
 20
46.5977406426
 30
0.0
 11
23.1233428425
 21
47.1917408206
 31
0.0
  0
LINE
  5
514
330
1F
100
AcDbEntity
  8
SLD-0
  6
Continuous
370
    15
100
AcDbLine
 10
21.6492859509
 20
46.5977406426
 30
0.0
 11
23.1233428425
 21
46.5977406426
 31
0.0
  0
LINE
  5
515
330
1F
100
AcDbEntity
  8
SLD-0
  6
Continuous
370
    15
100
AcDbLine
 10
21.6492859509
 20
46.5977406426
 30
0.0
 11
21.0552857728
 21
47.1917408206
 31
0.0
  0
LINE
  5
516
330
1F
100
AcDbEntity
  8
SLD-0
  6
Continuous
370
    15
100
AcDbLine
 10
21.0552857728
 20
47.1917408206
 30
0.0
 11
21.4353428224
 21
47.1917408206
 31
0.0
  0
LINE
  5
517
330
1F
100
AcDbEntity
  8
SLD-0
  6
Continuous
370
    15
100
AcDbLine
 10
21.4353428224
 20
47.1917408206
 30
0.0
 11
21.4353428224
 21
47.174713604
 31
0.0
  0
LINE
  5
518
330
1F
100
AcDbEntity
  8
SLD-0
  6
Continuous
370
    15
100
AcDbLine
 10
21.4353428224
 20
47.174713604
 30
0.0
 11
22.7483428012
 21
47.174713604
 31
0.0
  0
LINE
  5
519
330
1F
100
AcDbEntity
  8
SLD-0
  6
Continuous
370
    15
100
AcDbLine
 10
20.995343212
 20
47.2444416518
 30
0.0
 11
21.4353428224
 21
47.2444416518
 31
0.0
  0
LINE
  5
51A
330
1F
100
AcDbEntity
  8
SLD-0
  6
Continuous
370
    15
100
AcDbLine
 10
21.4353428224
 20
47.1917408206
 30
0.0
 11
21.4353428224
 21
47.2444416518
 31
0.0
  0
LINE
  5
51B
330
1F
100
AcDbEntity
  8
SLD-0
  6
Continuous
370
    15
100
AcDbLine
 10
22.7483428012
 20
47.2444416518
 30
0.0
 11
22.7483428012
 21
47.1917408206
 31
0.0
  0
LINE
  5
51C
330
1F
100
AcDbEntity
  8
SLD-0
  6
Continuous
370
    15
100
AcDbLine
 10
22.7483428012
 20
47.2444416518
 30
0.0
 11
23.1233428425
 21
47.2444416518
 31
0.0
  0
LINE
  5
51D
330
1F
100
AcDbEntity
  8
SLD-0
  6
Continuous
370
    15
100
AcDbLine
 10
23.1233428425
 20
47.1917408206
 30
0.0
 11
23.1233428425
 21
47.2444416518
 31
0.0
  0
SPLINE
  5
51E
330
1F
100
AcDbEntity
  8
SLD-0
  6
Continuous
370
    15
100
AcDbSpline
210
0.0
220
0.0
230
1.0
 70
     8
 71
     3
 72
    11
 73
     7
 74
     0
 42
0.00000001
 43
0.00000001
 12
1.0
 22
0.0
 32
0.0
 13
1.0
 23
0.0
 33
0.0
 40
0.0
 40
0.0
 40
0.0
 40
0.0
 40
0.250005657314761
 40
0.5000047714761751
 40
0.7500052804940266
 40
1.0
 40
1.0
 40
1.0
 40
1.0
 10
5.788350424430655
 20
47.24444165180703
 30
0.0
 10
5.787954608529811
 20
47.243648942241
 30
0.0
 10
5.787162987087427
 20
47.24206354385577
 30
0.0
 10
5.786658698934374
 20
47.22987798377898
 30
0.0
 10
5.787238668906451
 20
47.21245730986082
 30
0.0
 10
5.788980296643031
 20
47.19864626372131
 30
0.0
 10
5.78985110042805
 20
47.19174082061153
 30
0.0
  0
LINE
  5
51F
330
1F
100
AcDbEntity
  8
SLD-0
  6
Continuous
370
    15
100
AcDbLine
 10
5.7883504244
 20
47.2444416518
 30
0.0
 11
20.995343212
 21
47.2444416518
 31
0.0
  0
SPLINE
  5
520
330
1F
100
AcDbEntity
  8
SLD-0
  6
Continuous
370
    15
100
AcDbSpline
210
0.0
220
0.0
230
1.0
 70
     8
 71
     3
 72
    12
 73
     8
 74
     0
 42
0.00000001
 43
0.00000001
 12
1.0
 22
0.0
 32
0.0
 13
1.0
 23
0.0
 33
0.0
 40
0.0
 40
0.0
 40
0.0
 40
0.0
 40
0.2373851706587929
 40
0.4749160249988811
 40
0.7124424259888296
 40
0.9499589424155033
 40
1.0
 40
1.0
 40
1.0
 40
1.0
 10
20.94627967207184
 20
47.19174082061153
 30
0.0
 10
20.94944649958399
 20
47.19829101863618
 30
0.0
 10
20.9557820980957
 20
47.21139543455307
 30
0.0
 10
20.96713150199777
 20
47.2283637817867
 30
0.0
 10
20.97949170005266
 20
47.24024415621677
 30
0.0
 10
20.9891486707861
 20
47.24421220830565
 30
0.0
 10
20.99442501690589
 20
47.24440764220395
 30
0.0
 10
20.99534321195231
 20
47.24444165180703
 30
0.0
  0
LINE
  5
521
330
1F
100
AcDbEntity
  8
SLD-0
  6
Continuous
370
    15
100
AcDbLine
 10
20.9462796721
 20
47.1917408206
 30
0.0
 11
5.7898511004
 21
47.1917408206
 31
0.0
  0
LINE
  5
522
330
1F
100
AcDbEntity
  8
SLD-0
  6
Continuous
370
    15
100
AcDbLine
 10
20.9462796721
 20
47.1917408206
 30
0.0
 11
20.9507746601
 21
47.1917408206
 31
0.0
  0
SPLINE
  5
523
330
1F
100
AcDbEntity
  8
SLD-0
  6
Continuous
370
    15
100
AcDbSpline
210
0.0
220
0.0
230
1.0
 70
     8
 71
     3
 72
    11
 73
     7
 74
     0
 42
0.00000001
 43
0.00000001
 12
1.0
 22
0.0
 32
0.0
 13
1.0
 23
0.0
 33
0.0
 40
0.0
 40
0.0
 40
0.0
 40
0.0
 40
0.2752453028741318
 40
0.5508074339125695
 40
0.8263637043581064
 40
1.0
 40
1.0
 40
1.0
 40
1.0
 10
20.95077466014536
 20
47.19174082061153
 30
0.0
 10
20.95439388936889
 20
47.19621445029619
 30
0.0
 10
20.96163651382255
 20
47.20516685915167
 30
0.0
 10
20.97393475269235
 20
47.21604334777224
 30
0.0
 10
20.98535639902043
 20
47.22192452001351
 30
0.0
 10
20.99255902305338
 20
47.22251429651355
 30
0.0
 10
20.99534321195231
 20
47.22274227581341
 30
0.0
  0
LINE
  5
524
330
1F
100
AcDbEntity
  8
SLD-0
  6
Continuous
370
    15
100
AcDbLine
 10
20.9462796721
 20
47.1917408206
 30
0.0
 11
20.5682876653
 21
46.5977406426
 31
0.0
  0
LINE
  5
525
330
1F
100
AcDbEntity
  8
SLD-0
  6
Continuous
370
    15
100
AcDbLine
 10
20.5682876653
 20
46.5977406426
 30
0.0
 11
5.9129192187
 21
46.5977406426
 31
0.0
  0
LINE
  5
526
330
1F
100
AcDbEntity
  8
SLD-0
  6
Continuous
370
    15
100
AcDbLine
 10
5.9129192187
 20
46.5977406426
 30
0.0
 11
5.7898511004
 21
47.1917408206
 31
0.0
  0
LINE
  5
527
330
1F
100
AcDbEntity
  8
SLD-0
  6
Continuous
370
    15
100
AcDbLine
 10
20.9507746601
 20
47.1917408206
 30
0.0
 11
20.5727838267
 21
46.5977406426
 31
0.0
  0
LINE
  5
528
330
1F
100
AcDbEntity
  8
SLD-0
  6
Continuous
370
    15
100
AcDbLine
 10
20.5682876653
 20
46.5977406426
 30
0.0
 11
20.5727838267
 21
46.5977406426
 31
0.0
  0
LINE
  5
529
330
1F
100
AcDbEntity
  8
SLD-0
  6
Continuous
370
    15
100
AcDbLine
 10
23.9023426967
 20
47.2227422758
 30
0.0
 11
23.9023426967
 21
47.2444416518
 31
0.0
  0
LINE
  5
52A
330
1F
100
AcDbEntity
  8
SLD-0
  6
Continuous
370
    15
100
AcDbLine
 10
23.1233428425
 20
47.2227422758
 30
0.0
 11
23.9023426967
 21
47.2227422758
 31
0.0
  0
LINE
  5
52B
330
1F
100
AcDbEntity
  8
SLD-0
  6
Continuous
370
    15
100
AcDbLine
 10
23.1233428425
 20
47.2444416518
 30
0.0
 11
23.9023426967
 21
47.2444416518
 31
0.0
  0
LINE
  5
52C
330
1F
100
AcDbEntity
  8
SLD-0
  6
Continuous
370
    15
100
AcDbLine
 10
23.9333429786
 20
46.7819612344
 30
0.0
 11
23.9333429786
 21
47.1917408206
 31
0.0
  0
LINE
  5
52D
330
1F
100
AcDbEntity
  8
SLD-0
  6
Continuous
370
    15
100
AcDbLine
 10
23.9333429786
 20
47.1917408206
 30
0.0
 11
23.9550423546
 21
47.1917408206
 31
0.0
  0
ARC
  5
52E
330
1F
100
AcDbEntity
  8
SLD-0
  6
Continuous
370
    15
100
AcDbCircle
 10
23.9023426829
 20
47.1917411246
 30
0.0
 40
0.052699999999998
100
AcDbArc
 50
0.0
 51
90.0
  0
ARC
  5
52F
330
1F
100
AcDbEntity
  8
SLD-0
  6
Continuous
370
    15
100
AcDbCircle
 10
23.9023426829
 20
47.1917411246
 30
0.0
 40
0.0309999999999988
100
AcDbArc
 50
0.0
 51
90.0
  0
LINE
  5
530
330
1F
100
AcDbEntity
  8
SLD-0
  6
Continuous
370
    15
100
AcDbLine
 10
22.7483428012
 20
47.2227422758
 30
0.0
 11
21.4353428224
 21
47.2227422758
 31
0.0
  0
LINE
  5
531
330
1F
100
AcDbEntity
  8
SLD-0
  6
Continuous
370
    15
100
AcDbLine
 10
22.7483428012
 20
47.2444416518
 30
0.0
 11
21.4353428224
 21
47.2444416518
 31
0.0
  0
LINE
  5
532
330
1F
100
AcDbEntity
  8
SLD-0
  6
Continuous
370
    15
100
AcDbLine
 10
4.7993426829
 20
47.2444416518
 30
0.0
 11
4.7993426829
 21
47.2227422758
 31
0.0
  0
LINE
  5
533
330
1F
100
AcDbEntity
  8
SLD-0
  6
Continuous
370
    15
100
AcDbLine
 10
4.7993426829
 20
47.2227422758
 30
0.0
 11
5.7883504244
 21
47.2227422758
 31
0.0
  0
LINE
  5
534
330
1F
100
AcDbEntity
  8
SLD-0
  6
Continuous
370
    15
100
AcDbLine
 10
4.7993426829
 20
47.2444416518
 30
0.0
 11
5.7883504244
 21
47.2444416518
 31
0.0
  0
LINE
  5
535
330
1F
100
AcDbEntity
  8
SLD-0
  6
Continuous
370
    15
100
AcDbLine
 10
4.7683426829
 20
47.1917408206
 30
0.0
 11
4.7466426812
 21
47.1917408206
 31
0.0
  0
SPLINE
  5
536
330
1F
100
AcDbEntity
  8
SLD-0
  6
Continuous
370
    15
100
AcDbSpline
210
0.0
220
0.0
230
1.0
 70
     8
 71
     3
 72
    11
 73
     7
 74
     0
 42
0.00000001
 43
0.00000001
 12
1.0
 22
0.0
 32
0.0
 13
1.0
 23
0.0
 33
0.0
 40
0.0
 40
0.0
 40
0.0
 40
0.0
 40
0.2499937692769615
 40
0.4999993036774052
 40
0.7499966699812415
 40
1.0
 40
1.0
 40
1.0
 40
1.0
 10
4.746642681244063
 20
47.19174082061153
 30
0.0
 10
4.74743491621599
 20
47.198646307919
 30
0.0
 10
4.749019423443745
 20
47.21245760751767
 30
0.0
 10
4.761205668740054
 20
47.22987769932093
 30
0.0
 10
4.778626029086213
 20
47.24206357761457
 30
0.0
 10
4.792437076695607
 20
47.24364895410639
 30
0.0
 10
4.79934268286534
 20
47.24444165180703
 30
0.0
  0
SPLINE
  5
537
330
1F
100
AcDbEntity
  8
SLD-0
  6
Continuous
370
    15
100
AcDbSpline
210
0.0
220
0.0
230
1.0
 70
     8
 71
     3
 72
    11
 73
     7
 74
     0
 42
0.00000001
 43
0.00000001
 12
1.0
 22
0.0
 32
0.0
 13
1.0
 23
0.0
 33
0.0
 40
0.0
 40
0.0
 40
0.0
 40
0.0
 40
0.2500197718122254
 40
0.4999899943058784
 40
0.7499975485713527
 40
1.0
 40
1.0
 40
1.0
 40
1.0
 10
4.768342682855459
 20
47.19174082061153
 30
0.0
 10
4.76880848771647
 20
47.19580358628248
 30
0.0
 10
4.769740005124535
 20
47.20392831245893
 30
0.0
 10
4.776910173501268
 20
47.21417383369458
 30
0.0
 10
4.787156024415206
 20
47.22134334545775
 30
0.0
 10
4.79528049101996
 20
47.22227596886748
 30
0.0
 10
4.79934268286534
 20
47.22274227581341
 30
0.0
  0
LINE
  5
538
330
1F
100
AcDbEntity
  8
SLD-0
  6
Continuous
370
    15
100
AcDbLine
 10
4.7466426812
 20
47.1917408206
 30
0.0
 11
4.7466426812
 21
46.5977406426
 31
0.0
  0
LINE
  5
539
330
1F
100
AcDbEntity
  8
SLD-0
  6
Continuous
370
    15
100
AcDbLine
 10
4.7683426829
 20
47.1917408206
 30
0.0
 11
4.7683426829
 21
47.0406735524
 31
0.0
  0
LINE
  5
53A
330
1F
100
AcDbEntity
  8
SLD-0
  6
Continuous
370
    15
100
AcDbLine
 10
4.7683426829
 20
46.5977406426
 30
0.0
 11
4.7466426812
 21
46.5977406426
 31
0.0
  0
LINE
  5
53B
330
1F
100
AcDbEntity
  8
SLD-0
  6
Continuous
370
    15
100
AcDbLine
 10
20.953874571
 20
47.1917408206
 30
0.0
 11
20.953874571
 21
12.6537411247
 31
0.0
  0
LINE
  5
53C
330
1F
100
AcDbEntity
  8
SLD-0
  6
Continuous
370
    15
100
AcDbLine
 10
23.8883426451
 20
47.1917408206
 30
0.0
 11
23.1233428425
 21
47.1917408206
 31
0.0
  0
LINE
  5
53D
330
1F
100
AcDbEntity
  8
SLD-0
  6
Continuous
370
    15
100
AcDbLine
 10
22.7483428012
 20
47.1917408206
 30
0.0
 11
21.4353428224
 21
47.1917408206
 31
0.0
  0
LINE
  5
53E
330
1F
100
AcDbEntity
  8
SLD-0
  6
Continuous
370
    15
100
AcDbLine
 10
21.0552857728
 20
47.1917408206
 30
0.0
 11
20.953874571
 21
47.1917408206
 31
0.0
  0
LINE
  5
53F
330
1F
100
AcDbEntity
  8
SLD-0
  6
Continuous
370
    15
100
AcDbLine
 10
23.8883426451
 20
47.1917408206
 30
0.0
 11
23.8883426451
 21
46.7333036632
 31
0.0
  0
LINE
  5
540
330
1F
100
AcDbEntity
  8
SLD-0
  6
Continuous
370
    15
100
AcDbLine
 10
23.8883426451
 20
13.1715782078
 30
0.0
 11
23.8883426451
 21
12.6537411247
 31
0.0
  0
LINE
  5
541
330
1F
100
AcDbEntity
  8
SLD-0
  6
Continuous
370
    15
100
AcDbLine
 10
23.8883426451
 20
12.6537411247
 30
0.0
 11
23.1233428425
 21
12.6537411247
 31
0.0
  0
LINE
  5
542
330
1F
100
AcDbEntity
  8
SLD-0
  6
Continuous
370
    15
100
AcDbLine
 10
22.7483428012
 20
12.6537411247
 30
0.0
 11
21.4353428224
 21
12.6537411247
 31
0.0
  0
LINE
  5
543
330
1F
100
AcDbEntity
  8
SLD-0
  6
Continuous
370
    15
100
AcDbLine
 10
21.0552857728
 20
12.6537411247
 30
0.0
 11
20.953874571
 21
12.6537411247
 31
0.0
  0
LINE
  5
544
330
1F
100
AcDbEntity
  8
SLD-0
  6
Continuous
370
    15
100
AcDbLine
 10
20.953874571
 20
47.1917408206
 30
0.0
 11
20.9507746601
 21
47.1917408206
 31
0.0
  0
LINE
  5
545
330
1F
100
AcDbEntity
  8
SLD-0
  6
Continuous
370
    15
100
AcDbLine
 10
4.810100436
 20
47.1917408206
 30
0.0
 11
4.810100436
 21
12.6537411247
 31
0.0
  0
LINE
  5
546
330
1F
100
AcDbEntity
  8
SLD-0
  6
Continuous
370
    15
100
AcDbLine
 10
5.7898511004
 20
12.6537411247
 30
0.0
 11
4.810100436
 21
12.6537411247
 31
0.0
  0
LINE
  5
547
330
1F
100
AcDbEntity
  8
SLD-0
  6
Continuous
370
    15
100
AcDbLine
 10
5.7898511004
 20
47.1917408206
 30
0.0
 11
4.810100436
 21
47.1917408206
 31
0.0
  0
LINE
  5
548
330
1F
100
AcDbEntity
  8
SLD-0
  6
Continuous
370
    15
100
AcDbLine
 10
4.7683426829
 20
47.0406735524
 30
0.0
 11
4.7683426829
 21
12.8048089864
 31
0.0
  0
LINE
  5
549
330
1F
100
AcDbEntity
  8
SLD-0
  6
Continuous
370
    15
100
AcDbLine
 10
4.810100436
 20
12.6537411247
 30
0.0
 11
4.7683426829
 21
12.6537411247
 31
0.0
  0
LINE
  5
54A
330
1F
100
AcDbEntity
  8
SLD-0
  6
Continuous
370
    15
100
AcDbLine
 10
4.810100436
 20
47.1917408206
 30
0.0
 11
4.7683426829
 21
47.1917408206
 31
0.0
  0
SPLINE
  5
54B
330
1F
100
AcDbEntity
  8
SLD-0
  6
Continuous
370
    15
100
AcDbSpline
210
0.0
220
0.0
230
1.0
 70
     8
 71
     3
 72
    11
 73
     7
 74
     0
 42
0.00000001
 43
0.00000001
 12
1.0
 22
0.0
 32
0.0
 13
1.0
 23
0.0
 33
0.0
 40
0.0
 40
0.0
 40
0.0
 40
0.0
 40
0.2499991439247106
 40
0.4999979277911867
 40
0.7500021759742695
 40
1.0
 40
1.0
 40
1.0
 40
1.0
 10
21.05528577282406
 20
12.65374112465626
 30
0.0
 10
21.05029057143575
 20
12.64683548092081
 30
0.0
 10
21.04030017585341
 20
12.63302420339568
 30
0.0
 10
21.02531426057593
 20
12.61560424596609
 30
0.0
 10
21.0103291074572
 20
12.60341775447952
 30
0.0
 10
21.00033846766649
 20
12.60183332825823
 30
0.0
 10
20.99534321195231
 20
12.60104112532615
 30
0.0
  0
LINE
  5
54C
330
1F
100
AcDbEntity
  8
SLD-0
  6
Continuous
370
    15
100
AcDbLine
 10
20.995343212
 20
12.6010411253
 30
0.0
 11
20.995343212
 21
12.6227411246
 31
0.0
  0
SPLINE
  5
54D
330
1F
100
AcDbEntity
  8
SLD-0
  6
Continuous
370
    15
100
AcDbSpline
210
0.0
220
0.0
230
1.0
 70
     8
 71
     3
 72
    11
 73
     7
 74
     0
 42
0.00000001
 43
0.00000001
 12
1.0
 22
0.0
 32
0.0
 13
1.0
 23
0.0
 33
0.0
 40
0.0
 40
0.0
 40
0.0
 40
0.0
 40
0.2500037786418464
 40
0.4999990755772861
 40
0.7500051734087645
 40
1.0
 40
1.0
 40
1.0
 40
1.0
 10
21.05528577282406
 20
12.65374112465626
 30
0.0
 10
21.05029062425068
 20
12.6496790140533
 30
0.0
 10
21.04030049657089
 20
12.64155493065982
 30
0.0
 10
21.02531400702231
 20
12.63130752203125
 30
0.0
 10
21.01032931367356
 20
12.62413921398209
 30
0.0
 10
21.00033850412032
 20
12.6232071474209
 30
0.0
 10
20.99534321195231
 20
12.62274112464584
 30
0.0
  0
LINE
  5
54E
330
1F
100
AcDbEntity
  8
SLD-0
  6
Continuous
370
    15
100
AcDbLine
 10
21.4353428224
 20
12.6707695444
 30
0.0
 11
21.4353428224
 21
12.6537411247
 31
0.0
  0
LINE
  5
54F
330
1F
100
AcDbEntity
  8
SLD-0
  6
Continuous
370
    15
100
AcDbLine
 10
21.4353428224
 20
12.6537411247
 30
0.0
 11
21.0552857728
 21
12.6537411247
 31
0.0
  0
LINE
  5
550
330
1F
100
AcDbEntity
  8
SLD-0
  6
Continuous
370
    15
100
AcDbLine
 10
21.6492859509
 20
13.2477411446
 30
0.0
 11
23.1233428425
 21
13.2477411446
 31
0.0
  0
LINE
  5
551
330
1F
100
AcDbEntity
  8
SLD-0
  6
Continuous
370
    15
100
AcDbLine
 10
23.1233428425
 20
13.2477411446
 30
0.0
 11
23.1233428425
 21
12.6537411247
 31
0.0
  0
LINE
  5
552
330
1F
100
AcDbEntity
  8
SLD-0
  6
Continuous
370
    15
100
AcDbLine
 10
23.1233428425
 20
12.6537411247
 30
0.0
 11
22.7483428012
 21
12.6537411247
 31
0.0
  0
LINE
  5
553
330
1F
100
AcDbEntity
  8
SLD-0
  6
Continuous
370
    15
100
AcDbLine
 10
22.7483428012
 20
12.6537411247
 30
0.0
 11
22.7483428012
 21
12.6707695444
 31
0.0
  0
LINE
  5
554
330
1F
100
AcDbEntity
  8
SLD-0
  6
Continuous
370
    15
100
AcDbLine
 10
22.7483428012
 20
12.6707695444
 30
0.0
 11
21.4353428224
 21
12.6707695444
 31
0.0
  0
LINE
  5
555
330
1F
100
AcDbEntity
  8
SLD-0
  6
Continuous
370
    15
100
AcDbLine
 10
21.0552857728
 20
12.6537411247
 30
0.0
 11
21.6492859509
 21
13.2477411446
 31
0.0
  0
LINE
  5
556
330
1F
100
AcDbEntity
  8
SLD-0
  6
Continuous
370
    15
100
AcDbLine
 10
21.4353428224
 20
12.6010411253
 30
0.0
 11
21.4353428224
 21
12.6537411247
 31
0.0
  0
LINE
  5
557
330
1F
100
AcDbEntity
  8
SLD-0
  6
Continuous
370
    15
100
AcDbLine
 10
21.4353428224
 20
12.6010411253
 30
0.0
 11
20.995343212
 21
12.6010411253
 31
0.0
  0
LINE
  5
558
330
1F
100
AcDbEntity
  8
SLD-0
  6
Continuous
370
    15
100
AcDbLine
 10
23.1233428425
 20
12.6010411253
 30
0.0
 11
22.7483428012
 21
12.6010411253
 31
0.0
  0
LINE
  5
559
330
1F
100
AcDbEntity
  8
SLD-0
  6
Continuous
370
    15
100
AcDbLine
 10
23.1233428425
 20
12.6010411253
 30
0.0
 11
23.1233428425
 21
12.6537411247
 31
0.0
  0
LINE
  5
55A
330
1F
100
AcDbEntity
  8
SLD-0
  6
Continuous
370
    15
100
AcDbLine
 10
22.7483428012
 20
12.6537411247
 30
0.0
 11
22.7483428012
 21
12.6010411253
 31
0.0
  0
SPLINE
  5
55B
330
1F
100
AcDbEntity
  8
SLD-0
  6
Continuous
370
    15
100
AcDbSpline
210
0.0
220
0.0
230
1.0
 70
     8
 71
     3
 72
    11
 73
     7
 74
     0
 42
0.00000001
 43
0.00000001
 12
1.0
 22
0.0
 32
0.0
 13
1.0
 23
0.0
 33
0.0
 40
0.0
 40
0.0
 40
0.0
 40
0.0
 40
0.2499993326034953
 40
0.4999948477981155
 40
0.7499971400451336
 40
1.0
 40
1.0
 40
1.0
 40
1.0
 10
5.78985110042805
 20
12.65374112465626
 30
0.0
 10
5.788980297442711
 20
12.64683550345984
 30
0.0
 10
5.787238704768911
 20
12.63302436651359
 30
0.0
 10
5.786658692289275
 20
12.61560417831796
 30
0.0
 10
5.787162978328921
 20
12.60341764726555
 30
0.0
 10
5.787954608763803
 20
12.60183329990558
 30
0.0
 10
5.788350424430655
 20
12.60104112532615
 30
0.0
  0
LINE
  5
55C
330
1F
100
AcDbEntity
  8
SLD-0
  6
Continuous
370
    15
100
AcDbLine
 10
5.7898511004
 20
12.6537411247
 30
0.0
 11
20.9462796721
 21
12.6537411247
 31
0.0
  0
SPLINE
  5
55D
330
1F
100
AcDbEntity
  8
SLD-0
  6
Continuous
370
    15
100
AcDbSpline
210
0.0
220
0.0
230
1.0
 70
     8
 71
     3
 72
    12
 73
     8
 74
     0
 42
0.00000001
 43
0.00000001
 12
1.0
 22
0.0
 32
0.0
 13
1.0
 23
0.0
 33
0.0
 40
0.0
 40
0.0
 40
0.0
 40
0.0
 40
0.2373912571362768
 40
0.4749025668780394
 40
0.7124391464976143
 40
0.9499600247351818
 40
1.0
 40
1.0
 40
1.0
 40
1.0
 10
20.99534321195231
 20
12.60104112532615
 30
0.0
 10
20.990966664991
 20
12.60175446798076
 30
0.0
 10
20.98221135777765
 20
12.60318151403892
 30
0.0
 10
20.96963448199145
 20
12.61422787439226
 30
0.0
 10
20.95811649913687
 20
12.63017326533556
 30
0.0
 10
20.95059828850392
 20
12.64447040069554
 30
0.0
 10
20.94691978738266
 20
12.65236699651986
 30
0.0
 10
20.94627967207184
 20
12.65374112465626
 30
0.0
  0
LINE
  5
55E
330
1F
100
AcDbEntity
  8
SLD-0
  6
Continuous
370
    15
100
AcDbLine
 10
20.995343212
 20
12.6010411253
 30
0.0
 11
5.7883504244
 21
12.6010411253
 31
0.0
  0
LINE
  5
55F
330
1F
100
AcDbEntity
  8
SLD-0
  6
Continuous
370
    15
100
AcDbLine
 10
20.9462796721
 20
12.6537411247
 30
0.0
 11
20.9507746601
 21
12.6537411247
 31
0.0
  0
SPLINE
  5
560
330
1F
100
AcDbEntity
  8
SLD-0
  6
Continuous
370
    15
100
AcDbSpline
210
0.0
220
0.0
230
1.0
 70
     8
 71
     3
 72
    11
 73
     7
 74
     0
 42
0.00000001
 43
0.00000001
 12
1.0
 22
0.0
 32
0.0
 13
1.0
 23
0.0
 33
0.0
 40
0.0
 40
0.0
 40
0.0
 40
0.0
 40
0.2752219196215218
 40
0.550788650524972
 40
0.8263666888703881
 40
0.9999999999999999
 40
0.9999999999999999
 40
0.9999999999999999
 40
0.9999999999999999
 10
20.99534321195231
 20
12.62274112464585
 30
0.0
 10
20.99091480449644
 20
12.62330822158692
 30
0.0
 10
20.98205244146246
 20
12.62444312595544
 30
0.0
 10
20.9692900969764
 20
12.63307796662738
 30
0.0
 10
20.95884021483239
 20
12.64364977278048
 30
0.0
 10
20.95302313244509
 20
12.65092791142543
 30
0.0
 10
20.95077466014536
 20
12.65374112465626
 30
0.0
  0
LINE
  5
561
330
1F
100
AcDbEntity
  8
SLD-0
  6
Continuous
370
    15
100
AcDbLine
 10
20.5682876653
 20
13.2477411446
 30
0.0
 11
20.9462796721
 21
12.6537411247
 31
0.0
  0
LINE
  5
562
330
1F
100
AcDbEntity
  8
SLD-0
  6
Continuous
370
    15
100
AcDbLine
 10
5.7898511004
 20
12.6537411247
 30
0.0
 11
5.9129192187
 21
13.2477411446
 31
0.0
  0
LINE
  5
563
330
1F
100
AcDbEntity
  8
SLD-0
  6
Continuous
370
    15
100
AcDbLine
 10
20.5682876653
 20
13.2477411446
 30
0.0
 11
5.9129192187
 21
13.2477411446
 31
0.0
  0
LINE
  5
564
330
1F
100
AcDbEntity
  8
SLD-0
  6
Continuous
370
    15
100
AcDbLine
 10
20.5682876653
 20
13.2477411446
 30
0.0
 11
20.5727838267
 21
13.2477411446
 31
0.0
  0
LINE
  5
565
330
1F
100
AcDbEntity
  8
SLD-0
  6
Continuous
370
    15
100
AcDbLine
 10
20.5727838267
 20
13.2477411446
 30
0.0
 11
20.9507746601
 21
12.6537411247
 31
0.0
  0
LINE
  5
566
330
1F
100
AcDbEntity
  8
SLD-0
  6
Continuous
370
    15
100
AcDbLine
 10
23.9333429786
 20
12.6537411247
 30
0.0
 11
23.9550423546
 21
12.6537411247
 31
0.0
  0
LINE
  5
567
330
1F
100
AcDbEntity
  8
SLD-0
  6
Continuous
370
    15
100
AcDbLine
 10
23.9333429786
 20
12.6537411247
 30
0.0
 11
23.9333429786
 21
13.1227411186
 31
0.0
  0
LINE
  5
568
330
1F
100
AcDbEntity
  8
SLD-0
  6
Continuous
370
    15
100
AcDbLine
 10
23.9023426967
 20
12.6227411246
 30
0.0
 11
23.9023426967
 21
12.6010411253
 31
0.0
  0
LINE
  5
569
330
1F
100
AcDbEntity
  8
SLD-0
  6
Continuous
370
    15
100
AcDbLine
 10
23.2386426305
 20
12.6010411253
 30
0.0
 11
23.1233428425
 21
12.6010411253
 31
0.0
  0
LINE
  5
56A
330
1F
100
AcDbEntity
  8
SLD-0
  6
Continuous
370
    15
100
AcDbLine
 10
23.9023426967
 20
12.6227411246
 30
0.0
 11
23.1233428425
 21
12.6227411246
 31
0.0
  0
ARC
  5
56B
330
1F
100
AcDbEntity
  8
SLD-0
  6
Continuous
370
    15
100
AcDbCircle
 10
23.9023426829
 20
12.6537411246
 30
0.0
 40
0.0310000000000006
100
AcDbArc
 50
270.0
 51
0.0
  0
ARC
  5
56C
330
1F
100
AcDbEntity
  8
SLD-0
  6
Continuous
370
    15
100
AcDbCircle
 10
23.9023426829
 20
12.6537411246
 30
0.0
 40
0.0526999999999997
100
AcDbArc
 50
270.0
 51
0.0
  0
LINE
  5
56D
330
1F
100
AcDbEntity
  8
SLD-0
  6
Continuous
370
    15
100
AcDbLine
 10
21.4353428224
 20
12.6010411253
 30
0.0
 11
22.7483428012
 21
12.6010411253
 31
0.0
  0
LINE
  5
56E
330
1F
100
AcDbEntity
  8
SLD-0
  6
Continuous
370
    15
100
AcDbLine
 10
21.4353428224
 20
12.6227411246
 30
0.0
 11
22.7483428012
 21
12.6227411246
 31
0.0
  0
LINE
  5
56F
330
1F
100
AcDbEntity
  8
SLD-0
  6
Continuous
370
    15
100
AcDbLine
 10
4.7993426829
 20
12.6010411253
 30
0.0
 11
4.7993426829
 21
12.6227411246
 31
0.0
  0
LINE
  5
570
330
1F
100
AcDbEntity
  8
SLD-0
  6
Continuous
370
    15
100
AcDbLine
 10
5.7883504244
 20
12.6010411253
 30
0.0
 11
4.7993426829
 21
12.6010411253
 31
0.0
  0
LINE
  5
571
330
1F
100
AcDbEntity
  8
SLD-0
  6
Continuous
370
    15
100
AcDbLine
 10
5.7883504244
 20
12.6227411246
 30
0.0
 11
4.7993426829
 21
12.6227411246
 31
0.0
  0
LINE
  5
572
330
1F
100
AcDbEntity
  8
SLD-0
  6
Continuous
370
    15
100
AcDbLine
 10
4.7466426812
 20
12.6537411247
 30
0.0
 11
4.7683426829
 21
12.6537411247
 31
0.0
  0
SPLINE
  5
573
330
1F
100
AcDbEntity
  8
SLD-0
  6
Continuous
370
    15
100
AcDbSpline
210
0.0
220
0.0
230
1.0
 70
     8
 71
     3
 72
    11
 73
     7
 74
     0
 42
0.00000001
 43
0.00000001
 12
1.0
 22
0.0
 32
0.0
 13
1.0
 23
0.0
 33
0.0
 40
0.0
 40
0.0
 40
0.0
 40
0.0
 40
0.2500005326017431
 40
0.5000010769912613
 40
0.7500016176266742
 40
1.0
 40
1.0
 40
1.0
 40
1.0
 10
4.799342682865814
 20
12.60104112532615
 30
0.0
 10
4.792437030751943
 20
12.60183328804114
 30
0.0
 10
4.778625726198592
 20
12.60341761350846
 30
0.0
 10
4.761206006628338
 20
12.61560446278654
 30
0.0
 10
4.749019208945673
 20
12.63302406885068
 30
0.0
 10
4.74743485486496
 20
12.64683545926018
 30
0.0
 10
4.746642681244063
 20
12.65374112465626
 30
0.0
  0
SPLINE
  5
574
330
1F
100
AcDbEntity
  8
SLD-0
  6
Continuous
370
    15
100
AcDbSpline
210
0.0
220
0.0
230
1.0
 70
     8
 71
     3
 72
    11
 73
     7
 74
     0
 42
0.00000001
 43
0.00000001
 12
1.0
 22
0.0
 32
0.0
 13
1.0
 23
0.0
 33
0.0
 40
0.0
 40
0.0
 40
0.0
 40
0.0
 40
0.2500014886025586
 40
0.5000029819088875
 40
0.7500044660037094
 40
1.0
 40
1.0
 40
1.0
 40
1.0
 10
4.799342682865814
 20
12.62274112464591
 30
0.0
 10
4.79528053455185
 20
12.62320710167741
 30
0.0
 10
4.787156237847499
 20
12.62413905574918
 30
0.0
 10
4.776909343589756
 20
12.63130780771119
 30
0.0
 10
4.769740678147004
 20
12.64155451838714
 30
0.0
 10
4.768808677588956
 20
12.64967895479421
 30
0.0
 10
4.768342682855459
 20
12.65374112465626
 30
0.0
  0
LINE
  5
575
330
1F
100
AcDbEntity
  8
SLD-0
  6
Continuous
370
    15
100
AcDbLine
 10
4.7466426812
 20
13.2477411446
 30
0.0
 11
4.7683426829
 21
13.2477411446
 31
0.0
  0
LINE
  5
576
330
1F
100
AcDbEntity
  8
SLD-0
  6
Continuous
370
    15
100
AcDbLine
 10
4.7683426829
 20
12.8048089864
 30
0.0
 11
4.7683426829
 21
12.6537411247
 31
0.0
  0
LINE
  5
577
330
1F
100
AcDbEntity
  8
SLD-0
  6
Continuous
370
    15
100
AcDbLine
 10
4.7466426812
 20
13.2477411446
 30
0.0
 11
4.7466426812
 21
12.6537411247
 31
0.0
  0
LINE
  5
578
330
1F
100
AcDbEntity
  8
SLD-0
  6
Continuous
370
    15
100
AcDbLine
 10
20.9836428671
 20
11.6160411141
 30
0.0
 11
20.9292395489
 21
11.6160411141
 31
0.0
  0
LINE
  5
579
330
1F
100
AcDbEntity
  8
SLD-0
  6
Continuous
370
    15
100
AcDbLine
 10
20.9836428671
 20
12.518441127
 30
0.0
 11
20.9292395489
 21
12.518441127
 31
0.0
  0
LINE
  5
57A
330
1F
100
AcDbEntity
  8
SLD-0
  6
Continuous
370
    15
100
AcDbLine
 10
21.4550428615
 20
12.6328236242
 30
0.0
 11
21.4353428224
 21
12.6328236242
 31
0.0
  0
LINE
  5
57B
330
1F
100
AcDbEntity
  8
SLD-0
  6
Continuous
370
    15
100
AcDbLine
 10
21.0268081285
 20
12.6328236242
 30
0.0
 11
20.9707328296
 21
12.6328236242
 31
0.0
  0
LINE
  5
57C
330
1F
100
AcDbEntity
  8
SLD-0
  6
Continuous
370
    15
100
AcDbLine
 10
23.3870851823
 20
47.1917408206
 30
0.0
 11
23.3870851823
 21
47.1926419302
 31
0.0
  0
LINE
  5
57D
330
1F
100
AcDbEntity
  8
SLD-0
  6
Continuous
370
    15
100
AcDbLine
 10
23.3777291304
 20
47.1917408206
 30
0.0
 11
23.3777291304
 21
47.1926419302
 31
0.0
  0
LINE
  5
57E
330
1F
100
AcDbEntity
  8
SLD-0
  6
Continuous
370
    15
100
AcDbLine
 10
4.8350426834
 20
47.1926419302
 30
0.0
 11
4.8350426834
 21
47.1917408206
 31
0.0
  0
LINE
  5
57F
330
1F
100
AcDbEntity
  8
SLD-0
  6
Continuous
370
    15
100
AcDbLine
 10
20.9429321907
 20
47.1794162697
 30
0.0
 11
20.9429321907
 21
12.6660665671
 31
0.0
  0
ENDSEC
  0
SECTION
  2
OBJECTS
  0
DICTIONARY
  5
C
330
0
100
AcDbDictionary
281
     1
  3
ACAD_GROUP
350
D
  3
ACAD_LAYOUT
350
1A
  3
ACAD_MATERIAL
350
3B
  3
ACAD_MLEADERSTYLE
350
581
  3
ACAD_MLINESTYLE
350
17
  3
ACAD_PLOTSETTINGS
350
19
  3
ACAD_PLOTSTYLENAME
350
E
  3
ACAD_TABLESTYLE
350
580
  0
DICTIONARY
  5
D
102
{ACAD_REACTORS
330
C
102
}
330
C
100
AcDbDictionary
281
     1
  0
DICTIONARY
  5
1A
102
{ACAD_REACTORS
330
C
102
}
330
C
100
AcDbDictionary
281
     1
  3
Layout1
350
1E
  3
Layout2
350
26
  3
Model
350
22
  0
DICTIONARY
  5
3B
102
{ACAD_REACTORS
330
C
102
}
330
C
100
AcDbDictionary
281
     1
  3
ByBlock
350
3D
  3
ByLayer
350
3C
  3
Global
350
3E
  0
DICTIONARY
  5
581
102
{ACAD_REACTORS
330
C
102
}
330
C
100
AcDbDictionary
281
     1
  0
DICTIONARY
  5
17
102
{ACAD_REACTORS
330
C
102
}
330
C
100
AcDbDictionary
281
     1
  3
Standard
350
18
  0
DICTIONARY
  5
19
102
{ACAD_REACTORS
330
C
102
}
330
C
100
AcDbDictionary
281
     1
  0
ACDBDICTIONARYWDFLT
  5
E
102
{ACAD_REACTORS
330
C
102
}
330
C
100
AcDbDictionary
281
     1
  3
Normal
350
F
100
AcDbDictionaryWithDefault
340
F
  0
DICTIONARY
  5
580
102
{ACAD_REACTORS
330
C
102
}
330
C
100
AcDbDictionary
281
     1
  0
LAYOUT
  5
1E
102
{ACAD_REACTORS
330
1A
102
}
330
1A
100
AcDbPlotSettings
  1

  2
none_device
  4

  6

 40
0.0
 41
0.0
 42
0.0
 43
0.0
 44
0.0
 45
0.0
 46
0.0
 47
0.0
 48
0.0
 49
0.0
140
0.0
141
0.0
142
1.0
143
1.0
 70
   688
 72
     0
 73
     0
 74
     5
  7

 75
    16
 76
     0
 77
     2
 78
   300
147
1.0
148
0.0
149
0.0
100
AcDbLayout
  1
Layout1
 70
     1
 71
     1
 10
0.0
 20
0.0
 11
12.0
 21
9.0
 12
0.0
 22
0.0
 32
0.0
 14
1.0000000000E+20
 24
1.0000000000E+20
 34
1.0000000000E+20
 15
-1.0000000000E+20
 25
-1.0000000000E+20
 35
-1.0000000000E+20
146
0.0
 13
0.0
 23
0.0
 33
0.0
 16
1.0
 26
0.0
 36
0.0
 17
0.0
 27
1.0
 37
0.0
 76
     0
330
1B
  0
LAYOUT
  5
26
102
{ACAD_REACTORS
330
1A
102
}
330
1A
100
AcDbPlotSettings
  1

  2
none_device
  4

  6

 40
0.0
 41
0.0
 42
0.0
 43
0.0
 44
0.0
 45
0.0
 46
0.0
 47
0.0
 48
0.0
 49
0.0
140
0.0
141
0.0
142
1.0
143
1.0
 70
   688
 72
     0
 73
     0
 74
     5
  7

 75
    16
 76
     0
 77
     2
 78
   300
147
1.0
148
0.0
149
0.0
100
AcDbLayout
  1
Layout2
 70
     1
 71
     2
 10
0.0
 20
0.0
 11
0.0
 21
0.0
 12
0.0
 22
0.0
 32
0.0
 14
0.0
 24
0.0
 34
0.0
 15
0.0
 25
0.0
 35
0.0
146
0.0
 13
0.0
 23
0.0
 33
0.0
 16
1.0
 26
0.0
 36
0.0
 17
0.0
 27
1.0
 37
0.0
 76
     0
330
23
  0
LAYOUT
  5
22
102
{ACAD_REACTORS
330
1A
102
}
330
1A
100
AcDbPlotSettings
  1

  2
none_device
  4

  6

 40
0.0
 41
0.0
 42
0.0
 43
0.0
 44
0.0
 45
0.0
 46
0.0
 47
0.0
 48
0.0
 49
0.0
140
0.0
141
0.0
142
1.0
143
1.0
 70
  1712
 72
     0
 73
     0
 74
     0
  7

 75
     0
 76
     0
 77
     2
 78
   300
147
1.0
148
0.0
149
0.0
100
AcDbLayout
  1
Model
 70
     1
 71
     0
 10
0.0
 20
0.0
 11
150.0
 21
95.0
 12
0.0
 22
0.0
 32
0.0
 14
0.0
 24
0.0
 34
0.0
 15
150.0
 25
95.0
 35
0.0
146
0.0
 13
0.0
 23
0.0
 33
0.0
 16
1.0
 26
0.0
 36
0.0
 17
0.0
 27
1.0
 37
0.0
 76
     0
330
1F
331
29
  0
MATERIAL
  5
3D
102
{ACAD_REACTORS
330
3B
102
}
330
3B
100
AcDbMaterial
  1
ByBlock
  0
MATERIAL
  5
3C
102
{ACAD_REACTORS
330
3B
102
}
330
3B
100
AcDbMaterial
  1
ByLayer
  0
MATERIAL
  5
3E
102
{ACAD_REACTORS
330
3B
102
}
330
3B
100
AcDbMaterial
  1
Global
  0
MLINESTYLE
  5
18
102
{ACAD_REACTORS
330
17
102
}
330
17
100
AcDbMlineStyle
  2
Standard
 70
     0
  3

 62
   256
 51
90.0
 52
90.0
 71
     2
 49
0.5
 62
   256
  6
BYLAYER
 49
-0.5
 62
   256
  6
BYLAYER
  0
ACDBPLACEHOLDER
  5
F
102
{ACAD_REACTORS
330
E
102
}
330
E
  0
ENDSEC
  0
EOF
