  0
SECTION
  2
HEADER
  9
$ACADVER
  1
AC1018
  9
$ACADMAINTVER
 70
     0
  9
$DWGCODEPAGE
  3
ANSI_1252
  9
$INSBASE
 10
0.0
 20
0.0
 30
0.0
  9
$EXTMIN
 10
0.0
 20
0.0
 30
0.0
  9
$EXTMAX
 10
150.0
 20
95.0
 30
0.0
  9
$LIMMIN
 10
0.0
 20
0.0
  9
$LIMMAX
 10
150.0
 20
95.0
  9
$ORTHOMODE
 70
     0
  9
$REGENMODE
 70
     1
  9
$FILLMODE
 70
     1
  9
$QTEXTMODE
 70
     0
  9
$MIRRTEXT
 70
     1
  9
$LTSCALE
 40
1.0
  9
$ATTMODE
 70
     1
  9
$TEXTSIZE
 40
0.1388888889
  9
$TRACEWID
 40
0.05
  9
$TEXTSTYLE
  7
Standard
  9
$CLAYER
  8
0
  9
$CELTYPE
  6
ByLayer
  9
$CECOLOR
 62
   256
  9
$CELTSCALE
 40
1.0
  9
$DISPSILH
 70
     0
  9
$DIMSCALE
 40
1.0
  9
$DIMASZ
 40
1.0
  9
$DIMEXO
 40
0.0393700787
  9
$DIMDLI
 40
0.38
  9
$DIMRND
 40
0.0
  9
$DIMDLE
 40
0.0
  9
$DIMEXE
 40
0.0393700787
  9
$DIMTP
 40
0.0
  9
$DIMTM
 40
0.0
  9
$DIMTXT
 40
1.5
  9
$DIMCEN
 40
0.09
  9
$DIMTSZ
 40
0.0
  9
$DIMTOL
 70
     0
  9
$DIMLIM
 70
     0
  9
$DIMTIH
 70
     1
  9
$DIMTOH
 70
     1
  9
$DIMSE1
 70
     0
  9
$DIMSE2
 70
     0
  9
$DIMTAD
 70
     0
  9
$DIMZIN
 70
     0
  9
$DIMBLK
  1

  9
$DIMASO
 70
     1
  9
$DIMSHO
 70
     1
  9
$DIMPOST
  1

  9
$DIMAPOST
  1

  9
$DIMALT
 70
     0
  9
$DIMALTD
 70
     2
  9
$DIMALTF
 40
25.4
  9
$DIMLFAC
 40
1.0
  9
$DIMTOFL
 70
     0
  9
$DIMTVP
 40
0.0
  9
$DIMTIX
 70
     0
  9
$DIMSOXD
 70
     0
  9
$DIMSAH
 70
     0
  9
$DIMBLK1
  1

  9
$DIMBLK2
  1

  9
$DIMSTYLE
  2
Standard
  9
$DIMCLRD
 70
     0
  9
$DIMCLRE
 70
     0
  9
$DIMCLRT
 70
     0
  9
$DIMTFAC
 40
1.0
  9
$DIMGAP
 40
0.06
  9
$DIMJUST
 70
     0
  9
$DIMSD1
 70
     0
  9
$DIMSD2
 70
     0
  9
$DIMTOLJ
 70
     1
  9
$DIMTZIN
 70
     0
  9
$DIMALTZ
 70
     0
  9
$DIMALTTZ
 70
     0
  9
$DIMUPT
 70
     0
  9
$DIMDEC
 70
     3
  9
$DIMTDEC
 70
     2
  9
$DIMALTU
 70
     2
  9
$DIMALTTD
 70
     2
  9
$DIMTXSTY
  7
Standard
  9
$DIMAUNIT
 70
     0
  9
$DIMADEC
 70
     2
  9
$DIMALTRND
 40
0.0
  9
$DIMAZIN
 70
     0
  9
$DIMDSEP
 70
    46
  9
$DIMATFIT
 70
     3
  9
$DIMFRAC
 70
     0
  9
$DIMLDRBLK
  1

  9
$DIMLUNIT
 70
     2
  9
$DIMLWD
 70
    -2
  9
$DIMLWE
 70
    -2
  9
$DIMTMOVE
 70
     0
  9
$LUNITS
 70
     2
  9
$LUPREC
 70
     3
  9
$SKETCHINC
 40
0.1
  9
$FILLETRAD
 40
0.5
  9
$AUNITS
 70
     0
  9
$AUPREC
 70
     2
  9
$MENU
  1
.
  9
$ELEVATION
 40
0.0
  9
$PELEVATION
 40
0.0
  9
$THICKNESS
 40
0.0
  9
$LIMCHECK
 70
     0
  9
$CHAMFERA
 40
0.5
  9
$CHAMFERB
 40
0.5
  9
$CHAMFERC
 40
1.0
  9
$CHAMFERD
 40
0.0
  9
$SKPOLY
 70
     0
  9
$TDCREATE
 40
2456589.550301296
  9
$TDUCREATE
 40
2456589.75863463
  9
$TDUPDATE
 40
2456589.550302917
  9
$TDUUPDATE
 40
2456589.75863625
  9
$TDINDWG
 40
0.0000000116
  9
$TDUSRTIMER
 40
0.0000000116
  9
$USRTIMER
 70
     1
  9
$ANGBASE
 50
0.0
  9
$ANGDIR
 70
     0
  9
$PDMODE
 70
     0
  9
$PDSIZE
 40
-1.0
  9
$PLINEWID
 40
0.0
  9
$SPLFRAME
 70
     0
  9
$SPLINETYPE
 70
     6
  9
$SPLINESEGS
 70
     8
  9
$HANDSEED
  5
5CF
  9
$SURFTAB1
 70
     6
  9
$SURFTAB2
 70
     6
  9
$SURFTYPE
 70
     6
  9
$SURFU
 70
     6
  9
$SURFV
 70
     6
  9
$UCSBASE
  2

  9
$UCSNAME
  2

  9
$UCSORG
 10
0.0
 20
0.0
 30
0.0
  9
$UCSXDIR
 10
1.0
 20
0.0
 30
0.0
  9
$UCSYDIR
 10
0.0
 20
1.0
 30
0.0
  9
$UCSORTHOREF
  2

  9
$UCSORTHOVIEW
 70
     0
  9
$UCSORGTOP
 10
0.0
 20
0.0
 30
0.0
  9
$UCSORGBOTTOM
 10
0.0
 20
0.0
 30
0.0
  9
$UCSORGLEFT
 10
0.0
 20
0.0
 30
0.0
  9
$UCSORGRIGHT
 10
0.0
 20
0.0
 30
0.0
  9
$UCSORGFRONT
 10
0.0
 20
0.0
 30
0.0
  9
$UCSORGBACK
 10
0.0
 20
0.0
 30
0.0
  9
$PUCSBASE
  2

  9
$PUCSNAME
  2

  9
$PUCSORG
 10
0.0
 20
0.0
 30
0.0
  9
$PUCSXDIR
 10
1.0
 20
0.0
 30
0.0
  9
$PUCSYDIR
 10
0.0
 20
1.0
 30
0.0
  9
$PUCSORTHOREF
  2

  9
$PUCSORTHOVIEW
 70
     0
  9
$PUCSORGTOP
 10
0.0
 20
0.0
 30
0.0
  9
$PUCSORGBOTTOM
 10
0.0
 20
0.0
 30
0.0
  9
$PUCSORGLEFT
 10
0.0
 20
0.0
 30
0.0
  9
$PUCSORGRIGHT
 10
0.0
 20
0.0
 30
0.0
  9
$PUCSORGFRONT
 10
0.0
 20
0.0
 30
0.0
  9
$PUCSORGBACK
 10
0.0
 20
0.0
 30
0.0
  9
$USERI1
 70
     0
  9
$USERI2
 70
     0
  9
$USERI3
 70
     0
  9
$USERI4
 70
     0
  9
$USERI5
 70
     0
  9
$USERR1
 40
0.0
  9
$USERR2
 40
0.0
  9
$USERR3
 40
0.0
  9
$USERR4
 40
0.0
  9
$USERR5
 40
0.0
  9
$WORLDVIEW
 70
     1
  9
$SHADEDGE
 70
     3
  9
$SHADEDIF
 70
    70
  9
$TILEMODE
 70
     1
  9
$MAXACTVP
 70
    64
  9
$PINSBASE
 10
0.0
 20
0.0
 30
0.0
  9
$PLIMCHECK
 70
     0
  9
$PEXTMIN
 10
1.0000000000E+20
 20
1.0000000000E+20
 30
1.0000000000E+20
  9
$PEXTMAX
 10
-1.0000000000E+20
 20
-1.0000000000E+20
 30
-1.0000000000E+20
  9
$PLIMMIN
 10
0.0
 20
0.0
  9
$PLIMMAX
 10
12.0
 20
9.0
  9
$UNITMODE
 70
     0
  9
$VISRETAIN
 70
     1
  9
$PLINEGEN
 70
     0
  9
$PSLTSCALE
 70
     1
  9
$TREEDEPTH
 70
  3020
  9
$CMLSTYLE
  2
Standard
  9
$CMLJUST
 70
     0
  9
$CMLSCALE
 40
1.0
  9
$PROXYGRAPHICS
 70
     1
  9
$MEASUREMENT
 70
     0
  9
$CELWEIGHT
370
    -1
  9
$ENDCAPS
280
     0
  9
$JOINSTYLE
280
     0
  9
$LWDISPLAY
290
     1
  9
$INSUNITS
 70
     1
  9
$HYPERLINKBASE
  1

  9
$STYLESHEET
  1

  9
$XEDIT
290
     1
  9
$CEPSNTYPE
380
     0
  9
$PSTYLEMODE
290
     1
  9
$FINGERPRINTGUID
  2
{B6115FC0-4037-4A71-AC2A-34BFE4CEDAC0}
  9
$VERSIONGUID
  2
{FAEB1C32-E019-11D5-929B-00C0DF256EC4}
  9
$EXTNAMES
290
     1
  9
$PSVPSCALE
 40
0.0
  9
$OLESTARTUP
290
     0
  9
$SORTENTS
280
   127
  9
$INDEXCTL
280
     0
  9
$HIDETEXT
280
     1
  9
$XCLIPFRAME
290
     0
  9
$HALOGAP
280
     0
  9
$OBSCOLOR
 70
   257
  9
$OBSLTYPE
280
     0
  9
$INTERSECTIONDISPLAY
280
     0
  9
$INTERSECTIONCOLOR
 70
   257
  9
$DIMASSOC
280
     2
  9
$PROJECTNAME
  1

  0
ENDSEC
  0
SECTION
  2
CLASSES
  0
CLASS
  1
ACDBDICTIONARYWDFLT
  2
AcDbDictionaryWithDefault
  3
ObjectDBX Classes
 90
        0
 91
        4
280
     0
281
     0
  0
CLASS
  1
VISUALSTYLE
  2
AcDbVisualStyle
  3
ObjectDBX Classes
 90
     4095
 91
        4
280
     0
281
     0
  0
CLASS
  1
MATERIAL
  2
AcDbMaterial
  3
ObjectDBX Classes
 90
     1153
 91
        4
280
     0
281
     0
  0
ENDSEC
  0
SECTION
  2
TABLES
  0
TABLE
  2
VPORT
  5
8
330
0
100
AcDbSymbolTable
 70
     1
  0
VPORT
  5
29
330
8
100
AcDbSymbolTableRecord
100
AcDbViewportTableRecord
  2
*Active
 70
     0
 10
0.0
 20
0.0
 11
1.0
 21
1.0
 12
75.0
 22
47.5
 13
0.0
 23
0.0
 14
0.5
 24
0.5
 15
0.5
 25
0.5
 16
0.0
 26
0.0
 36
1.0
 17
0.0
 27
0.0
 37
0.0
 40
95.0
 41
1.5789473684
 42
50.0
 43
0.0
 44
0.0
 50
0.0
 51
0.0
 71
     0
 72
  2000
 73
     1
 74
     3
 75
     0
 76
     0
 77
     0
 78
     0
281
     0
 65
     1
110
0.0
120
0.0
130
0.0
111
1.0
121
0.0
131
0.0
112
0.0
122
1.0
132
0.0
 79
     0
146
0.0
  0
ENDTAB
  0
TABLE
  2
LTYPE
  5
5
330
0
100
AcDbSymbolTable
 70
     6
  0
LTYPE
  5
14
330
5
100
AcDbSymbolTableRecord
100
AcDbLinetypeTableRecord
  2
ByBlock
 70
     0
  3

 72
    65
 73
     0
 40
0.0
  0
LTYPE
  5
15
330
5
100
AcDbSymbolTableRecord
100
AcDbLinetypeTableRecord
  2
ByLayer
 70
     0
  3

 72
    65
 73
     0
 40
0.0
  0
LTYPE
  5
16
330
5
100
AcDbSymbolTableRecord
100
AcDbLinetypeTableRecord
  2
Continuous
 70
     0
  3
Solid line
 72
    65
 73
     0
 40
0.0
  0
LTYPE
  5
3F
330
5
100
AcDbSymbolTableRecord
100
AcDbLinetypeTableRecord
  2
HIDDEN
 70
     0
  3
Hidden __ __ __ __ __ __ __ __ __ __ __ __ __ __
 72
    65
 73
     2
 40
0.075
 49
0.05
 74
     0
 49
-0.025
 74
     0
  0
LTYPE
  5
40
330
5
100
AcDbSymbolTableRecord
100
AcDbLinetypeTableRecord
  2
PHANTOM
 70
     0
  3
Phantom ______  __  __  ______  __  __  ______
 72
    65
 73
     6
 40
0.5
 49
0.25
 74
     0
 49
-0.05
 74
     0
 49
0.05
 74
     0
 49
-0.05
 74
     0
 49
0.05
 74
     0
 49
-0.05
 74
     0
  0
LTYPE
  5
41
330
5
100
AcDbSymbolTableRecord
100
AcDbLinetypeTableRecord
  2
CENTER
 70
     0
  3
Center ____ _ ____ _ ____ _ ____ _ ____ _ ____
 72
    65
 73
     4
 40
0.4
 49
0.25
 74
     0
 49
-0.05
 74
     0
 49
0.05
 74
     0
 49
-0.05
 74
     0
  0
LTYPE
  5
42
330
5
100
AcDbSymbolTableRecord
100
AcDbLinetypeTableRecord
  2
CENTERX2
 70
     0
  3
Center (2x) ________  __  ________  __  _____
 72
    65
 73
     4
 40
0.8
 49
0.5
 74
     0
 49
-0.1
 74
     0
 49
0.1
 74
     0
 49
-0.1
 74
     0
  0
LTYPE
  5
43
330
5
100
AcDbSymbolTableRecord
100
AcDbLinetypeTableRecord
  2
DOT2
 70
     0
  3
Dot (.5x) ........................................
 72
    65
 73
     2
 40
0.025
 49
0.0
 74
     0
 49
-0.025
 74
     0
  0
ENDTAB
  0
TABLE
  2
LAYER
  5
2
330
0
100
AcDbSymbolTable
 70
     4
  0
LAYER
  5
10
330
2
100
AcDbSymbolTableRecord
100
AcDbLayerTableRecord
  2
0
 70
     0
 62
     7
  6
Continuous
370
    -3
390
F
  0
LAYER
  5
44
330
2
100
AcDbSymbolTableRecord
100
AcDbLayerTableRecord
  2
SLD-0
 70
     0
 62
     7
  6
Continuous
370
    -3
390
F
  0
LAYER
  5
45
330
2
100
AcDbSymbolTableRecord
100
AcDbLayerTableRecord
  2
NOTES
 70
     0
 62
     1
  6
Continuous
370
    -3
390
F
  0
LAYER
  5
46
330
2
100
AcDbSymbolTableRecord
100
AcDbLayerTableRecord
  2
DIM
 70
     0
 62
   100
  6
Continuous
370
    -3
390
F
  0
ENDTAB
  0
TABLE
  2
STYLE
  5
3
330
0
100
AcDbSymbolTable
 70
     2
  0
STYLE
  5
11
330
3
100
AcDbSymbolTableRecord
100
AcDbTextStyleTableRecord
  2
Standard
 70
     0
 40
0.0
 41
1.0
 50
0.0
 71
     0
 42
0.1388888889
  3
txt
  4

  0
STYLE
  5
4A
330
3
100
AcDbSymbolTableRecord
100
AcDbTextStyleTableRecord
  2
SLDTEXTSTYLE0
 70
     0
 40
0.0
 41
0.75
 50
0.0
 71
     0
 42
0.2
  3
TXT
  4

  0
ENDTAB
  0
TABLE
  2
VIEW
  5
6
330
0
100
AcDbSymbolTable
 70
     0
  0
ENDTAB
  0
TABLE
  2
UCS
  5
7
330
0
100
AcDbSymbolTable
 70
     0
  0
ENDTAB
  0
TABLE
  2
APPID
  5
9
330
0
100
AcDbSymbolTable
 70
     1
  0
APPID
  5
12
330
9
100
AcDbSymbolTableRecord
100
AcDbRegAppTableRecord
  2
ACAD
 70
     0
  0
ENDTAB
  0
TABLE
  2
DIMSTYLE
  5
A
330
0
100
AcDbSymbolTable
 70
     3
100
AcDbDimStyleTable
  0
DIMSTYLE
105
27
330
A
100
AcDbSymbolTableRecord
100
AcDbDimStyleTableRecord
  2
Standard
 70
     0
178
     0
340
11
  0
DIMSTYLE
105
18F
102
{ACAD_REACTORS
330
18E
330
19C
330
1AB
330
1BA
330
1C9
330
1D8
330
2EE
330
30C
330
32B
102
}
330
A
100
AcDbSymbolTableRecord
100
AcDbDimStyleTableRecord
  2
SLDDIMSTYLE0
 70
     0
 41
1.0
 44
0.0
 45
0.000000001
 78
    12
 79
     3
140
1.5
147
0.375
173
     1
178
     0
271
     3
272
     2
276
     2
277
     5
284
    12
340
4A
  0
DIMSTYLE
105
2FE
102
{ACAD_REACTORS
330
2FD
330
31B
330
46E
330
47D
330
48D
102
}
330
A
100
AcDbSymbolTableRecord
100
AcDbDimStyleTableRecord
  2
SLDDIMSTYLE1
 70
     0
 41
1.0
 44
0.0
 45
0.000000001
 78
    12
 79
     3
140
1.5
147
0.375
172
     1
173
     1
178
     0
271
     3
272
     2
276
     2
277
     5
284
    12
289
     0
340
4A
  0
ENDTAB
  0
TABLE
  2
BLOCK_RECORD
  5
1
330
0
100
AcDbSymbolTable
 70
    16
  0
BLOCK_RECORD
  5
1F
330
1
100
AcDbSymbolTableRecord
100
AcDbBlockTableRecord
  2
*Model_Space
340
22
  0
BLOCK_RECORD
  5
1B
330
1
100
AcDbSymbolTableRecord
100
AcDbBlockTableRecord
  2
*Paper_Space
340
1E
  0
BLOCK_RECORD
  5
23
330
1
100
AcDbSymbolTableRecord
100
AcDbBlockTableRecord
  2
*Paper_Space0
340
26
  0
BLOCK_RECORD
  5
47
330
1
100
AcDbSymbolTableRecord
100
AcDbBlockTableRecord
  2
SW_NOTE_0
340
0
102
{BLKREFS
331
4D
102
}
  0
BLOCK_RECORD
  5
190
330
1
100
AcDbSymbolTableRecord
100
AcDbBlockTableRecord
  2
_D
340
0
  0
BLOCK_RECORD
  5
19D
330
1
100
AcDbSymbolTableRecord
100
AcDbBlockTableRecord
  2
_D_1
340
0
  0
BLOCK_RECORD
  5
1AC
330
1
100
AcDbSymbolTableRecord
100
AcDbBlockTableRecord
  2
_D_2
340
0
  0
BLOCK_RECORD
  5
1BB
330
1
100
AcDbSymbolTableRecord
100
AcDbBlockTableRecord
  2
_D_3
340
0
  0
BLOCK_RECORD
  5
1CA
330
1
100
AcDbSymbolTableRecord
100
AcDbBlockTableRecord
  2
_D_4
340
0
  0
BLOCK_RECORD
  5
1D9
330
1
100
AcDbSymbolTableRecord
100
AcDbBlockTableRecord
  2
_D_5
340
0
  0
BLOCK_RECORD
  5
2EF
330
1
100
AcDbSymbolTableRecord
100
AcDbBlockTableRecord
  2
_D_6
340
0
  0
BLOCK_RECORD
  5
2FF
330
1
100
AcDbSymbolTableRecord
100
AcDbBlockTableRecord
  2
_D_7
340
0
  0
BLOCK_RECORD
  5
30D
330
1
100
AcDbSymbolTableRecord
100
AcDbBlockTableRecord
  2
_D_8
340
0
  0
BLOCK_RECORD
  5
31C
330
1
100
AcDbSymbolTableRecord
100
AcDbBlockTableRecord
  2
_D_9
340
0
  0
BLOCK_RECORD
  5
32C
330
1
100
AcDbSymbolTableRecord
100
AcDbBlockTableRecord
  2
_D_10
340
0
  0
BLOCK_RECORD
  5
46F
330
1
100
AcDbSymbolTableRecord
100
AcDbBlockTableRecord
  2
_D_11
340
0
  0
BLOCK_RECORD
  5
47E
330
1
100
AcDbSymbolTableRecord
100
AcDbBlockTableRecord
  2
_D_12
340
0
  0
BLOCK_RECORD
  5
48E
330
1
100
AcDbSymbolTableRecord
100
AcDbBlockTableRecord
  2
_D_13
340
0
  0
ENDTAB
  0
ENDSEC
  0
SECTION
  2
BLOCKS
  0
BLOCK
  5
20
330
1F
100
AcDbEntity
  8
0
100
AcDbBlockBegin
  2
*Model_Space
 70
     0
 10
0.0
 20
0.0
 30
0.0
  3
*Model_Space
  1

  0
ENDBLK
  5
21
330
1F
100
AcDbEntity
  8
0
100
AcDbBlockEnd
  0
BLOCK
  5
1C
330
1B
100
AcDbEntity
 67
     1
  8
0
100
AcDbBlockBegin
  2
*Paper_Space
 70
     0
 10
0.0
 20
0.0
 30
0.0
  3
*Paper_Space
  1

  0
ENDBLK
  5
1D
330
1B
100
AcDbEntity
 67
     1
  8
0
100
AcDbBlockEnd
  0
BLOCK
  5
24
330
23
100
AcDbEntity
  8
0
100
AcDbBlockBegin
  2
*Paper_Space0
 70
     0
 10
0.0
 20
0.0
 30
0.0
  3
*Paper_Space0
  1

  0
ENDBLK
  5
25
330
23
100
AcDbEntity
  8
0
100
AcDbBlockEnd
  0
BLOCK
  5
48
330
47
100
AcDbEntity
  8
0
100
AcDbBlockBegin
  2
SW_NOTE_0
 70
     0
 10
0.0
 20
0.0
 30
0.0
  3
SW_NOTE_0
  1

  0
MTEXT
  5
4B
330
47
100
AcDbEntity
  8
NOTES
 62
     0
100
AcDbMText
 10
0.0
 20
2.5781354795
 30
0.0
 40
2.0
 41
0.0
 71
     1
 72
     1
  1
OLP36FP72SN-2
  7
SLDTEXTSTYLE0
 73
     1
 44
1.0
  0
MTEXT
  5
4C
330
47
100
AcDbEntity
  8
NOTES
 62
     0
100
AcDbMText
 10
0.0
 20
-0.0079757121
 30
0.0
 40
2.0
 41
0.0
 71
     1
 72
     1
  1
OLP36FP72SP-2
  7
SLDTEXTSTYLE0
 73
     1
 44
1.0
  0
ENDBLK
  5
49
330
47
100
AcDbEntity
  8
0
100
AcDbBlockEnd
  0
BLOCK
  5
191
330
190
100
AcDbEntity
  8
0
100
AcDbBlockBegin
  2
_D
 70
     0
 10
0.0
 20
0.0
 30
0.0
  3
_D
  1

  0
SOLID
  5
193
330
190
100
AcDbEntity
  8
DIM
100
AcDbTrace
 10
56.9859906724
 20
29.4344411246
 30
0.0
 11
57.9859906724
 21
29.1844411246
 31
0.0
 12
57.9859906724
 22
29.6844411246
 32
0.0
 13
57.9859906724
 23
29.6844411246
 33
0.0
  0
SOLID
  5
194
330
190
100
AcDbEntity
  8
DIM
100
AcDbTrace
 10
93.0195906724
 20
29.4344411246
 30
0.0
 11
92.0195906724
 21
29.6844411246
 31
0.0
 12
92.0195906724
 22
29.1844411246
 32
0.0
 13
92.0195906724
 23
29.1844411246
 33
0.0
  0
LINE
  5
195
330
190
100
AcDbEntity
  8
DIM
100
AcDbLine
 10
75.5382071552
 20
30.9344411432
 30
0.0
 11
73.738207133
 21
27.9344411061
 31
0.0
  0
LINE
  5
196
330
190
100
AcDbEntity
  8
DIM
100
AcDbLine
 10
56.9859906724
 20
29.4344411246
 30
0.0
 11
71.3132071348
 21
29.4344411246
 31
0.0
  0
LINE
  5
197
330
190
100
AcDbEntity
  8
DIM
100
AcDbLine
 10
93.0195906724
 20
29.4344411246
 30
0.0
 11
78.69237421
 21
29.4344411246
 31
0.0
  0
MTEXT
  5
198
330
190
100
AcDbEntity
  8
DIM
100
AcDbMText
 10
71.3132071348
 20
30.2940845141
 30
-10.575155905
 40
1.5
 41
0.0
 71
     1
 72
     1
  1
36
  7
SLDTEXTSTYLE0
 73
     1
 44
1.0
  0
MTEXT
  5
199
330
190
100
AcDbEntity
  8
DIM
100
AcDbMText
 10
73.5298738077
 20
31.368042771
 30
-10.575155905
 40
1.5
 41
0.0
 71
     1
 72
     1
  1
1
  7
SLDTEXTSTYLE0
 73
     1
 44
1.0
  0
MTEXT
  5
19A
330
190
100
AcDbEntity
  8
DIM
100
AcDbMText
 10
74.6382071441
 20
29.4284593772
 30
-10.575155905
 40
1.5
 41
0.0
 71
     1
 72
     1
  1
16
  7
SLDTEXTSTYLE0
 73
     1
 44
1.0
  0
MTEXT
  5
19B
330
190
100
AcDbEntity
  8
DIM
100
AcDbMText
 10
76.8548738903
 20
30.2940845141
 30
-10.575155905
 40
1.5
 41
0.0
 71
     1
 72
     1
  1
"
  7
SLDTEXTSTYLE0
 73
     1
 44
1.0
  0
ENDBLK
  5
192
330
190
100
AcDbEntity
  8
0
100
AcDbBlockEnd
  0
BLOCK
  5
19E
330
19D
100
AcDbEntity
  8
0
100
AcDbBlockBegin
  2
_D_1
 70
     0
 10
0.0
 20
0.0
 30
0.0
  3
_D_1
  1

  0
SOLID
  5
1A0
330
19D
100
AcDbEntity
  8
DIM
100
AcDbTrace
 10
50.4836473424
 20
47.3374411246
 30
0.0
 11
50.2336473424
 21
46.3374411246
 31
0.0
 12
50.7336473424
 22
46.3374411246
 32
0.0
 13
50.7336473424
 23
46.3374411246
 33
0.0
  0
SOLID
  5
1A1
330
19D
100
AcDbEntity
  8
DIM
100
AcDbTrace
 10
50.4836473424
 20
11.5314411246
 30
0.0
 11
50.7336473424
 21
12.5314411246
 31
0.0
 12
50.2336473424
 22
12.5314411246
 32
0.0
 13
50.2336473424
 23
12.5314411246
 33
0.0
  0
LINE
  5
1A2
330
19D
100
AcDbEntity
  8
DIM
100
AcDbLine
 10
51.5732306034
 20
30.9344411432
 30
0.0
 11
49.7732305812
 21
27.9344411061
 31
0.0
  0
LINE
  5
1A3
330
19D
100
AcDbEntity
  8
DIM
100
AcDbLine
 10
55.433833292
 20
47.3374411246
 30
0.0
 11
50.4442772637
 21
47.3374411246
 31
0.0
  0
LINE
  5
1A4
330
19D
100
AcDbEntity
  8
DIM
100
AcDbLine
 10
55.4466205937
 20
11.5314411246
 30
0.0
 11
50.4442772637
 21
11.5314411246
 31
0.0
  0
LINE
  5
1A5
330
19D
100
AcDbEntity
  8
DIM
100
AcDbLine
 10
50.4836473424
 20
47.3374411246
 30
0.0
 11
50.4836473424
 21
31.3740245184
 31
0.0
  0
LINE
  5
1A6
330
19D
100
AcDbEntity
  8
DIM
100
AcDbLine
 10
50.4836473424
 20
11.5314411246
 30
0.0
 11
50.4836473424
 21
27.4948577309
 31
0.0
  0
MTEXT
  5
1A7
330
19D
100
AcDbEntity
  8
DIM
100
AcDbMText
 10
46.2398972466
 20
30.2940845141
 30
-10.575155905
 40
1.5
 41
0.0
 71
     1
 72
     1
  1
35
  7
SLDTEXTSTYLE0
 73
     1
 44
1.0
  0
MTEXT
  5
1A8
330
19D
100
AcDbEntity
  8
DIM
100
AcDbMText
 10
48.4565639194
 20
31.368042771
 30
-10.575155905
 40
1.5
 41
0.0
 71
     1
 72
     1
  1
13
  7
SLDTEXTSTYLE0
 73
     1
 44
1.0
  0
MTEXT
  5
1A9
330
19D
100
AcDbEntity
  8
DIM
100
AcDbMText
 10
50.6732305923
 20
29.4284593772
 30
-10.575155905
 40
1.5
 41
0.0
 71
     1
 72
     1
  1
16
  7
SLDTEXTSTYLE0
 73
     1
 44
1.0
  0
MTEXT
  5
1AA
330
19D
100
AcDbEntity
  8
DIM
100
AcDbMText
 10
52.8898971185
 20
30.2940845141
 30
-10.575155905
 40
1.5
 41
0.0
 71
     1
 72
     1
  1
"
  7
SLDTEXTSTYLE0
 73
     1
 44
1.0
  0
ENDBLK
  5
19F
330
19D
100
AcDbEntity
  8
0
100
AcDbBlockEnd
  0
BLOCK
  5
1AD
330
1AC
100
AcDbEntity
  8
0
100
AcDbBlockBegin
  2
_D_2
 70
     0
 10
0.0
 20
0.0
 30
0.0
  3
_D_2
  1

  0
SOLID
  5
1AF
330
1AC
100
AcDbEntity
  8
DIM
100
AcDbTrace
 10
55.4189906724
 20
7.5313417152
 30
0.0
 11
56.4189906724
 21
7.2813417152
 31
0.0
 12
56.4189906724
 22
7.7813417152
 32
0.0
 13
56.4189906724
 23
7.7813417152
 33
0.0
  0
SOLID
  5
1B0
330
1AC
100
AcDbEntity
  8
DIM
100
AcDbTrace
 10
94.5529906724
 20
7.5313417152
 30
0.0
 11
93.5529906724
 21
7.7813417152
 31
0.0
 12
93.5529906724
 22
7.2813417152
 32
0.0
 13
93.5529906724
 23
7.2813417152
 33
0.0
  0
LINE
  5
1B1
330
1AC
100
AcDbEntity
  8
DIM
100
AcDbLine
 10
76.0755740068
 20
9.0313417337
 30
0.0
 11
74.2755739845
 21
6.0313416967
 31
0.0
  0
LINE
  5
1B2
330
1AC
100
AcDbEntity
  8
DIM
100
AcDbLine
 10
55.4189906724
 20
11.5590710459
 30
0.0
 11
55.4189906724
 21
7.4919716365
 31
0.0
  0
LINE
  5
1B3
330
1AC
100
AcDbEntity
  8
DIM
100
AcDbLine
 10
94.5529906724
 20
11.5590710459
 30
0.0
 11
94.5529906724
 21
7.4919716365
 31
0.0
  0
LINE
  5
1B4
330
1AC
100
AcDbEntity
  8
DIM
100
AcDbLine
 10
55.4189906724
 20
7.5313417152
 30
0.0
 11
71.8505739863
 21
7.5313417152
 31
0.0
  0
LINE
  5
1B5
330
1AC
100
AcDbEntity
  8
DIM
100
AcDbLine
 10
94.5529906724
 20
7.5313417152
 30
0.0
 11
78.1214073585
 21
7.5313417152
 31
0.0
  0
MTEXT
  5
1B6
330
1AC
100
AcDbEntity
  8
DIM
100
AcDbMText
 10
71.8505739863
 20
8.3909851046
 30
-10.575155905
 40
1.5
 41
0.0
 71
     1
 72
     1
  1
39
  7
SLDTEXTSTYLE0
 73
     1
 44
1.0
  0
MTEXT
  5
1B7
330
1AC
100
AcDbEntity
  8
DIM
100
AcDbMText
 10
74.0672406592
 20
9.4649433615
 30
-10.575155905
 40
1.5
 41
0.0
 71
     1
 72
     1
  1
1
  7
SLDTEXTSTYLE0
 73
     1
 44
1.0
  0
MTEXT
  5
1B8
330
1AC
100
AcDbEntity
  8
DIM
100
AcDbMText
 10
75.1755739957
 20
7.5253599678
 30
-10.575155905
 40
1.5
 41
0.0
 71
     1
 72
     1
  1
8
  7
SLDTEXTSTYLE0
 73
     1
 44
1.0
  0
MTEXT
  5
1B9
330
1AC
100
AcDbEntity
  8
DIM
100
AcDbMText
 10
76.2839073321
 20
8.3909851046
 30
-10.575155905
 40
1.5
 41
0.0
 71
     1
 72
     1
  1
"
  7
SLDTEXTSTYLE0
 73
     1
 44
1.0
  0
ENDBLK
  5
1AE
330
1AC
100
AcDbEntity
  8
0
100
AcDbBlockEnd
  0
BLOCK
  5
1BC
330
1BB
100
AcDbEntity
  8
0
100
AcDbBlockBegin
  2
_D_3
 70
     0
 10
0.0
 20
0.0
 30
0.0
  3
_D_3
  1

  0
SOLID
  5
1BE
330
1BB
100
AcDbEntity
  8
DIM
100
AcDbTrace
 10
99.4809519125
 20
41.8314861432
 30
0.0
 11
99.2309519125
 21
40.8314861432
 31
0.0
 12
99.7309519125
 22
40.8314861432
 32
0.0
 13
99.7309519125
 23
40.8314861432
 33
0.0
  0
SOLID
  5
1BF
330
1BB
100
AcDbEntity
  8
DIM
100
AcDbTrace
 10
99.4809519125
 20
18.6930411246
 30
0.0
 11
99.7309519125
 21
19.6930411246
 31
0.0
 12
99.2309519125
 22
19.6930411246
 32
0.0
 13
99.2309519125
 23
19.6930411246
 33
0.0
  0
LINE
  5
1C0
330
1BB
100
AcDbEntity
  8
DIM
100
AcDbLine
 10
100.5705352468
 20
31.7622636524
 30
0.0
 11
98.7705352246
 21
28.7622636154
 31
0.0
  0
LINE
  5
1C1
330
1BB
100
AcDbEntity
  8
DIM
100
AcDbLine
 10
92.8831153754
 20
41.8314861432
 30
0.0
 11
99.5203219912
 21
41.8314861432
 31
0.0
  0
LINE
  5
1C2
330
1BB
100
AcDbEntity
  8
DIM
100
AcDbLine
 10
92.0894607511
 20
18.6930411246
 30
0.0
 11
99.5203219912
 21
18.6930411246
 31
0.0
  0
LINE
  5
1C3
330
1BB
100
AcDbEntity
  8
DIM
100
AcDbLine
 10
99.4809519125
 20
41.8314861432
 30
0.0
 11
99.4809519125
 21
32.2018470277
 31
0.0
  0
LINE
  5
1C4
330
1BB
100
AcDbEntity
  8
DIM
100
AcDbLine
 10
99.4809519125
 20
18.6930411246
 30
0.0
 11
99.4809519125
 21
28.3226802401
 31
0.0
  0
MTEXT
  5
1C5
330
1BB
100
AcDbEntity
  8
DIM
100
AcDbMText
 10
96.3455352264
 20
31.1219070233
 30
-10.575155905
 40
1.5
 41
0.0
 71
     1
 72
     1
  1
23
  7
SLDTEXTSTYLE0
 73
     1
 44
1.0
  0
MTEXT
  5
1C6
330
1BB
100
AcDbEntity
  8
DIM
100
AcDbMText
 10
98.5622018993
 20
32.1958652802
 30
-10.575155905
 40
1.5
 41
0.0
 71
     1
 72
     1
  1
1
  7
SLDTEXTSTYLE0
 73
     1
 44
1.0
  0
MTEXT
  5
1C7
330
1BB
100
AcDbEntity
  8
DIM
100
AcDbMText
 10
99.6705352357
 20
30.2562818865
 30
-10.575155905
 40
1.5
 41
0.0
 71
     1
 72
     1
  1
8
  7
SLDTEXTSTYLE0
 73
     1
 44
1.0
  0
MTEXT
  5
1C8
330
1BB
100
AcDbEntity
  8
DIM
100
AcDbMText
 10
100.7788685721
 20
31.1219070233
 30
-10.575155905
 40
1.5
 41
0.0
 71
     1
 72
     1
  1
"
  7
SLDTEXTSTYLE0
 73
     1
 44
1.0
  0
ENDBLK
  5
1BD
330
1BB
100
AcDbEntity
  8
0
100
AcDbBlockEnd
  0
BLOCK
  5
1CB
330
1CA
100
AcDbEntity
  8
0
100
AcDbBlockBegin
  2
_D_4
 70
     0
 10
0.0
 20
0.0
 30
0.0
  3
_D_4
  1

  0
SOLID
  5
1CD
330
1CA
100
AcDbEntity
  8
DIM
100
AcDbTrace
 10
103.9883340024
 20
43.0068411246
 30
0.0
 11
103.7383340024
 21
42.0068411246
 31
0.0
 12
104.2383340024
 22
42.0068411246
 32
0.0
 13
104.2383340024
 23
42.0068411246
 33
0.0
  0
SOLID
  5
1CE
330
1CA
100
AcDbEntity
  8
DIM
100
AcDbTrace
 10
103.9883340024
 20
11.5314411246
 30
0.0
 11
104.2383340024
 21
12.5314411246
 31
0.0
 12
103.7383340024
 22
12.5314411246
 32
0.0
 13
103.7383340024
 23
12.5314411246
 33
0.0
  0
LINE
  5
1CF
330
1CA
100
AcDbEntity
  8
DIM
100
AcDbLine
 10
105.0779173368
 20
25.2992079577
 30
0.0
 11
103.2779173145
 21
22.2992079206
 31
0.0
  0
LINE
  5
1D0
330
1CA
100
AcDbEntity
  8
DIM
100
AcDbLine
 10
93.0899607511
 20
43.0068411246
 30
0.0
 11
104.0277040811
 21
43.0068411246
 31
0.0
  0
LINE
  5
1D1
330
1CA
100
AcDbEntity
  8
DIM
100
AcDbLine
 10
94.5253607511
 20
11.5314411246
 30
0.0
 11
104.0277040811
 21
11.5314411246
 31
0.0
  0
LINE
  5
1D2
330
1CA
100
AcDbEntity
  8
DIM
100
AcDbLine
 10
103.9883340024
 20
43.0068411246
 30
0.0
 11
103.9883340024
 21
25.7387913329
 31
0.0
  0
LINE
  5
1D3
330
1CA
100
AcDbEntity
  8
DIM
100
AcDbLine
 10
103.9883340024
 20
11.5314411246
 30
0.0
 11
103.9883340024
 21
21.8596245454
 31
0.0
  0
MTEXT
  5
1D4
330
1CA
100
AcDbEntity
  8
DIM
100
AcDbMText
 10
100.8529173163
 20
24.6588513286
 30
-10.575155905
 40
1.5
 41
0.0
 71
     1
 72
     1
  1
31
  7
SLDTEXTSTYLE0
 73
     1
 44
1.0
  0
MTEXT
  5
1D5
330
1CA
100
AcDbEntity
  8
DIM
100
AcDbMText
 10
103.0695839892
 20
25.7328095855
 30
-10.575155905
 40
1.5
 41
0.0
 71
     1
 72
     1
  1
1
  7
SLDTEXTSTYLE0
 73
     1
 44
1.0
  0
MTEXT
  5
1D6
330
1CA
100
AcDbEntity
  8
DIM
100
AcDbMText
 10
104.1779173257
 20
23.7932261917
 30
-10.575155905
 40
1.5
 41
0.0
 71
     1
 72
     1
  1
2
  7
SLDTEXTSTYLE0
 73
     1
 44
1.0
  0
MTEXT
  5
1D7
330
1CA
100
AcDbEntity
  8
DIM
100
AcDbMText
 10
105.2862506621
 20
24.6588513286
 30
-10.575155905
 40
1.5
 41
0.0
 71
     1
 72
     1
  1
"
  7
SLDTEXTSTYLE0
 73
     1
 44
1.0
  0
ENDBLK
  5
1CC
330
1CA
100
AcDbEntity
  8
0
100
AcDbBlockEnd
  0
BLOCK
  5
1DA
330
1D9
100
AcDbEntity
  8
0
100
AcDbBlockBegin
  2
_D_5
 70
     0
 10
0.0
 20
0.0
 30
0.0
  3
_D_5
  1

  0
SOLID
  5
1DC
330
1D9
100
AcDbEntity
  8
DIM
100
AcDbTrace
 10
41.3040117609
 20
50.2596716018
 30
0.0
 11
41.0540117609
 21
49.2596716018
 31
0.0
 12
41.5540117609
 22
49.2596716018
 32
0.0
 13
41.5540117609
 23
49.2596716018
 33
0.0
  0
SOLID
  5
1DD
330
1D9
100
AcDbEntity
  8
DIM
100
AcDbTrace
 10
41.3040117609
 20
11.5314411246
 30
0.0
 11
41.5540117609
 21
12.5314411246
 31
0.0
 12
41.0540117609
 22
12.5314411246
 32
0.0
 13
41.0540117609
 23
12.5314411246
 33
0.0
  0
LINE
  5
1DE
330
1D9
100
AcDbEntity
  8
DIM
100
AcDbLine
 10
42.3935950953
 20
26.3392384535
 30
0.0
 11
40.593595073
 21
23.3392384164
 31
0.0
  0
LINE
  5
1DF
330
1D9
100
AcDbEntity
  8
DIM
100
AcDbLine
 10
64.6266205937
 20
50.2596716018
 30
0.0
 11
41.2646416822
 21
50.2596716018
 31
0.0
  0
LINE
  5
1E0
330
1D9
100
AcDbEntity
  8
DIM
100
AcDbLine
 10
55.4466205937
 20
11.5314411246
 30
0.0
 11
41.2646416822
 21
11.5314411246
 31
0.0
  0
LINE
  5
1E1
330
1D9
100
AcDbEntity
  8
DIM
100
AcDbLine
 10
41.3040117609
 20
50.2596716018
 30
0.0
 11
41.3040117609
 21
26.7788218287
 31
0.0
  0
LINE
  5
1E2
330
1D9
100
AcDbEntity
  8
DIM
100
AcDbLine
 10
41.3040117609
 20
11.5314411246
 30
0.0
 11
41.3040117609
 21
22.8996550412
 31
0.0
  0
MTEXT
  5
1E3
330
1D9
100
AcDbEntity
  8
DIM
100
AcDbMText
 10
38.1685950749
 20
25.6988818244
 30
-10.575155905
 40
1.5
 41
0.0
 71
     1
 72
     1
  1
38
  7
SLDTEXTSTYLE0
 73
     1
 44
1.0
  0
MTEXT
  5
1E4
330
1D9
100
AcDbEntity
  8
DIM
100
AcDbMText
 10
40.3852617477
 20
26.7728400813
 30
-10.575155905
 40
1.5
 41
0.0
 71
     1
 72
     1
  1
3
  7
SLDTEXTSTYLE0
 73
     1
 44
1.0
  0
MTEXT
  5
1E5
330
1D9
100
AcDbEntity
  8
DIM
100
AcDbMText
 10
41.4935950842
 20
24.8332566875
 30
-10.575155905
 40
1.5
 41
0.0
 71
     1
 72
     1
  1
4
  7
SLDTEXTSTYLE0
 73
     1
 44
1.0
  0
MTEXT
  5
1E6
330
1D9
100
AcDbEntity
  8
DIM
100
AcDbMText
 10
42.6019284206
 20
25.6988818244
 30
-10.575155905
 40
1.5
 41
0.0
 71
     1
 72
     1
  1
"
  7
SLDTEXTSTYLE0
 73
     1
 44
1.0
  0
ENDBLK
  5
1DB
330
1D9
100
AcDbEntity
  8
0
100
AcDbBlockEnd
  0
BLOCK
  5
2F0
330
2EF
100
AcDbEntity
  8
0
100
AcDbBlockBegin
  2
_D_6
 70
     0
 10
0.0
 20
0.0
 30
0.0
  3
_D_6
  1

  0
SOLID
  5
2F2
330
2EF
100
AcDbEntity
  8
DIM
100
AcDbTrace
 10
58.9159906724
 20
89.2366228233
 30
0.0
 11
59.9159906724
 21
88.9866228233
 31
0.0
 12
59.9159906724
 22
89.4866228233
 32
0.0
 13
59.9159906724
 23
89.4866228233
 33
0.0
  0
SOLID
  5
2F3
330
2EF
100
AcDbEntity
  8
DIM
100
AcDbTrace
 10
91.0559906724
 20
89.2366228233
 30
0.0
 11
90.0559906724
 21
89.4866228233
 31
0.0
 12
90.0559906724
 22
88.9866228233
 32
0.0
 13
90.0559906724
 23
88.9866228233
 33
0.0
  0
LINE
  5
2F4
330
2EF
100
AcDbEntity
  8
DIM
100
AcDbLine
 10
76.0755740068
 20
90.7366228418
 30
0.0
 11
74.2755739845
 21
87.7366228048
 31
0.0
  0
LINE
  5
2F5
330
2EF
100
AcDbEntity
  8
DIM
100
AcDbLine
 10
58.9159906724
 20
84.7007497434
 30
0.0
 11
58.9159906724
 21
89.275992902
 31
0.0
  0
LINE
  5
2F6
330
2EF
100
AcDbEntity
  8
DIM
100
AcDbLine
 10
91.0559906724
 20
84.7007497434
 30
0.0
 11
91.0559906724
 21
89.275992902
 31
0.0
  0
LINE
  5
2F7
330
2EF
100
AcDbEntity
  8
DIM
100
AcDbLine
 10
58.9159906724
 20
89.2366228233
 30
0.0
 11
71.8505739863
 21
89.2366228233
 31
0.0
  0
LINE
  5
2F8
330
2EF
100
AcDbEntity
  8
DIM
100
AcDbLine
 10
91.0559906724
 20
89.2366228233
 30
0.0
 11
78.1214073585
 21
89.2366228233
 31
0.0
  0
MTEXT
  5
2F9
330
2EF
100
AcDbEntity
  8
DIM
100
AcDbMText
 10
71.8505739863
 20
90.0962662128
 30
-18.268828526
 40
1.5
 41
0.0
 71
     1
 72
     1
  1
32
  7
SLDTEXTSTYLE0
 73
     1
 44
1.0
  0
MTEXT
  5
2FA
330
2EF
100
AcDbEntity
  8
DIM
100
AcDbMText
 10
74.0672406592
 20
91.1702244696
 30
-18.268828526
 40
1.5
 41
0.0
 71
     1
 72
     1
  1
1
  7
SLDTEXTSTYLE0
 73
     1
 44
1.0
  0
MTEXT
  5
2FB
330
2EF
100
AcDbEntity
  8
DIM
100
AcDbMText
 10
75.1755739957
 20
89.2306410759
 30
-18.268828526
 40
1.5
 41
0.0
 71
     1
 72
     1
  1
8
  7
SLDTEXTSTYLE0
 73
     1
 44
1.0
  0
MTEXT
  5
2FC
330
2EF
100
AcDbEntity
  8
DIM
100
AcDbMText
 10
76.2839073321
 20
90.0962662128
 30
-18.268828526
 40
1.5
 41
0.0
 71
     1
 72
     1
  1
"
  7
SLDTEXTSTYLE0
 73
     1
 44
1.0
  0
ENDBLK
  5
2F1
330
2EF
100
AcDbEntity
  8
0
100
AcDbBlockEnd
  0
BLOCK
  5
300
330
2FF
100
AcDbEntity
  8
0
100
AcDbBlockBegin
  2
_D_7
 70
     0
 10
0.0
 20
0.0
 30
0.0
  3
_D_7
  1

  0
SOLID
  5
302
330
2FF
100
AcDbEntity
  8
DIM
100
AcDbTrace
 10
94.5634906724
 20
58.7705506802
 30
0.0
 11
93.5634906724
 21
59.0205506802
 31
0.0
 12
93.5634906724
 22
58.5205506802
 32
0.0
 13
93.5634906724
 23
58.5205506802
 33
0.0
  0
SOLID
  5
303
330
2FF
100
AcDbEntity
  8
DIM
100
AcDbTrace
 10
95.4883340024
 20
58.7705506802
 30
0.0
 11
96.4883340024
 21
58.5205506802
 31
0.0
 12
96.4883340024
 22
59.0205506802
 32
0.0
 13
96.4883340024
 23
59.0205506802
 33
0.0
  0
LINE
  5
304
330
2FF
100
AcDbEntity
  8
DIM
100
AcDbLine
 10
100.8414487251
 20
60.2705506987
 30
0.0
 11
99.0414487029
 21
57.2705506617
 31
0.0
  0
LINE
  5
305
330
2FF
100
AcDbEntity
  8
DIM
100
AcDbLine
 10
94.5634906724
 20
65.4186095859
 30
0.0
 11
94.5634906724
 21
58.7311806015
 31
0.0
  0
LINE
  5
306
330
2FF
100
AcDbEntity
  8
DIM
100
AcDbLine
 10
95.4883340024
 20
66.1416845859
 30
0.0
 11
95.4883340024
 21
58.7311806015
 31
0.0
  0
LINE
  5
307
330
2FF
100
AcDbEntity
  8
DIM
100
AcDbLine
 10
94.5634906724
 20
58.7705506802
 30
0.0
 11
93.0634906724
 21
58.7705506802
 31
0.0
  0
LINE
  5
308
330
2FF
100
AcDbEntity
  8
DIM
100
AcDbLine
 10
95.4883340024
 20
58.7705506802
 30
0.0
 11
97.7247820411
 21
58.7705506802
 31
0.0
  0
MTEXT
  5
309
330
2FF
100
AcDbEntity
  8
DIM
100
AcDbMText
 10
97.7247820411
 20
60.7041523265
 30
-18.268828526
 40
1.5
 41
0.0
 71
     1
 72
     1
  1
15
  7
SLDTEXTSTYLE0
 73
     1
 44
1.0
  0
MTEXT
  5
30A
330
2FF
100
AcDbEntity
  8
DIM
100
AcDbMText
 10
99.941448714
 20
58.7645689328
 30
-18.268828526
 40
1.5
 41
0.0
 71
     1
 72
     1
  1
16
  7
SLDTEXTSTYLE0
 73
     1
 44
1.0
  0
MTEXT
  5
30B
330
2FF
100
AcDbEntity
  8
DIM
100
AcDbMText
 10
102.1581153869
 20
59.6301940697
 30
-18.268828526
 40
1.5
 41
0.0
 71
     1
 72
     1
  1
"
  7
SLDTEXTSTYLE0
 73
     1
 44
1.0
  0
ENDBLK
  5
301
330
2FF
100
AcDbEntity
  8
0
100
AcDbBlockEnd
  0
BLOCK
  5
30E
330
30D
100
AcDbEntity
  8
0
100
AcDbBlockBegin
  2
_D_8
 70
     0
 10
0.0
 20
0.0
 30
0.0
  3
_D_8
  1

  0
SOLID
  5
310
330
30D
100
AcDbEntity
  8
DIM
100
AcDbTrace
 10
92.9358906724
 20
58.0178169048
 30
0.0
 11
91.9358906724
 21
58.2678169048
 31
0.0
 12
91.9358906724
 22
57.7678169048
 32
0.0
 13
91.9358906724
 23
57.7678169048
 33
0.0
  0
SOLID
  5
311
330
30D
100
AcDbEntity
  8
DIM
100
AcDbTrace
 10
57.0360906724
 20
58.0178169048
 30
0.0
 11
58.0360906724
 21
57.7678169048
 31
0.0
 12
58.0360906724
 22
58.2678169048
 32
0.0
 13
58.0360906724
 23
58.2678169048
 33
0.0
  0
LINE
  5
312
330
30D
100
AcDbEntity
  8
DIM
100
AcDbLine
 10
76.0755740068
 20
59.5178169234
 30
0.0
 11
74.2755739845
 21
56.5178168863
 31
0.0
  0
LINE
  5
313
330
30D
100
AcDbEntity
  8
DIM
100
AcDbLine
 10
92.9358906724
 20
62.0528945004
 30
0.0
 11
92.9358906724
 21
57.9784468261
 31
0.0
  0
LINE
  5
314
330
30D
100
AcDbEntity
  8
DIM
100
AcDbLine
 10
57.0360906724
 20
62.0528945004
 30
0.0
 11
57.0360906724
 21
57.9784468261
 31
0.0
  0
LINE
  5
315
330
30D
100
AcDbEntity
  8
DIM
100
AcDbLine
 10
92.9358906724
 20
58.0178169048
 30
0.0
 11
78.1214073585
 21
58.0178169048
 31
0.0
  0
LINE
  5
316
330
30D
100
AcDbEntity
  8
DIM
100
AcDbLine
 10
57.0360906724
 20
58.0178169048
 30
0.0
 11
71.8505739863
 21
58.0178169048
 31
0.0
  0
MTEXT
  5
317
330
30D
100
AcDbEntity
  8
DIM
100
AcDbMText
 10
71.8505739863
 20
58.8774602943
 30
-18.268828526
 40
1.5
 41
0.0
 71
     1
 72
     1
  1
35
  7
SLDTEXTSTYLE0
 73
     1
 44
1.0
  0
MTEXT
  5
318
330
30D
100
AcDbEntity
  8
DIM
100
AcDbMText
 10
74.0672406592
 20
59.9514185511
 30
-18.268828526
 40
1.5
 41
0.0
 71
     1
 72
     1
  1
7
  7
SLDTEXTSTYLE0
 73
     1
 44
1.0
  0
MTEXT
  5
319
330
30D
100
AcDbEntity
  8
DIM
100
AcDbMText
 10
75.1755739957
 20
58.0118351574
 30
-18.268828526
 40
1.5
 41
0.0
 71
     1
 72
     1
  1
8
  7
SLDTEXTSTYLE0
 73
     1
 44
1.0
  0
MTEXT
  5
31A
330
30D
100
AcDbEntity
  8
DIM
100
AcDbMText
 10
76.2839073321
 20
58.8774602943
 30
-18.268828526
 40
1.5
 41
0.0
 71
     1
 72
     1
  1
"
  7
SLDTEXTSTYLE0
 73
     1
 44
1.0
  0
ENDBLK
  5
30F
330
30D
100
AcDbEntity
  8
0
100
AcDbBlockEnd
  0
BLOCK
  5
31D
330
31C
100
AcDbEntity
  8
0
100
AcDbBlockBegin
  2
_D_9
 70
     0
 10
0.0
 20
0.0
 30
0.0
  3
_D_9
  1

  0
SOLID
  5
31F
330
31C
100
AcDbEntity
  8
DIM
100
AcDbTrace
 10
50.4836473424
 20
65.3933796647
 30
0.0
 11
50.7336473424
 21
66.3933796647
 31
0.0
 12
50.2336473424
 22
66.3933796647
 32
0.0
 13
50.2336473424
 23
66.3933796647
 33
0.0
  0
SOLID
  5
320
330
31C
100
AcDbEntity
  8
DIM
100
AcDbTrace
 10
50.4836473424
 20
62.0117308729
 30
0.0
 11
50.2336473424
 21
61.0117308729
 31
0.0
 12
50.7336473424
 22
61.0117308729
 32
0.0
 13
50.7336473424
 23
61.0117308729
 33
0.0
  0
LINE
  5
321
330
31C
100
AcDbEntity
  8
DIM
100
AcDbLine
 10
47.3011652529
 20
58.3541564853
 30
0.0
 11
45.5011652306
 21
55.3541564482
 31
0.0
  0
LINE
  5
322
330
31C
100
AcDbEntity
  8
DIM
100
AcDbLine
 10
55.433833292
 20
65.3933796647
 30
0.0
 11
50.4442772637
 21
65.3933796647
 31
0.0
  0
LINE
  5
323
330
31C
100
AcDbEntity
  8
DIM
100
AcDbLine
 10
57.0622904455
 20
62.0117308729
 30
0.0
 11
50.4442772637
 21
62.0117308729
 31
0.0
  0
LINE
  5
324
330
31C
100
AcDbEntity
  8
DIM
100
AcDbLine
 10
49.3469988246
 20
56.8541564667
 30
0.0
 11
50.4836473424
 21
56.8541564667
 31
0.0
  0
LINE
  5
325
330
31C
100
AcDbEntity
  8
DIM
100
AcDbLine
 10
50.4836473424
 20
56.8541564667
 30
0.0
 11
50.4836473424
 21
62.0117308729
 31
0.0
  0
LINE
  5
326
330
31C
100
AcDbEntity
  8
DIM
100
AcDbLine
 10
50.4836473424
 20
65.3933796647
 30
0.0
 11
50.4836473424
 21
66.8933796647
 31
0.0
  0
MTEXT
  5
327
330
31C
100
AcDbEntity
  8
DIM
100
AcDbMText
 10
44.1844985689
 20
57.7137998562
 30
-18.268828526
 40
1.5
 41
0.0
 71
     1
 72
     1
  1
3
  7
SLDTEXTSTYLE0
 73
     1
 44
1.0
  0
MTEXT
  5
328
330
31C
100
AcDbEntity
  8
DIM
100
AcDbMText
 10
45.2928319053
 20
58.7877581131
 30
-18.268828526
 40
1.5
 41
0.0
 71
     1
 72
     1
  1
3
  7
SLDTEXTSTYLE0
 73
     1
 44
1.0
  0
MTEXT
  5
329
330
31C
100
AcDbEntity
  8
DIM
100
AcDbMText
 10
46.4011652418
 20
56.8481747193
 30
-18.268828526
 40
1.5
 41
0.0
 71
     1
 72
     1
  1
8
  7
SLDTEXTSTYLE0
 73
     1
 44
1.0
  0
MTEXT
  5
32A
330
31C
100
AcDbEntity
  8
DIM
100
AcDbMText
 10
47.5094985049
 20
57.7137998562
 30
-18.268828526
 40
1.5
 41
0.0
 71
     1
 72
     1
  1
"
  7
SLDTEXTSTYLE0
 73
     1
 44
1.0
  0
ENDBLK
  5
31E
330
31C
100
AcDbEntity
  8
0
100
AcDbBlockEnd
  0
BLOCK
  5
32D
330
32C
100
AcDbEntity
  8
0
100
AcDbBlockBegin
  2
_D_10
 70
     0
 10
0.0
 20
0.0
 30
0.0
  3
_D_10
  1

  0
SOLID
  5
32F
330
32C
100
AcDbEntity
  8
DIM
100
AcDbTrace
 10
50.4836473424
 20
65.3933796647
 30
0.0
 11
50.7336473424
 21
66.3933796647
 31
0.0
 12
50.2336473424
 22
66.3933796647
 32
0.0
 13
50.2336473424
 23
66.3933796647
 33
0.0
  0
SOLID
  5
330
330
32C
100
AcDbEntity
  8
DIM
100
AcDbTrace
 10
50.4836473424
 20
84.6613796647
 30
0.0
 11
50.2336473424
 21
83.6613796647
 31
0.0
 12
50.7336473424
 22
83.6613796647
 32
0.0
 13
50.7336473424
 23
83.6613796647
 33
0.0
  0
LINE
  5
331
330
32C
100
AcDbEntity
  8
DIM
100
AcDbLine
 10
51.5732306768
 20
76.5273796832
 30
0.0
 11
49.7732306545
 21
73.5273796461
 31
0.0
  0
LINE
  5
332
330
32C
100
AcDbEntity
  8
DIM
100
AcDbLine
 10
55.433833292
 20
65.3933796647
 30
0.0
 11
50.4442772637
 21
65.3933796647
 31
0.0
  0
LINE
  5
333
330
32C
100
AcDbEntity
  8
DIM
100
AcDbLine
 10
58.8766205937
 20
84.6613796647
 30
0.0
 11
50.4442772637
 21
84.6613796647
 31
0.0
  0
LINE
  5
334
330
32C
100
AcDbEntity
  8
DIM
100
AcDbLine
 10
50.4836473424
 20
65.3933796647
 30
0.0
 11
50.4836473424
 21
73.0877962709
 31
0.0
  0
LINE
  5
335
330
32C
100
AcDbEntity
  8
DIM
100
AcDbLine
 10
50.4836473424
 20
84.6613796647
 30
0.0
 11
50.4836473424
 21
76.9669630584
 31
0.0
  0
MTEXT
  5
336
330
32C
100
AcDbEntity
  8
DIM
100
AcDbMText
 10
47.3482306563
 20
75.8870230541
 30
-18.268828526
 40
1.5
 41
0.0
 71
     1
 72
     1
  1
19
  7
SLDTEXTSTYLE0
 73
     1
 44
1.0
  0
MTEXT
  5
337
330
32C
100
AcDbEntity
  8
DIM
100
AcDbMText
 10
49.5648973292
 20
76.960981311
 30
-18.268828526
 40
1.5
 41
0.0
 71
     1
 72
     1
  1
1
  7
SLDTEXTSTYLE0
 73
     1
 44
1.0
  0
MTEXT
  5
338
330
32C
100
AcDbEntity
  8
DIM
100
AcDbMText
 10
50.6732306657
 20
75.0213979172
 30
-18.268828526
 40
1.5
 41
0.0
 71
     1
 72
     1
  1
4
  7
SLDTEXTSTYLE0
 73
     1
 44
1.0
  0
MTEXT
  5
339
330
32C
100
AcDbEntity
  8
DIM
100
AcDbMText
 10
51.7815640021
 20
75.8870230541
 30
-18.268828526
 40
1.5
 41
0.0
 71
     1
 72
     1
  1
"
  7
SLDTEXTSTYLE0
 73
     1
 44
1.0
  0
ENDBLK
  5
32E
330
32C
100
AcDbEntity
  8
0
100
AcDbBlockEnd
  0
BLOCK
  5
470
330
46F
100
AcDbEntity
  8
0
100
AcDbBlockBegin
  2
_D_11
 70
     0
 10
0.0
 20
0.0
 30
0.0
  3
_D_11
  1

  0
SOLID
  5
472
330
46F
100
AcDbEntity
  8
DIM
100
AcDbTrace
 10
134.7187938895
 20
7.5313417152
 30
0.0
 11
133.7187938895
 21
7.7813417152
 31
0.0
 12
133.7187938895
 22
7.2813417152
 32
0.0
 13
133.7187938895
 23
7.2813417152
 33
0.0
  0
SOLID
  5
473
330
46F
100
AcDbEntity
  8
DIM
100
AcDbTrace
 10
142.8784581256
 20
7.5313417152
 30
0.0
 11
143.8784581256
 21
7.2813417152
 31
0.0
 12
143.8784581256
 22
7.7813417152
 32
0.0
 13
143.8784581256
 23
7.7813417152
 33
0.0
  0
LINE
  5
474
330
46F
100
AcDbEntity
  8
DIM
100
AcDbLine
 10
138.7798760054
 20
9.0313417337
 30
0.0
 11
136.9798759832
 21
6.0313416967
 31
0.0
  0
LINE
  5
475
330
46F
100
AcDbEntity
  8
DIM
100
AcDbLine
 10
134.7187938895
 20
14.1932015851
 30
0.0
 11
134.7187938895
 21
7.4919716365
 31
0.0
  0
LINE
  5
476
330
46F
100
AcDbEntity
  8
DIM
100
AcDbLine
 10
142.8784581256
 20
11.5590710459
 30
0.0
 11
142.8784581256
 21
7.4919716365
 31
0.0
  0
LINE
  5
477
330
46F
100
AcDbEntity
  8
DIM
100
AcDbLine
 10
134.7187938895
 20
7.5313417152
 30
0.0
 11
133.2187938895
 21
7.5313417152
 31
0.0
  0
LINE
  5
478
330
46F
100
AcDbEntity
  8
DIM
100
AcDbLine
 10
142.8784581256
 20
7.5313417152
 30
0.0
 11
144.3784581256
 21
7.5313417152
 31
0.0
  0
MTEXT
  5
479
330
46F
100
AcDbEntity
  8
DIM
100
AcDbMText
 10
135.6632093214
 20
8.3909851046
 30
0.0039370079
 40
1.5
 41
0.0
 71
     1
 72
     1
  1
8
  7
SLDTEXTSTYLE0
 73
     1
 44
1.0
  0
MTEXT
  5
47A
330
46F
100
AcDbEntity
  8
DIM
100
AcDbMText
 10
136.7715426579
 20
9.4649433615
 30
0.0039370079
 40
1.5
 41
0.0
 71
     1
 72
     1
  1
3
  7
SLDTEXTSTYLE0
 73
     1
 44
1.0
  0
MTEXT
  5
47B
330
46F
100
AcDbEntity
  8
DIM
100
AcDbMText
 10
137.8798759943
 20
7.5253599678
 30
0.0039370079
 40
1.5
 41
0.0
 71
     1
 72
     1
  1
16
  7
SLDTEXTSTYLE0
 73
     1
 44
1.0
  0
MTEXT
  5
47C
330
46F
100
AcDbEntity
  8
DIM
100
AcDbMText
 10
140.0965426672
 20
8.3909851046
 30
0.0039370079
 40
1.5
 41
0.0
 71
     1
 72
     1
  1
"
  7
SLDTEXTSTYLE0
 73
     1
 44
1.0
  0
ENDBLK
  5
471
330
46F
100
AcDbEntity
  8
0
100
AcDbBlockEnd
  0
BLOCK
  5
47F
330
47E
100
AcDbEntity
  8
0
100
AcDbBlockBegin
  2
_D_12
 70
     0
 10
0.0
 20
0.0
 30
0.0
  3
_D_12
  1

  0
SOLID
  5
481
330
47E
100
AcDbEntity
  8
DIM
100
AcDbTrace
 10
116.9876291411
 20
11.5314411246
 30
0.0
 11
116.7376291411
 21
10.5314411246
 31
0.0
 12
117.2376291411
 22
10.5314411246
 32
0.0
 13
117.2376291411
 23
10.5314411246
 33
0.0
  0
SOLID
  5
482
330
47E
100
AcDbEntity
  8
DIM
100
AcDbTrace
 10
116.9876291411
 20
15.2787411246
 30
0.0
 11
117.2376291411
 21
16.2787411246
 31
0.0
 12
116.7376291411
 22
16.2787411246
 32
0.0
 13
116.7376291411
 23
16.2787411246
 33
0.0
  0
LINE
  5
483
330
47E
100
AcDbEntity
  8
DIM
100
AcDbLine
 10
113.7195470105
 20
9.0313417337
 30
0.0
 11
111.9195469882
 21
6.0313416967
 31
0.0
  0
LINE
  5
484
330
47E
100
AcDbEntity
  8
DIM
100
AcDbLine
 10
123.6380880468
 20
11.5314411246
 30
0.0
 11
116.9482590624
 21
11.5314411246
 31
0.0
  0
LINE
  5
485
330
47E
100
AcDbEntity
  8
DIM
100
AcDbLine
 10
133.523446985
 20
15.2787411246
 30
0.0
 11
116.9482590624
 21
15.2787411246
 31
0.0
  0
LINE
  5
486
330
47E
100
AcDbEntity
  8
DIM
100
AcDbLine
 10
115.7653805822
 20
7.5313417152
 30
0.0
 11
116.9876291411
 21
7.5313417152
 31
0.0
  0
LINE
  5
487
330
47E
100
AcDbEntity
  8
DIM
100
AcDbLine
 10
116.9876291411
 20
7.5313417152
 30
0.0
 11
116.9876291411
 21
11.5314411246
 31
0.0
  0
LINE
  5
488
330
47E
100
AcDbEntity
  8
DIM
100
AcDbLine
 10
116.9876291411
 20
15.2787411246
 30
0.0
 11
116.9876291411
 21
16.7787411246
 31
0.0
  0
MTEXT
  5
489
330
47E
100
AcDbEntity
  8
DIM
100
AcDbMText
 10
110.6028803265
 20
8.3909851046
 30
0.0039370079
 40
1.5
 41
0.0
 71
     1
 72
     1
  1
3
  7
SLDTEXTSTYLE0
 73
     1
 44
1.0
  0
MTEXT
  5
48A
330
47E
100
AcDbEntity
  8
DIM
100
AcDbMText
 10
111.7112136629
 20
9.4649433615
 30
0.0039370079
 40
1.5
 41
0.0
 71
     1
 72
     1
  1
3
  7
SLDTEXTSTYLE0
 73
     1
 44
1.0
  0
MTEXT
  5
48B
330
47E
100
AcDbEntity
  8
DIM
100
AcDbMText
 10
112.8195469994
 20
7.5253599678
 30
0.0039370079
 40
1.5
 41
0.0
 71
     1
 72
     1
  1
4
  7
SLDTEXTSTYLE0
 73
     1
 44
1.0
  0
MTEXT
  5
48C
330
47E
100
AcDbEntity
  8
DIM
100
AcDbMText
 10
113.9278802625
 20
8.3909851046
 30
0.0039370079
 40
1.5
 41
0.0
 71
     1
 72
     1
  1
"
  7
SLDTEXTSTYLE0
 73
     1
 44
1.0
  0
ENDBLK
  5
480
330
47E
100
AcDbEntity
  8
0
100
AcDbBlockEnd
  0
BLOCK
  5
48F
330
48E
100
AcDbEntity
  8
0
100
AcDbBlockBegin
  2
_D_13
 70
     0
 10
0.0
 20
0.0
 30
0.0
  3
_D_13
  1

  0
SOLID
  5
491
330
48E
100
AcDbEntity
  8
DIM
100
AcDbTrace
 10
147.4537012842
 20
50.2596716018
 30
0.0
 11
147.7037012842
 21
51.2596716018
 31
0.0
 12
147.2037012842
 22
51.2596716018
 32
0.0
 13
147.2037012842
 23
51.2596716018
 33
0.0
  0
SOLID
  5
492
330
48E
100
AcDbEntity
  8
DIM
100
AcDbTrace
 10
147.4537012842
 20
47.2444411246
 30
0.0
 11
147.2037012842
 21
46.2444411246
 31
0.0
 12
147.7037012842
 22
46.2444411246
 32
0.0
 13
147.7037012842
 23
46.2444411246
 33
0.0
  0
LINE
  5
493
330
48E
100
AcDbEntity
  8
DIM
100
AcDbLine
 10
141.2545282043
 20
50.2596716018
 30
0.0
 11
147.4930713629
 21
50.2596716018
 31
0.0
  0
LINE
  5
494
330
48E
100
AcDbEntity
  8
DIM
100
AcDbLine
 10
142.8391282043
 20
47.2444411246
 30
0.0
 11
147.4930713629
 21
47.2444411246
 31
0.0
  0
LINE
  5
495
330
48E
100
AcDbEntity
  8
DIM
100
AcDbLine
 10
147.4537012842
 20
50.2596716018
 30
0.0
 11
147.4537012842
 21
51.7596716018
 31
0.0
  0
LINE
  5
496
330
48E
100
AcDbEntity
  8
DIM
100
AcDbLine
 10
147.4537012842
 20
47.2444411246
 30
0.0
 11
147.4537012842
 21
45.7444411246
 31
0.0
  0
MTEXT
  5
497
330
48E
100
AcDbEntity
  8
DIM
100
AcDbMText
 10
145.9807845661
 20
49.4950329738
 30
0.0039370079
 40
1.5
 41
0.0
 71
     1
 72
     1
  1
3"
  7
SLDTEXTSTYLE0
 73
     1
 44
1.0
  0
ENDBLK
  5
490
330
48E
100
AcDbEntity
  8
0
100
AcDbBlockEnd
  0
ENDSEC
  0
SECTION
  2
ENTITIES
  0
INSERT
  5
4D
330
1F
100
AcDbEntity
  8
NOTES
100
AcDbBlockReference
  2
SW_NOTE_0
 10
3.5137949836
 20
89.0313916079
 30
0.0
  0
LINE
  5
4E
330
1F
100
AcDbEntity
  8
SLD-0
  6
Continuous
370
    15
100
AcDbLine
 10
57.1282290735
 20
41.8314857294
 30
0.0
 11
92.8437522714
 21
41.8314857294
 31
0.0
  0
LINE
  5
4F
330
1F
100
AcDbEntity
  8
SLD-0
  6
Continuous
370
    15
100
AcDbLine
 10
92.8703056713
 20
41.8633249349
 30
0.0
 11
92.8703162312
 21
41.8633530946
 31
0.0
  0
SPLINE
  5
50
330
1F
100
AcDbEntity
  8
SLD-0
  6
Continuous
370
    15
100
AcDbSpline
210
0.0
220
0.0
230
1.0
 70
     8
 71
     3
 72
    10
 73
     6
 74
     0
 42
0.00000001
 43
0.00000001
 12
1.0
 22
0.0
 32
0.0
 13
1.0
 23
0.0
 33
0.0
 40
0.0
 40
0.0
 40
0.0
 40
0.0
 40
0.0218791799706216
 40
0.4925961505510384
 40
1.0
 40
1.0
 40
1.0
 40
1.0
 10
92.43790565306159
 20
41.52833509809105
 30
0.0
 10
92.43794447193491
 20
41.52834397957567
 30
0.0
 10
92.43881845476162
 20
41.52854394068643
 30
0.0
 10
92.43787131307158
 20
41.53050908479194
 30
0.0
 10
92.43652263978642
 20
41.53578806360396
 30
0.0
 10
92.43582301045379
 20
41.53852655369182
 30
0.0
  0
SPLINE
  5
51
330
1F
100
AcDbEntity
  8
SLD-0
  6
Continuous
370
    15
100
AcDbSpline
210
0.0
220
0.0
230
1.0
 70
     8
 71
     3
 72
    10
 73
     6
 74
     0
 42
0.00000001
 43
0.00000001
 12
1.0
 22
0.0
 32
0.0
 13
1.0
 23
0.0
 33
0.0
 40
0.0
 40
0.0
 40
0.0
 40
0.0
 40
0.2512924986669386
 40
0.7398509051627994
 40
1.0
 40
1.0
 40
1.0
 40
1.0
 10
57.53638595839537
 20
41.53863684575104
 30
0.0
 10
57.53611969727115
 20
41.53729579092803
 30
0.0
 10
57.53533577600486
 20
41.53334748116968
 30
0.0
 10
57.53454824688153
 20
41.53044228914026
 30
0.0
 10
57.53551152617432
 20
41.52969350212673
 30
0.0
 10
57.53584623129701
 20
41.52943332540423
 30
0.0
  0
LINE
  5
52
330
1F
100
AcDbEntity
  8
SLD-0
  6
Continuous
370
    15
100
AcDbLine
 10
94.4859904734
 20
11.5984410974
 30
0.0
 11
94.4859904734
 21
12.5004411275
 31
0.0
  0
LINE
  5
53
330
1F
100
AcDbEntity
  8
SLD-0
  6
Continuous
370
    15
100
AcDbLine
 10
94.4859904734
 20
11.5984410974
 30
0.0
 11
55.4859908714
 21
11.5984410974
 31
0.0
  0
LINE
  5
54
330
1F
100
AcDbEntity
  8
SLD-0
  6
Continuous
370
    15
100
AcDbLine
 10
55.4859908714
 20
12.5004411275
 30
0.0
 11
55.4859908714
 21
11.5984410974
 31
0.0
  0
LINE
  5
55
330
1F
100
AcDbEntity
  8
SLD-0
  6
Continuous
370
    15
100
AcDbLine
 10
94.4859904734
 20
12.5004411275
 30
0.0
 11
55.4859908714
 21
12.5004411275
 31
0.0
  0
LINE
  5
56
330
1F
100
AcDbEntity
  8
SLD-0
  6
Continuous
370
    15
100
AcDbLine
 10
94.4859904734
 20
12.5674411243
 30
0.0
 11
94.4859904734
 21
12.5004411275
 31
0.0
  0
LINE
  5
57
330
1F
100
AcDbEntity
  8
SLD-0
  6
Continuous
370
    15
100
AcDbLine
 10
55.4859908714
 20
12.5004411275
 30
0.0
 11
55.4859908714
 21
12.5674411243
 31
0.0
  0
LINE
  5
58
330
1F
100
AcDbEntity
  8
SLD-0
  6
Continuous
370
    15
100
AcDbLine
 10
55.4859908714
 20
11.5314410914
 30
0.0
 11
94.4859904734
 21
11.5314410914
 31
0.0
  0
LINE
  5
59
330
1F
100
AcDbEntity
  8
SLD-0
  6
Continuous
370
    15
100
AcDbLine
 10
94.4859904734
 20
11.5984410974
 30
0.0
 11
94.4859904734
 21
11.5314410914
 31
0.0
  0
LINE
  5
5A
330
1F
100
AcDbEntity
  8
SLD-0
  6
Continuous
370
    15
100
AcDbLine
 10
55.4859908714
 20
11.5314410914
 30
0.0
 11
55.4859908714
 21
11.5984410974
 31
0.0
  0
LINE
  5
5B
330
1F
100
AcDbEntity
  8
SLD-0
  6
Continuous
370
    15
100
AcDbLine
 10
55.4549905895
 20
11.5984410974
 30
0.0
 11
55.4189907921
 21
11.5984410974
 31
0.0
  0
ARC
  5
5C
330
1F
100
AcDbEntity
  8
SLD-0
  6
Continuous
370
    15
100
AcDbCircle
 10
55.4859906724
 20
11.5984411246
 30
0.0
 40
0.0670000000000002
100
AcDbArc
 50
180.0
 51
270.0
  0
ARC
  5
5D
330
1F
100
AcDbEntity
  8
SLD-0
  6
Continuous
370
    15
100
AcDbCircle
 10
55.4859906724
 20
11.5984411246
 30
0.0
 40
0.0310000000000059
100
AcDbArc
 50
180.0
 51
270.0
  0
LINE
  5
5E
330
1F
100
AcDbEntity
  8
SLD-0
  6
Continuous
370
    15
100
AcDbLine
 10
55.4189907921
 20
12.5674411243
 30
0.0
 11
55.4549905895
 21
12.5674411243
 31
0.0
  0
LINE
  5
5F
330
1F
100
AcDbEntity
  8
SLD-0
  6
Continuous
370
    15
100
AcDbLine
 10
55.4549905895
 20
11.5984410974
 30
0.0
 11
55.4549905895
 21
12.5674411243
 31
0.0
  0
LINE
  5
60
330
1F
100
AcDbEntity
  8
SLD-0
  6
Continuous
370
    15
100
AcDbLine
 10
55.4189907921
 20
11.5984410974
 30
0.0
 11
55.4189907921
 21
12.5674411243
 31
0.0
  0
LINE
  5
61
330
1F
100
AcDbEntity
  8
SLD-0
  6
Continuous
370
    15
100
AcDbLine
 10
94.5529905528
 20
12.5674411243
 30
0.0
 11
94.5169907553
 21
12.5674411243
 31
0.0
  0
LINE
  5
62
330
1F
100
AcDbEntity
  8
SLD-0
  6
Continuous
370
    15
100
AcDbLine
 10
94.5169907553
 20
11.5984410974
 30
0.0
 11
94.5529905528
 21
11.5984410974
 31
0.0
  0
LINE
  5
63
330
1F
100
AcDbEntity
  8
SLD-0
  6
Continuous
370
    15
100
AcDbLine
 10
94.5169907553
 20
11.5984410974
 30
0.0
 11
94.5169907553
 21
12.5674411243
 31
0.0
  0
LINE
  5
64
330
1F
100
AcDbEntity
  8
SLD-0
  6
Continuous
370
    15
100
AcDbLine
 10
94.5529905528
 20
11.5984410974
 30
0.0
 11
94.5529905528
 21
12.5674411243
 31
0.0
  0
ARC
  5
65
330
1F
100
AcDbEntity
  8
SLD-0
  6
Continuous
370
    15
100
AcDbCircle
 10
94.4859906724
 20
11.5984411246
 30
0.0
 40
0.0670000000000073
100
AcDbArc
 50
270.0
 51
0.0
  0
ARC
  5
66
330
1F
100
AcDbEntity
  8
SLD-0
  6
Continuous
370
    15
100
AcDbCircle
 10
94.4859906724
 20
11.5984411246
 30
0.0
 40
0.0310000000000059
100
AcDbArc
 50
270.0
 51
360.0
  0
ARC
  5
67
330
1F
100
AcDbEntity
  8
SLD-0
  6
Continuous
370
    15
100
AcDbCircle
 10
94.4751884521
 20
11.5982564151
 30
0.0
 40
0.0309684189985146
100
AcDbArc
 50
290.414402629
 51
0.3416893616
  0
ARC
  5
68
330
1F
100
AcDbEntity
  8
SLD-0
  6
Continuous
370
    15
100
AcDbCircle
 10
55.4966946203
 20
11.598188566
 30
0.0
 40
0.0308706288297264
100
AcDbArc
 50
179.5312972327
 51
249.7126107767
  0
LINE
  5
69
330
1F
100
AcDbEntity
  8
SLD-0
  6
Continuous
370
    15
100
AcDbLine
 10
55.4658250244
 20
11.5984410974
 30
0.0
 11
55.4658250244
 21
12.5674411243
 31
0.0
  0
LINE
  5
6A
330
1F
100
AcDbEntity
  8
SLD-0
  6
Continuous
370
    15
100
AcDbLine
 10
55.4549905895
 20
12.5674411243
 30
0.0
 11
55.4658250244
 21
12.5674411243
 31
0.0
  0
LINE
  5
6B
330
1F
100
AcDbEntity
  8
SLD-0
  6
Continuous
370
    15
100
AcDbLine
 10
55.4658250244
 20
12.5674411243
 30
0.0
 11
55.4732028591
 21
12.5674411243
 31
0.0
  0
LINE
  5
6C
330
1F
100
AcDbEntity
  8
SLD-0
  6
Continuous
370
    15
100
AcDbLine
 10
94.5061563205
 20
12.5674411243
 30
0.0
 11
94.5061563205
 21
11.5984410974
 31
0.0
  0
LINE
  5
6D
330
1F
100
AcDbEntity
  8
SLD-0
  6
Continuous
370
    15
100
AcDbLine
 10
94.5169907553
 20
12.5674411243
 30
0.0
 11
94.5061563205
 21
12.5674411243
 31
0.0
  0
LINE
  5
6E
330
1F
100
AcDbEntity
  8
SLD-0
  6
Continuous
370
    15
100
AcDbLine
 10
94.5061563205
 20
12.5674411243
 30
0.0
 11
94.4987784857
 21
12.5674411243
 31
0.0
  0
SPLINE
  5
6F
330
1F
100
AcDbEntity
  8
SLD-0
  6
Continuous
370
    15
100
AcDbSpline
210
0.0
220
0.0
230
1.0
 70
     8
 71
     3
 72
    15
 73
    11
 74
     0
 42
0.00000001
 43
0.00000001
 12
1.0
 22
0.0
 32
0.0
 13
1.0
 23
0.0
 33
0.0
 40
0.0
 40
0.0
 40
0.0
 40
0.0
 40
0.140659488589467
 40
0.2812941482714895
 40
0.4219391407131955
 40
0.5625768925578998
 40
0.7032242443843946
 40
0.8438589040664171
 40
0.9845088042178184
 40
1.0
 40
1.0
 40
1.0
 40
1.0
 10
92.89099012565777
 20
41.89330090864153
 30
0.0
 10
92.8887757611465
 20
41.89142411908043
 30
0.0
 10
92.8843474229988
 20
41.88767087124504
 30
0.0
 10
92.8777034904825
 20
41.87711865978643
 30
0.0
 10
92.87105869592942
 20
41.86479019494175
 30
0.0
 10
92.86441586545176
 20
41.85218938030903
 30
0.0
 10
92.85777073386524
 20
41.84118275414561
 30
0.0
 10
92.85112878335102
 20
41.83403114591439
 30
0.0
 10
92.84645167680495
 20
41.83086476538728
 30
0.0
 10
92.84399591442278
 20
41.83164743571987
 30
0.0
 10
92.8437522713535
 20
41.83172508663734
 30
0.0
  0
SPLINE
  5
70
330
1F
100
AcDbEntity
  8
SLD-0
  6
Continuous
370
    15
100
AcDbSpline
210
0.0
220
0.0
230
1.0
 70
     8
 71
     3
 72
    15
 73
    11
 74
     0
 42
0.00000001
 43
0.00000001
 12
1.0
 22
0.0
 32
0.0
 13
1.0
 23
0.0
 33
0.0
 40
0.0
 40
0.0
 40
0.0
 40
0.0
 40
0.0154911957821816
 40
0.156141095933583
 40
0.2967757556156054
 40
0.4374231074421002
 40
0.5780608592868045
 40
0.7187058517285105
 40
0.859340511410533
 40
1.0
 40
1.0
 40
1.0
 40
1.0
 10
57.12822907345853
 20
41.83172508663735
 30
0.0
 10
57.12798543038924
 20
41.83164743571987
 30
0.0
 10
57.1255296680071
 20
41.83086476538728
 30
0.0
 10
57.12085256146101
 20
41.83403114591439
 30
0.0
 10
57.11421061094681
 20
41.84118275414559
 30
0.0
 10
57.10756547936026
 20
41.85218938030904
 30
0.0
 10
57.10092264888262
 20
41.86479019494175
 30
0.0
 10
57.09427785432952
 20
41.87711865978643
 30
0.0
 10
57.08763392181325
 20
41.88767087124505
 30
0.0
 10
57.08320558366553
 20
41.89142411908043
 30
0.0
 10
57.08099121915426
 20
41.89330090864153
 30
0.0
  0
LINE
  5
71
330
1F
100
AcDbEntity
  8
SLD-0
  6
Continuous
370
    15
100
AcDbLine
 10
92.8909901257
 20
41.8933009086
 30
0.0
 11
57.0809912192
 21
41.8933009086
 31
0.0
  0
LINE
  5
72
330
1F
100
AcDbEntity
  8
SLD-0
  6
Continuous
370
    15
100
AcDbLine
 10
57.10169562
 20
41.8632381093
 30
0.0
 11
57.0809912192
 21
41.8652045932
 31
0.0
  0
LINE
  5
73
330
1F
100
AcDbEntity
  8
SLD-0
  6
Continuous
370
    15
100
AcDbLine
 10
57.0809912192
 20
41.8652045932
 30
0.0
 11
57.0809912192
 21
41.8933009086
 31
0.0
  0
LINE
  5
74
330
1F
100
AcDbEntity
  8
SLD-0
  6
Continuous
370
    15
100
AcDbLine
 10
92.8909901257
 20
41.8652045932
 30
0.0
 11
92.8909901257
 21
41.8933009086
 31
0.0
  0
LINE
  5
75
330
1F
100
AcDbEntity
  8
SLD-0
  6
Continuous
370
    15
100
AcDbLine
 10
92.8909901257
 20
41.8652045932
 30
0.0
 11
92.8702857248
 21
41.8632381093
 31
0.0
  0
LINE
  5
76
330
1F
100
AcDbEntity
  8
SLD-0
  6
Continuous
370
    15
100
AcDbLine
 10
92.8909901257
 20
42.939834099
 30
0.0
 11
57.0809912192
 21
42.939834099
 31
0.0
  0
LINE
  5
77
330
1F
100
AcDbEntity
  8
SLD-0
  6
Continuous
370
    15
100
AcDbLine
 10
92.8909901257
 20
42.939834099
 30
0.0
 11
92.8909901257
 21
41.8933009086
 31
0.0
  0
LINE
  5
78
330
1F
100
AcDbEntity
  8
SLD-0
  6
Continuous
370
    15
100
AcDbLine
 10
57.0809912192
 20
42.939834099
 30
0.0
 11
57.0809912192
 21
41.8933009086
 31
0.0
  0
ARC
  5
79
330
1F
100
AcDbEntity
  8
SLD-0
  6
Continuous
370
    15
100
AcDbCircle
 10
92.8923013123
 20
42.8962419358
 30
0.0
 40
0.0436118780424302
100
AcDbArc
 50
1.8390408739
 51
91.7228513436
  0
LINE
  5
7A
330
1F
100
AcDbEntity
  8
SLD-0
  6
Continuous
370
    15
100
AcDbLine
 10
92.935890727
 20
42.8976415197
 30
0.0
 11
92.935890727
 21
41.8671992368
 31
0.0
  0
SPLINE
  5
7B
330
1F
100
AcDbEntity
  8
SLD-0
  6
Continuous
370
    15
100
AcDbSpline
210
0.0
220
0.0
230
1.0
 70
     8
 71
     3
 72
    11
 73
     7
 74
     0
 42
0.00000001
 43
0.00000001
 12
1.0
 22
0.0
 32
0.0
 13
1.0
 23
0.0
 33
0.0
 40
0.0
 40
0.0
 40
0.0
 40
0.0
 40
0.258286999334593
 40
0.516739440987599
 40
0.7752247953323453
 40
1.0
 40
1.0
 40
1.0
 40
1.0
 10
92.93589072696219
 20
41.86719923683693
 30
0.0
 10
92.93516931561764
 20
41.87152605135022
 30
0.0
 10
92.93372603083803
 20
41.88018245186057
 30
0.0
 10
92.92265909159653
 20
41.89027325661035
 30
0.0
 10
92.9076369383731
 20
41.89547462092613
 30
0.0
 10
92.89627487386838
 20
41.8939909820089
 30
0.0
 10
92.89099012565777
 20
41.89330090864154
 30
0.0
  0
SPLINE
  5
7C
330
1F
100
AcDbEntity
  8
SLD-0
  6
Continuous
370
    15
100
AcDbSpline
210
0.0
220
0.0
230
1.0
 70
     8
 71
     3
 72
     9
 73
     5
 74
     0
 42
0.00000001
 43
0.00000001
 12
1.0
 22
0.0
 32
0.0
 13
1.0
 23
0.0
 33
0.0
 40
0.0
 40
0.0
 40
0.0
 40
0.0
 40
0.5000106613033332
 40
1.0
 40
1.0
 40
1.0
 40
1.0
 10
92.90599101903284
 20
41.86719923683693
 30
0.0
 10
92.90504410092956
 20
41.8683264303313
 30
0.0
 10
92.90315030510364
 20
41.87058076925165
 30
0.0
 10
92.89504346118672
 20
41.86699662641784
 30
0.0
 10
92.89099012565777
 20
41.86520459321256
 30
0.0
  0
LINE
  5
7D
330
1F
100
AcDbEntity
  8
SLD-0
  6
Continuous
370
    15
100
AcDbLine
 10
92.935890727
 20
41.8671992368
 30
0.0
 11
92.905991019
 21
41.8671992368
 31
0.0
  0
SPLINE
  5
7E
330
1F
100
AcDbEntity
  8
SLD-0
  6
Continuous
370
    15
100
AcDbSpline
210
0.0
220
0.0
230
1.0
 70
     8
 71
     3
 72
     9
 73
     5
 74
     0
 42
0.00000001
 43
0.00000001
 12
1.0
 22
0.0
 32
0.0
 13
1.0
 23
0.0
 33
0.0
 40
0.0
 40
0.0
 40
0.0
 40
0.0
 40
0.4999893386966669
 40
1.0
 40
1.0
 40
1.0
 40
1.0
 10
57.08099121915426
 20
41.86520459321256
 30
0.0
 10
57.07693788362532
 20
41.86699662641784
 30
0.0
 10
57.0688310397084
 20
41.87058076925166
 30
0.0
 10
57.06693724388248
 20
41.86832643033131
 30
0.0
 10
57.06599032577919
 20
41.86719923683693
 30
0.0
  0
LINE
  5
7F
330
1F
100
AcDbEntity
  8
SLD-0
  6
Continuous
370
    15
100
AcDbLine
 10
57.0659903258
 20
41.8671992368
 30
0.0
 11
57.0360906178
 21
41.8671992368
 31
0.0
  0
SPLINE
  5
80
330
1F
100
AcDbEntity
  8
SLD-0
  6
Continuous
370
    15
100
AcDbSpline
210
0.0
220
0.0
230
1.0
 70
     8
 71
     3
 72
    11
 73
     7
 74
     0
 42
0.00000001
 43
0.00000001
 12
1.0
 22
0.0
 32
0.0
 13
1.0
 23
0.0
 33
0.0
 40
0.0
 40
0.0
 40
0.0
 40
0.0
 40
0.2582751752183826
 40
0.516737379264115
 40
0.7752159117431701
 40
1.0
 40
1.0
 40
1.0
 40
1.0
 10
57.08099121915426
 20
41.89330090864153
 30
0.0
 10
57.07491154834492
 20
41.89400819237112
 30
0.0
 10
57.06274780415947
 20
41.89542327200667
 30
0.0
 10
57.04758429470829
 20
41.88918668070015
 30
0.0
 10
57.03781608332219
 20
41.8790466400422
 30
0.0
 10
57.03663840259073
 20
41.87096044029128
 30
0.0
 10
57.03609061784984
 20
41.86719923683693
 30
0.0
  0
ARC
  5
81
330
1F
100
AcDbEntity
  8
SLD-0
  6
Continuous
370
    15
100
AcDbCircle
 10
57.0796800325
 20
42.8962419358
 30
0.0
 40
0.0436118780424391
100
AcDbArc
 50
88.2771486564
 51
178.1609591261
  0
LINE
  5
82
330
1F
100
AcDbEntity
  8
SLD-0
  6
Continuous
370
    15
100
AcDbLine
 10
57.0360906178
 20
41.8671992368
 30
0.0
 11
57.0360906178
 21
42.8976415197
 31
0.0
  0
LINE
  5
83
330
1F
100
AcDbEntity
  8
SLD-0
  6
Continuous
370
    15
100
AcDbLine
 10
92.8909901257
 20
42.9425421211
 30
0.0
 11
57.0809912192
 21
42.9425421211
 31
0.0
  0
LINE
  5
84
330
1F
100
AcDbEntity
  8
SLD-0
  6
Continuous
370
    15
100
AcDbLine
 10
92.8909901257
 20
42.9425421211
 30
0.0
 11
92.8909901257
 21
42.939834099
 31
0.0
  0
LINE
  5
85
330
1F
100
AcDbEntity
  8
SLD-0
  6
Continuous
370
    15
100
AcDbLine
 10
57.0809912192
 20
42.939834099
 30
0.0
 11
57.0809912192
 21
42.9425421211
 31
0.0
  0
CIRCLE
  5
86
330
1F
100
AcDbEntity
  8
SLD-0
  6
Continuous
370
    15
100
AcDbCircle
 10
95.3013340024
 20
39.6292411246
 30
0.0
 40
0.09375
  0
LINE
  5
87
330
1F
100
AcDbEntity
  8
SLD-0
  6
Continuous
370
    15
100
AcDbLine
 10
95.4883340943
 20
38.0667413801
 30
0.0
 11
94.5634905915
 21
38.0667413801
 31
0.0
  0
LINE
  5
88
330
1F
100
AcDbEntity
  8
SLD-0
  6
Continuous
370
    15
100
AcDbLine
 10
95.4883340943
 20
41.1917401598
 30
0.0
 11
94.5634905915
 21
41.1917401598
 31
0.0
  0
LINE
  5
89
330
1F
100
AcDbEntity
  8
SLD-0
  6
Continuous
370
    15
100
AcDbLine
 10
95.4883340943
 20
41.1917401598
 30
0.0
 11
95.4883340943
 21
38.0667413801
 31
0.0
  0
LINE
  5
8A
330
1F
100
AcDbEntity
  8
SLD-0
  6
Continuous
370
    15
100
AcDbLine
 10
54.4836472506
 20
18.653740894
 30
0.0
 11
54.4836472506
 21
21.7787408471
 31
0.0
  0
CIRCLE
  5
8B
330
1F
100
AcDbEntity
  8
SLD-0
  6
Continuous
370
    15
100
AcDbCircle
 10
54.6706473424
 20
20.2162411246
 30
0.0
 40
0.09375
  0
LINE
  5
8C
330
1F
100
AcDbEntity
  8
SLD-0
  6
Continuous
370
    15
100
AcDbLine
 10
54.4836472506
 20
21.7787408471
 30
0.0
 11
55.4084907534
 21
21.7787408471
 31
0.0
  0
LINE
  5
8D
330
1F
100
AcDbEntity
  8
SLD-0
  6
Continuous
370
    15
100
AcDbLine
 10
54.4836472506
 20
18.653740894
 30
0.0
 11
55.4084907534
 21
18.653740894
 31
0.0
  0
LINE
  5
8E
330
1F
100
AcDbEntity
  8
SLD-0
  6
Continuous
370
    15
100
AcDbLine
 10
54.4836472506
 20
38.5667422173
 30
0.0
 11
55.4084907534
 21
38.5667422173
 31
0.0
  0
LINE
  5
8F
330
1F
100
AcDbEntity
  8
SLD-0
  6
Continuous
370
    15
100
AcDbLine
 10
54.4836472506
 20
41.6917409971
 30
0.0
 11
55.4084907534
 21
41.6917409971
 31
0.0
  0
LINE
  5
90
330
1F
100
AcDbEntity
  8
SLD-0
  6
Continuous
370
    15
100
AcDbLine
 10
54.4836472506
 20
38.5667422173
 30
0.0
 11
54.4836472506
 21
41.6917409971
 31
0.0
  0
CIRCLE
  5
91
330
1F
100
AcDbEntity
  8
SLD-0
  6
Continuous
370
    15
100
AcDbCircle
 10
54.6706473424
 20
40.1292411246
 30
0.0
 40
0.09375
  0
CIRCLE
  5
92
330
1F
100
AcDbEntity
  8
SLD-0
  6
Continuous
370
    15
100
AcDbCircle
 10
95.3013340024
 20
19.7162411246
 30
0.0
 40
0.09375
  0
LINE
  5
93
330
1F
100
AcDbEntity
  8
SLD-0
  6
Continuous
370
    15
100
AcDbLine
 10
95.4883340943
 20
21.2787411831
 30
0.0
 11
95.4883340943
 21
18.1537412301
 31
0.0
  0
LINE
  5
94
330
1F
100
AcDbEntity
  8
SLD-0
  6
Continuous
370
    15
100
AcDbLine
 10
95.4883340943
 20
21.2787411831
 30
0.0
 11
94.5634905915
 21
21.2787411831
 31
0.0
  0
LINE
  5
95
330
1F
100
AcDbEntity
  8
SLD-0
  6
Continuous
370
    15
100
AcDbLine
 10
95.4883340943
 20
18.1537412301
 30
0.0
 11
94.5634905915
 21
18.1537412301
 31
0.0
  0
SPLINE
  5
96
330
1F
100
AcDbEntity
  8
SLD-0
  6
Continuous
370
    15
100
AcDbSpline
210
0.0
220
0.0
230
1.0
 70
     8
 71
     3
 72
    11
 73
     7
 74
     0
 42
0.00000001
 43
0.00000001
 12
1.0
 22
0.0
 32
0.0
 13
1.0
 23
0.0
 33
0.0
 40
0.0
 40
0.0
 40
0.0
 40
0.0
 40
0.2499972621798613
 40
0.4999999999982294
 40
0.7500025710524268
 40
1.0
 40
1.0
 40
1.0
 40
1.0
 10
55.47309022043046
 20
13.06976653723686
 30
0.0
 10
55.4646254801293
 20
13.07527586201031
 30
0.0
 10
55.4476958141255
 20
13.08629463222681
 30
0.0
 10
55.4263426093086
 20
13.10282237268733
 30
0.0
 10
55.41140397208375
 20
13.11935005088831
 30
0.0
 10
55.4094618196072
 20
13.13036885040891
 30
0.0
 10
55.40849075335569
 20
13.13587819350936
 30
0.0
  0
LINE
  5
97
330
1F
100
AcDbEntity
  8
SLD-0
  6
Continuous
370
    15
100
AcDbLine
 10
55.4084907534
 20
46.7690030908
 30
0.0
 11
55.4084907534
 21
13.1358781935
 31
0.0
  0
SPLINE
  5
98
330
1F
100
AcDbEntity
  8
SLD-0
  6
Continuous
370
    15
100
AcDbSpline
210
0.0
220
0.0
230
1.0
 70
     8
 71
     3
 72
    11
 73
     7
 74
     0
 42
0.00000001
 43
0.00000001
 12
1.0
 22
0.0
 32
0.0
 13
1.0
 23
0.0
 33
0.0
 40
0.0
 40
0.0
 40
0.0
 40
0.0
 40
0.2500053506001714
 40
0.5000053367063144
 40
0.7500053228124574
 40
0.9999999999999999
 40
0.9999999999999999
 40
0.9999999999999999
 40
0.9999999999999999
 10
55.40849075335569
 20
46.76900309078052
 30
0.0
 10
55.40946176049339
 20
46.77451317623218
 30
0.0
 10
55.4114037539334
 20
46.78553322890274
 30
0.0
 10
55.42634260330233
 20
46.80206008502459
 30
0.0
 10
55.44769582352971
 20
46.81858740921009
 30
0.0
 10
55.46462548138297
 20
46.82960582010134
 30
0.0
 10
55.47309022043046
 20
46.83511496705049
 30
0.0
  0
LINE
  5
99
330
1F
100
AcDbEntity
  8
SLD-0
  6
Continuous
370
    15
100
AcDbLine
 10
55.4730902204
 20
13.0697665372
 30
0.0
 11
55.4730902204
 21
46.8351149671
 31
0.0
  0
LINE
  5
9A
330
1F
100
AcDbEntity
  8
SLD-0
  6
Continuous
370
    15
100
AcDbLine
 10
55.4732028591
 20
47.2728406837
 30
0.0
 11
55.4732028591
 21
46.8352276057
 31
0.0
  0
LINE
  5
9B
330
1F
100
AcDbEntity
  8
SLD-0
  6
Continuous
370
    15
100
AcDbLine
 10
55.4732028591
 20
47.2728406837
 30
0.0
 11
94.4987784857
 21
47.2728406837
 31
0.0
  0
LINE
  5
9C
330
1F
100
AcDbEntity
  8
SLD-0
  6
Continuous
370
    15
100
AcDbLine
 10
94.4987784857
 20
46.8352276057
 30
0.0
 11
94.4987784857
 21
47.2728406837
 31
0.0
  0
LINE
  5
9D
330
1F
100
AcDbEntity
  8
SLD-0
  6
Continuous
370
    15
100
AcDbLine
 10
94.4988911244
 20
46.8351149671
 30
0.0
 11
94.4987784857
 21
46.8352276057
 31
0.0
  0
LINE
  5
9E
330
1F
100
AcDbEntity
  8
SLD-0
  6
Continuous
370
    15
100
AcDbLine
 10
94.4988911244
 20
46.8351149671
 30
0.0
 11
94.4988911244
 21
13.0697665372
 31
0.0
  0
LINE
  5
9F
330
1F
100
AcDbEntity
  8
SLD-0
  6
Continuous
370
    15
100
AcDbLine
 10
94.4987784857
 20
13.0696538252
 30
0.0
 11
94.4988911244
 21
13.0697665372
 31
0.0
  0
LINE
  5
A0
330
1F
100
AcDbEntity
  8
SLD-0
  6
Continuous
370
    15
100
AcDbLine
 10
94.4987784857
 20
12.6320411248
 30
0.0
 11
94.4987784857
 21
13.0696538252
 31
0.0
  0
LINE
  5
A1
330
1F
100
AcDbEntity
  8
SLD-0
  6
Continuous
370
    15
100
AcDbLine
 10
94.4987784857
 20
12.6320411248
 30
0.0
 11
55.4732028591
 21
12.6320411248
 31
0.0
  0
LINE
  5
A2
330
1F
100
AcDbEntity
  8
SLD-0
  6
Continuous
370
    15
100
AcDbLine
 10
55.4732028591
 20
13.0696538252
 30
0.0
 11
55.4732028591
 21
12.6320411248
 31
0.0
  0
LINE
  5
A3
330
1F
100
AcDbEntity
  8
SLD-0
  6
Continuous
370
    15
100
AcDbLine
 10
55.4730902204
 20
13.0697665372
 30
0.0
 11
55.4732028591
 21
13.0696538252
 31
0.0
  0
LINE
  5
A4
330
1F
100
AcDbEntity
  8
SLD-0
  6
Continuous
370
    15
100
AcDbLine
 10
93.0505909486
 20
42.3810921803
 30
0.0
 11
93.0505909486
 21
19.2539408938
 31
0.0
  0
LINE
  5
A5
330
1F
100
AcDbEntity
  8
SLD-0
  6
Continuous
370
    15
100
AcDbLine
 10
93.0505909486
 20
42.3810921803
 30
0.0
 11
93.0505909486
 21
43.0068400449
 31
0.0
  0
LINE
  5
A6
330
1F
100
AcDbEntity
  8
SLD-0
  6
Continuous
370
    15
100
AcDbLine
 10
93.0505909486
 20
43.0068400449
 30
0.0
 11
92.4248419106
 21
43.0068400449
 31
0.0
  0
LINE
  5
A7
330
1F
100
AcDbEntity
  8
SLD-0
  6
Continuous
370
    15
100
AcDbLine
 10
57.5471394342
 20
43.0068400449
 30
0.0
 11
92.4248419106
 21
43.0068400449
 31
0.0
  0
LINE
  5
A8
330
1F
100
AcDbEntity
  8
SLD-0
  6
Continuous
370
    15
100
AcDbLine
 10
57.5471394342
 20
43.0068400449
 30
0.0
 11
56.9213903962
 21
43.0068400449
 31
0.0
  0
LINE
  5
A9
330
1F
100
AcDbEntity
  8
SLD-0
  6
Continuous
370
    15
100
AcDbLine
 10
56.9213903962
 20
43.0068400449
 30
0.0
 11
56.9213903962
 21
42.3810921803
 31
0.0
  0
LINE
  5
AA
330
1F
100
AcDbEntity
  8
SLD-0
  6
Continuous
370
    15
100
AcDbLine
 10
56.9213903962
 20
19.2539408938
 30
0.0
 11
56.9213903962
 21
42.3810921803
 31
0.0
  0
LINE
  5
AB
330
1F
100
AcDbEntity
  8
SLD-0
  6
Continuous
370
    15
100
AcDbLine
 10
56.9213903962
 20
19.2539408938
 30
0.0
 11
56.9213903962
 21
18.6284411863
 31
0.0
  0
LINE
  5
AC
330
1F
100
AcDbEntity
  8
SLD-0
  6
Continuous
370
    15
100
AcDbLine
 10
56.9213903962
 20
18.6284411863
 30
0.0
 11
57.9218907317
 21
18.6284411863
 31
0.0
  0
LINE
  5
AD
330
1F
100
AcDbEntity
  8
SLD-0
  6
Continuous
370
    15
100
AcDbLine
 10
92.0500906131
 20
18.6284411863
 30
0.0
 11
57.9218907317
 21
18.6284411863
 31
0.0
  0
LINE
  5
AE
330
1F
100
AcDbEntity
  8
SLD-0
  6
Continuous
370
    15
100
AcDbLine
 10
92.0500906131
 20
18.6284411863
 30
0.0
 11
93.0505909486
 21
18.6284411863
 31
0.0
  0
LINE
  5
AF
330
1F
100
AcDbEntity
  8
SLD-0
  6
Continuous
370
    15
100
AcDbLine
 10
93.0505909486
 20
18.6284411863
 30
0.0
 11
93.0505909486
 21
19.2539408938
 31
0.0
  0
LINE
  5
B0
330
1F
100
AcDbEntity
  8
SLD-0
  6
Continuous
370
    15
100
AcDbLine
 10
55.4732028591
 20
46.8352276057
 30
0.0
 11
55.4730902204
 21
46.8351149671
 31
0.0
  0
SPLINE
  5
B1
330
1F
100
AcDbEntity
  8
SLD-0
  6
Continuous
370
    15
100
AcDbSpline
210
0.0
220
0.0
230
1.0
 70
     8
 71
     3
 72
    11
 73
     7
 74
     0
 42
0.00000001
 43
0.00000001
 12
1.0
 22
0.0
 32
0.0
 13
1.0
 23
0.0
 33
0.0
 40
0.0
 40
0.0
 40
0.0
 40
0.0
 40
0.2499946771875426
 40
0.4999946632936856
 40
0.7499946493998286
 40
0.9999999999999999
 40
0.9999999999999999
 40
0.9999999999999999
 40
0.9999999999999999
 10
94.49889112438156
 20
46.83511496705049
 30
0.0
 10
94.50735586342905
 20
46.82960582010135
 30
0.0
 10
94.52428552128232
 20
46.8185874092101
 30
0.0
 10
94.54563874150969
 20
46.80206008502457
 30
0.0
 10
94.56057759087862
 20
46.78553322890274
 30
0.0
 10
94.56251958431864
 20
46.77451317623218
 30
0.0
 10
94.56349059145633
 20
46.76900309078052
 30
0.0
  0
LINE
  5
B2
330
1F
100
AcDbEntity
  8
SLD-0
  6
Continuous
370
    15
100
AcDbLine
 10
94.5634905915
 20
13.1358781935
 30
0.0
 11
94.5634905915
 21
46.7690030908
 31
0.0
  0
SPLINE
  5
B3
330
1F
100
AcDbEntity
  8
SLD-0
  6
Continuous
370
    15
100
AcDbSpline
210
0.0
220
0.0
230
1.0
 70
     8
 71
     3
 72
    11
 73
     7
 74
     0
 42
0.00000001
 43
0.00000001
 12
1.0
 22
0.0
 32
0.0
 13
1.0
 23
0.0
 33
0.0
 40
0.0
 40
0.0
 40
0.0
 40
0.0
 40
0.2499974289475732
 40
0.5000000000017707
 40
0.7500027378201387
 40
1.0
 40
1.0
 40
1.0
 40
1.0
 10
94.56349059145633
 20
13.13587819350936
 30
0.0
 10
94.56251952520483
 20
13.13036885040891
 30
0.0
 10
94.5605773727283
 20
13.11935005088831
 30
0.0
 10
94.54563873550343
 20
13.10282237268733
 30
0.0
 10
94.52428553068654
 20
13.08629463222681
 30
0.0
 10
94.50735586468272
 20
13.07527586201031
 30
0.0
 10
94.49889112438156
 20
13.06976653723686
 30
0.0
  0
LINE
  5
B4
330
1F
100
AcDbEntity
  8
SLD-0
  6
Continuous
370
    15
100
AcDbLine
 10
92.0500906131
 20
18.69304124
 30
0.0
 11
92.0500906131
 21
18.6284411863
 31
0.0
  0
LINE
  5
B5
330
1F
100
AcDbEntity
  8
SLD-0
  6
Continuous
370
    15
100
AcDbLine
 10
92.0500906131
 20
18.69304124
 30
0.0
 11
57.9218907317
 21
18.69304124
 31
0.0
  0
LINE
  5
B6
330
1F
100
AcDbEntity
  8
SLD-0
  6
Continuous
370
    15
100
AcDbLine
 10
57.9218907317
 20
18.6284411863
 30
0.0
 11
57.9218907317
 21
18.69304124
 31
0.0
  0
LINE
  5
B7
330
1F
100
AcDbEntity
  8
SLD-0
  6
Continuous
370
    15
100
AcDbLine
 10
92.9859903082
 20
19.2539408938
 30
0.0
 11
92.9859903082
 21
42.3810921803
 31
0.0
  0
LINE
  5
B8
330
1F
100
AcDbEntity
  8
SLD-0
  6
Continuous
370
    15
100
AcDbLine
 10
92.9859903082
 20
42.3810921803
 30
0.0
 11
93.0505909486
 21
42.3810921803
 31
0.0
  0
LINE
  5
B9
330
1F
100
AcDbEntity
  8
SLD-0
  6
Continuous
370
    15
100
AcDbLine
 10
93.0505909486
 20
19.2539408938
 30
0.0
 11
92.9859903082
 21
19.2539408938
 31
0.0
  0
SPLINE
  5
BA
330
1F
100
AcDbEntity
  8
SLD-0
  6
Continuous
370
    15
100
AcDbSpline
210
0.0
220
0.0
230
1.0
 70
    24
 71
     3
 72
    11
 73
     7
 74
     0
 42
0.00000001
 43
0.00000001
 12
1.0
 22
0.0
 32
0.0
 13
1.0
 23
0.0
 33
0.0
 40
0.0
 40
0.0
 40
0.0
 40
0.0
 40
0.2499933507891737
 40
0.4999942930784833
 40
0.7499952353677929
 40
1.0
 40
1.0
 40
1.0
 40
1.0
 10
56.98599103660447
 20
19.25394089379365
 30
0.0
 10
56.98501995733199
 20
19.25394089379364
 30
0.0
 10
56.98307776929844
 20
19.25394089379364
 30
0.0
 10
56.96813917422456
 20
19.25394089379364
 30
0.0
 10
56.94678576485391
 20
19.25394089379364
 30
0.0
 10
56.92985556223278
 20
19.25394089379364
 30
0.0
 10
56.92139039620992
 20
19.25394089379364
 30
0.0
  0
LINE
  5
BB
330
1F
100
AcDbEntity
  8
SLD-0
  6
Continuous
370
    15
100
AcDbLine
 10
56.9213903962
 20
42.3810921803
 30
0.0
 11
56.9859910366
 21
42.3810921803
 31
0.0
  0
LINE
  5
BC
330
1F
100
AcDbEntity
  8
SLD-0
  6
Continuous
370
    15
100
AcDbLine
 10
56.9859910366
 20
42.3810921803
 30
0.0
 11
56.9859910366
 21
19.2539408938
 31
0.0
  0
LINE
  5
BD
330
1F
100
AcDbEntity
  8
SLD-0
  6
Continuous
370
    15
100
AcDbLine
 10
92.4248419106
 20
43.0068400449
 30
0.0
 11
92.4248419106
 21
42.9425421211
 31
0.0
  0
LINE
  5
BE
330
1F
100
AcDbEntity
  8
SLD-0
  6
Continuous
370
    15
100
AcDbLine
 10
57.5471394342
 20
42.9425421211
 30
0.0
 11
57.5471394342
 21
43.0068400449
 31
0.0
  0
LINE
  5
BF
330
1F
100
AcDbEntity
  8
SLD-0
  6
Continuous
370
    15
100
AcDbLine
 10
55.4732028591
 20
12.5674411243
 30
0.0
 11
94.4987784857
 21
12.5674411243
 31
0.0
  0
LINE
  5
C0
330
1F
100
AcDbEntity
  8
SLD-0
  6
Continuous
370
    15
100
AcDbLine
 10
55.4732028591
 20
12.5674411243
 30
0.0
 11
55.4732028591
 21
12.6320411248
 31
0.0
  0
LINE
  5
C1
330
1F
100
AcDbEntity
  8
SLD-0
  6
Continuous
370
    15
100
AcDbLine
 10
94.4987784857
 20
12.6320411248
 30
0.0
 11
94.4987784857
 21
12.5674411243
 31
0.0
  0
LINE
  5
C2
330
1F
100
AcDbEntity
  8
SLD-0
  6
Continuous
370
    15
100
AcDbLine
 10
94.4987784857
 20
47.3374413241
 30
0.0
 11
55.4732028591
 21
47.3374413241
 31
0.0
  0
LINE
  5
C3
330
1F
100
AcDbEntity
  8
SLD-0
  6
Continuous
370
    15
100
AcDbLine
 10
55.4732028591
 20
47.2728406837
 30
0.0
 11
55.4732028591
 21
47.3374413241
 31
0.0
  0
LINE
  5
C4
330
1F
100
AcDbEntity
  8
SLD-0
  6
Continuous
370
    15
100
AcDbLine
 10
94.4987784857
 20
47.3374413241
 30
0.0
 11
94.4987784857
 21
47.2728406837
 31
0.0
  0
LINE
  5
C5
330
1F
100
AcDbEntity
  8
SLD-0
  6
Continuous
370
    15
100
AcDbLine
 10
57.7659905593
 20
18.9479050691
 30
0.0
 11
92.2059907855
 21
18.9479050691
 31
0.0
  0
LINE
  5
C6
330
1F
100
AcDbEntity
  8
SLD-0
  6
Continuous
370
    15
100
AcDbLine
 10
92.2059907855
 20
18.9479050691
 30
0.0
 11
92.2059907855
 21
18.6591410983
 31
0.0
  0
LINE
  5
C7
330
1F
100
AcDbEntity
  8
SLD-0
  6
Continuous
370
    15
100
AcDbLine
 10
57.7659905593
 20
18.6591410983
 30
0.0
 11
57.7659905593
 21
18.9479050691
 31
0.0
  0
LINE
  5
C8
330
1F
100
AcDbEntity
  8
SLD-0
  6
Continuous
370
    15
100
AcDbLine
 10
57.7659905593
 20
19.0294725002
 30
0.0
 11
92.2059907855
 21
19.0294725002
 31
0.0
  0
LINE
  5
C9
330
1F
100
AcDbEntity
  8
SLD-0
  6
Continuous
370
    15
100
AcDbLine
 10
92.2059907855
 20
18.9479050691
 30
0.0
 11
92.2059907855
 21
19.0294725002
 31
0.0
  0
LINE
  5
CA
330
1F
100
AcDbEntity
  8
SLD-0
  6
Continuous
370
    15
100
AcDbLine
 10
57.7659905593
 20
19.0294725002
 30
0.0
 11
57.7659905593
 21
18.9479050691
 31
0.0
  0
SPLINE
  5
CB
330
1F
100
AcDbEntity
  8
SLD-0
  6
Continuous
370
    15
100
AcDbSpline
210
0.0
220
0.0
230
1.0
 70
     8
 71
     3
 72
     9
 73
     5
 74
     0
 42
0.00000001
 43
0.00000001
 12
1.0
 22
0.0
 32
0.0
 13
1.0
 23
0.0
 33
0.0
 40
0.0
 40
0.0
 40
0.0
 40
0.0
 40
0.1901649382921316
 40
0.9999999999999999
 40
0.9999999999999999
 40
0.9999999999999999
 40
0.9999999999999999
 10
57.070143877797
 20
42.93793332095876
 30
0.0
 10
57.07145590829416
 20
42.93910093802536
 30
0.0
 10
57.07835534259024
 20
42.9452409608765
 30
0.0
 10
57.08753692791958
 20
42.94575430319747
 30
0.0
 10
57.09497249764134
 20
42.94617002580764
 30
0.0
  0
LINE
  5
CC
330
1F
100
AcDbEntity
  8
SLD-0
  6
Continuous
370
    15
100
AcDbLine
 10
57.0949724976
 20
42.9461700258
 30
0.0
 11
57.0949724976
 21
42.9425421211
 31
0.0
  0
LINE
  5
CD
330
1F
100
AcDbEntity
  8
SLD-0
  6
Continuous
370
    15
100
AcDbLine
 10
57.0949724976
 20
42.9461700258
 30
0.0
 11
57.5471394342
 21
42.9461700258
 31
0.0
  0
SPLINE
  5
CE
330
1F
100
AcDbEntity
  8
SLD-0
  6
Continuous
370
    15
100
AcDbSpline
210
0.0
220
0.0
230
1.0
 70
     8
 71
     3
 72
     9
 73
     5
 74
     0
 42
0.00000001
 43
0.00000001
 12
1.0
 22
0.0
 32
0.0
 13
1.0
 23
0.0
 33
0.0
 40
0.0
 40
0.0
 40
0.0
 40
0.0
 40
0.7997110891776555
 40
0.9999999999999999
 40
0.9999999999999999
 40
0.9999999999999999
 40
0.9999999999999999
 10
92.87700884717069
 20
42.94617002580764
 30
0.0
 10
92.88443818426703
 20
42.94573942632947
 30
0.0
 10
92.89372821062389
 20
42.94520098252896
 30
0.0
 10
92.90070717479263
 20
42.93896227981236
 30
0.0
 10
92.90210498392464
 20
42.9377127368403
 30
0.0
  0
LINE
  5
CF
330
1F
100
AcDbEntity
  8
SLD-0
  6
Continuous
370
    15
100
AcDbLine
 10
92.8770088472
 20
42.9461700258
 30
0.0
 11
92.8770088472
 21
42.9425421211
 31
0.0
  0
LINE
  5
D0
330
1F
100
AcDbEntity
  8
SLD-0
  6
Continuous
370
    15
100
AcDbLine
 10
92.4248419106
 20
42.9461700258
 30
0.0
 11
92.8770088472
 21
42.9461700258
 31
0.0
  0
ARC
  5
D1
330
1F
100
AcDbEntity
  8
SLD-0
  6
Continuous
370
    15
100
AcDbCircle
 10
57.5882462735
 20
42.1267410919
 30
0.0
 40
0.5554756168119426
100
AcDbArc
 50
173.7325889768
 51
186.2674110232
  0
ARC
  5
D2
330
1F
100
AcDbEntity
  8
SLD-0
  6
Continuous
370
    15
100
AcDbCircle
 10
92.3837350713
 20
42.1267410919
 30
0.0
 40
0.5554756168110172
100
AcDbArc
 50
353.7325889768
 51
6.2674110232
  0
LINE
  5
D3
330
1F
100
AcDbEntity
  8
SLD-0
  6
Continuous
370
    15
100
AcDbLine
 10
57.0459910901
 20
18.6284411863
 30
0.0
 11
57.0459910901
 21
18.6591410983
 31
0.0
  0
LINE
  5
D4
330
1F
100
AcDbEntity
  8
SLD-0
  6
Continuous
370
    15
100
AcDbLine
 10
57.0459910901
 20
18.6591410983
 30
0.0
 11
57.9218907317
 21
18.6591410983
 31
0.0
  0
LINE
  5
D5
330
1F
100
AcDbEntity
  8
SLD-0
  6
Continuous
370
    15
100
AcDbLine
 10
92.0500906131
 20
18.6591410983
 30
0.0
 11
92.9259902547
 21
18.6591410983
 31
0.0
  0
LINE
  5
D6
330
1F
100
AcDbEntity
  8
SLD-0
  6
Continuous
370
    15
100
AcDbLine
 10
92.9259902547
 20
18.6591410983
 30
0.0
 11
92.9259902547
 21
18.6284411863
 31
0.0
  0
LINE
  5
D7
330
1F
100
AcDbEntity
  8
SLD-0
  6
Continuous
370
    15
100
AcDbLine
 10
56.9990266193
 20
42.8849696661
 30
0.0
 11
57.0360906178
 21
42.8849696661
 31
0.0
  0
LINE
  5
D8
330
1F
100
AcDbEntity
  8
SLD-0
  6
Continuous
370
    15
100
AcDbLine
 10
56.9990266193
 20
42.9125708406
 30
0.0
 11
57.0389957576
 21
42.9125708406
 31
0.0
  0
LINE
  5
D9
330
1F
100
AcDbEntity
  8
SLD-0
  6
Continuous
370
    15
100
AcDbLine
 10
56.9990266193
 20
42.9125708406
 30
0.0
 11
56.9990266193
 21
42.8849696661
 31
0.0
  0
LINE
  5
DA
330
1F
100
AcDbEntity
  8
SLD-0
  6
Continuous
370
    15
100
AcDbLine
 10
92.9329855872
 20
42.9125708406
 30
0.0
 11
92.9729547255
 21
42.9125708406
 31
0.0
  0
LINE
  5
DB
330
1F
100
AcDbEntity
  8
SLD-0
  6
Continuous
370
    15
100
AcDbLine
 10
92.935890727
 20
42.8849696661
 30
0.0
 11
92.9729547255
 21
42.8849696661
 31
0.0
  0
LINE
  5
DC
330
1F
100
AcDbEntity
  8
SLD-0
  6
Continuous
370
    15
100
AcDbLine
 10
92.9729547255
 20
42.9125708406
 30
0.0
 11
92.9729547255
 21
42.8849696661
 31
0.0
  0
LINE
  5
DD
330
1F
100
AcDbEntity
  8
SLD-0
  6
Continuous
370
    15
100
AcDbLine
 10
92.6354469444
 20
41.8314857294
 30
0.0
 11
92.6006861726
 21
41.5599513729
 31
0.0
  0
LINE
  5
DE
330
1F
100
AcDbEntity
  8
SLD-0
  6
Continuous
370
    15
100
AcDbLine
 10
92.6006861726
 20
41.5599513729
 30
0.0
 11
57.3712951722
 21
41.5599513729
 31
0.0
  0
LINE
  5
DF
330
1F
100
AcDbEntity
  8
SLD-0
  6
Continuous
370
    15
100
AcDbLine
 10
57.3712951722
 20
41.5599513729
 30
0.0
 11
57.3365344004
 21
41.8314857294
 31
0.0
  0
LINE
  5
E0
330
1F
100
AcDbEntity
  8
SLD-0
  6
Continuous
370
    15
100
AcDbLine
 10
74.4859906784
 20
41.8314857294
 30
0.0
 11
74.4859906784
 21
41.7856980983
 31
0.0
  0
LINE
  5
E1
330
1F
100
AcDbEntity
  8
SLD-0
  6
Continuous
370
    15
100
AcDbLine
 10
74.4859906784
 20
41.7856980983
 30
0.0
 11
75.4859906664
 21
41.7856980983
 31
0.0
  0
LINE
  5
E2
330
1F
100
AcDbEntity
  8
SLD-0
  6
Continuous
370
    15
100
AcDbLine
 10
75.4859906664
 20
41.7856980983
 30
0.0
 11
75.4859906664
 21
41.8314857294
 31
0.0
  0
LINE
  5
E3
330
1F
100
AcDbEntity
  8
SLD-0
  6
Continuous
370
    15
100
AcDbLine
 10
76.2359907123
 20
41.8314857294
 30
0.0
 11
76.2359907123
 21
41.7856980983
 31
0.0
  0
LINE
  5
E4
330
1F
100
AcDbEntity
  8
SLD-0
  6
Continuous
370
    15
100
AcDbLine
 10
76.2359907123
 20
41.7856980983
 30
0.0
 11
77.2359906269
 21
41.7856980983
 31
0.0
  0
LINE
  5
E5
330
1F
100
AcDbEntity
  8
SLD-0
  6
Continuous
370
    15
100
AcDbLine
 10
77.2359906269
 20
41.7856980983
 30
0.0
 11
77.2359906269
 21
41.8314857294
 31
0.0
  0
LINE
  5
E6
330
1F
100
AcDbEntity
  8
SLD-0
  6
Continuous
370
    15
100
AcDbLine
 10
77.9859907095
 20
41.8314857294
 30
0.0
 11
77.9859907095
 21
41.7856980983
 31
0.0
  0
LINE
  5
E7
330
1F
100
AcDbEntity
  8
SLD-0
  6
Continuous
370
    15
100
AcDbLine
 10
77.9859907095
 20
41.7856980983
 30
0.0
 11
78.9859906241
 21
41.7856980983
 31
0.0
  0
LINE
  5
E8
330
1F
100
AcDbEntity
  8
SLD-0
  6
Continuous
370
    15
100
AcDbLine
 10
78.9859906241
 20
41.7856980983
 30
0.0
 11
78.9859906241
 21
41.8314857294
 31
0.0
  0
LINE
  5
E9
330
1F
100
AcDbEntity
  8
SLD-0
  6
Continuous
370
    15
100
AcDbLine
 10
79.7359907067
 20
41.8314857294
 30
0.0
 11
79.7359907067
 21
41.7856980983
 31
0.0
  0
LINE
  5
EA
330
1F
100
AcDbEntity
  8
SLD-0
  6
Continuous
370
    15
100
AcDbLine
 10
79.7359907067
 20
41.7856980983
 30
0.0
 11
80.7359909146
 21
41.7856980983
 31
0.0
  0
LINE
  5
EB
330
1F
100
AcDbEntity
  8
SLD-0
  6
Continuous
370
    15
100
AcDbLine
 10
80.7359909146
 20
41.7856980983
 30
0.0
 11
80.7359909146
 21
41.8314857294
 31
0.0
  0
LINE
  5
EC
330
1F
100
AcDbEntity
  8
SLD-0
  6
Continuous
370
    15
100
AcDbLine
 10
81.4859904105
 20
41.8314857294
 30
0.0
 11
81.4859904105
 21
41.7856980983
 31
0.0
  0
LINE
  5
ED
330
1F
100
AcDbEntity
  8
SLD-0
  6
Continuous
370
    15
100
AcDbLine
 10
81.4859904105
 20
41.7856980983
 30
0.0
 11
82.4859909118
 21
41.7856980983
 31
0.0
  0
LINE
  5
EE
330
1F
100
AcDbEntity
  8
SLD-0
  6
Continuous
370
    15
100
AcDbLine
 10
82.4859909118
 20
41.7856980983
 30
0.0
 11
82.4859909118
 21
41.8314857294
 31
0.0
  0
LINE
  5
EF
330
1F
100
AcDbEntity
  8
SLD-0
  6
Continuous
370
    15
100
AcDbLine
 10
83.2359904077
 20
41.8314857294
 30
0.0
 11
83.2359904077
 21
41.7856980983
 31
0.0
  0
LINE
  5
F0
330
1F
100
AcDbEntity
  8
SLD-0
  6
Continuous
370
    15
100
AcDbLine
 10
83.2359904077
 20
41.7856980983
 30
0.0
 11
84.2359909089
 21
41.7856980983
 31
0.0
  0
LINE
  5
F1
330
1F
100
AcDbEntity
  8
SLD-0
  6
Continuous
370
    15
100
AcDbLine
 10
84.2359909089
 20
41.7856980983
 30
0.0
 11
84.2359909089
 21
41.8314857294
 31
0.0
  0
LINE
  5
F2
330
1F
100
AcDbEntity
  8
SLD-0
  6
Continuous
370
    15
100
AcDbLine
 10
84.9859909915
 20
41.8314857294
 30
0.0
 11
84.9859909915
 21
41.7856980983
 31
0.0
  0
LINE
  5
F3
330
1F
100
AcDbEntity
  8
SLD-0
  6
Continuous
370
    15
100
AcDbLine
 10
84.9859909915
 20
41.7856980983
 30
0.0
 11
85.9859903195
 21
41.7856980983
 31
0.0
  0
LINE
  5
F4
330
1F
100
AcDbEntity
  8
SLD-0
  6
Continuous
370
    15
100
AcDbLine
 10
85.9859903195
 20
41.7856980983
 30
0.0
 11
85.9859903195
 21
41.8314857294
 31
0.0
  0
LINE
  5
F5
330
1F
100
AcDbEntity
  8
SLD-0
  6
Continuous
370
    15
100
AcDbLine
 10
86.7359904021
 20
41.8314857294
 30
0.0
 11
86.7359904021
 21
41.7856980983
 31
0.0
  0
LINE
  5
F6
330
1F
100
AcDbEntity
  8
SLD-0
  6
Continuous
370
    15
100
AcDbLine
 10
86.7359904021
 20
41.7856980983
 30
0.0
 11
87.7359909033
 21
41.7856980983
 31
0.0
  0
LINE
  5
F7
330
1F
100
AcDbEntity
  8
SLD-0
  6
Continuous
370
    15
100
AcDbLine
 10
87.7359909033
 20
41.7856980983
 30
0.0
 11
87.7359909033
 21
41.8314857294
 31
0.0
  0
LINE
  5
F8
330
1F
100
AcDbEntity
  8
SLD-0
  6
Continuous
370
    15
100
AcDbLine
 10
88.4859909859
 20
41.8314857294
 30
0.0
 11
88.4859909859
 21
41.7856980983
 31
0.0
  0
LINE
  5
F9
330
1F
100
AcDbEntity
  8
SLD-0
  6
Continuous
370
    15
100
AcDbLine
 10
88.4859909859
 20
41.7856980983
 30
0.0
 11
89.4859903138
 21
41.7856980983
 31
0.0
  0
LINE
  5
FA
330
1F
100
AcDbEntity
  8
SLD-0
  6
Continuous
370
    15
100
AcDbLine
 10
89.4859903138
 20
41.7856980983
 30
0.0
 11
89.4859903138
 21
41.8314857294
 31
0.0
  0
LINE
  5
FB
330
1F
100
AcDbEntity
  8
SLD-0
  6
Continuous
370
    15
100
AcDbLine
 10
72.7359907179
 20
41.8314857294
 30
0.0
 11
72.7359907179
 21
41.7856980983
 31
0.0
  0
LINE
  5
FC
330
1F
100
AcDbEntity
  8
SLD-0
  6
Continuous
370
    15
100
AcDbLine
 10
72.7359907179
 20
41.7856980983
 30
0.0
 11
73.7359906325
 21
41.7856980983
 31
0.0
  0
LINE
  5
FD
330
1F
100
AcDbEntity
  8
SLD-0
  6
Continuous
370
    15
100
AcDbLine
 10
73.7359906325
 20
41.7856980983
 30
0.0
 11
73.7359906325
 21
41.8314857294
 31
0.0
  0
LINE
  5
FE
330
1F
100
AcDbEntity
  8
SLD-0
  6
Continuous
370
    15
100
AcDbLine
 10
70.9859907207
 20
41.8314857294
 30
0.0
 11
70.9859907207
 21
41.7856980983
 31
0.0
  0
LINE
  5
FF
330
1F
100
AcDbEntity
  8
SLD-0
  6
Continuous
370
    15
100
AcDbLine
 10
70.9859907207
 20
41.7856980983
 30
0.0
 11
71.9859906353
 21
41.7856980983
 31
0.0
  0
LINE
  5
100
330
1F
100
AcDbEntity
  8
SLD-0
  6
Continuous
370
    15
100
AcDbLine
 10
71.9859906353
 20
41.7856980983
 30
0.0
 11
71.9859906353
 21
41.8314857294
 31
0.0
  0
LINE
  5
101
330
1F
100
AcDbEntity
  8
SLD-0
  6
Continuous
370
    15
100
AcDbLine
 10
69.2359904302
 20
41.8314857294
 30
0.0
 11
69.2359904302
 21
41.7856980983
 31
0.0
  0
LINE
  5
102
330
1F
100
AcDbEntity
  8
SLD-0
  6
Continuous
370
    15
100
AcDbLine
 10
69.2359904302
 20
41.7856980983
 30
0.0
 11
70.2359906381
 21
41.7856980983
 31
0.0
  0
LINE
  5
103
330
1F
100
AcDbEntity
  8
SLD-0
  6
Continuous
370
    15
100
AcDbLine
 10
70.2359906381
 20
41.7856980983
 30
0.0
 11
70.2359906381
 21
41.8314857294
 31
0.0
  0
LINE
  5
104
330
1F
100
AcDbEntity
  8
SLD-0
  6
Continuous
370
    15
100
AcDbLine
 10
67.485990433
 20
41.8314857294
 30
0.0
 11
67.485990433
 21
41.7856980983
 31
0.0
  0
LINE
  5
105
330
1F
100
AcDbEntity
  8
SLD-0
  6
Continuous
370
    15
100
AcDbLine
 10
67.485990433
 20
41.7856980983
 30
0.0
 11
68.4859909343
 21
41.7856980983
 31
0.0
  0
LINE
  5
106
330
1F
100
AcDbEntity
  8
SLD-0
  6
Continuous
370
    15
100
AcDbLine
 10
68.4859909343
 20
41.7856980983
 30
0.0
 11
68.4859909343
 21
41.8314857294
 31
0.0
  0
LINE
  5
107
330
1F
100
AcDbEntity
  8
SLD-0
  6
Continuous
370
    15
100
AcDbLine
 10
65.7359904359
 20
41.8314857294
 30
0.0
 11
65.7359904359
 21
41.7856980983
 31
0.0
  0
LINE
  5
108
330
1F
100
AcDbEntity
  8
SLD-0
  6
Continuous
370
    15
100
AcDbLine
 10
65.7359904359
 20
41.7856980983
 30
0.0
 11
66.7359909371
 21
41.7856980983
 31
0.0
  0
LINE
  5
109
330
1F
100
AcDbEntity
  8
SLD-0
  6
Continuous
370
    15
100
AcDbLine
 10
66.7359909371
 20
41.7856980983
 30
0.0
 11
66.7359909371
 21
41.8314857294
 31
0.0
  0
LINE
  5
10A
330
1F
100
AcDbEntity
  8
SLD-0
  6
Continuous
370
    15
100
AcDbLine
 10
63.9859910253
 20
41.8314857294
 30
0.0
 11
63.9859910253
 21
41.7856980983
 31
0.0
  0
LINE
  5
10B
330
1F
100
AcDbEntity
  8
SLD-0
  6
Continuous
370
    15
100
AcDbLine
 10
63.9859910253
 20
41.7856980983
 30
0.0
 11
64.9859903533
 21
41.7856980983
 31
0.0
  0
LINE
  5
10C
330
1F
100
AcDbEntity
  8
SLD-0
  6
Continuous
370
    15
100
AcDbLine
 10
64.9859903533
 20
41.7856980983
 30
0.0
 11
64.9859903533
 21
41.8314857294
 31
0.0
  0
LINE
  5
10D
330
1F
100
AcDbEntity
  8
SLD-0
  6
Continuous
370
    15
100
AcDbLine
 10
62.2359904415
 20
41.8314857294
 30
0.0
 11
62.2359904415
 21
41.7856980983
 31
0.0
  0
LINE
  5
10E
330
1F
100
AcDbEntity
  8
SLD-0
  6
Continuous
370
    15
100
AcDbLine
 10
62.2359904415
 20
41.7856980983
 30
0.0
 11
63.2359909427
 21
41.7856980983
 31
0.0
  0
LINE
  5
10F
330
1F
100
AcDbEntity
  8
SLD-0
  6
Continuous
370
    15
100
AcDbLine
 10
63.2359909427
 20
41.7856980983
 30
0.0
 11
63.2359909427
 21
41.8314857294
 31
0.0
  0
LINE
  5
110
330
1F
100
AcDbEntity
  8
SLD-0
  6
Continuous
370
    15
100
AcDbLine
 10
60.485991031
 20
41.8314857294
 30
0.0
 11
60.485991031
 21
41.7856980983
 31
0.0
  0
LINE
  5
111
330
1F
100
AcDbEntity
  8
SLD-0
  6
Continuous
370
    15
100
AcDbLine
 10
60.485991031
 20
41.7856980983
 30
0.0
 11
61.4859903589
 21
41.7856980983
 31
0.0
  0
LINE
  5
112
330
1F
100
AcDbEntity
  8
SLD-0
  6
Continuous
370
    15
100
AcDbLine
 10
61.4859903589
 20
41.7856980983
 30
0.0
 11
61.4859903589
 21
41.8314857294
 31
0.0
  0
LINE
  5
113
330
1F
100
AcDbEntity
  8
SLD-0
  6
Continuous
370
    15
100
AcDbLine
 10
88.4859909859
 20
41.7994986856
 30
0.0
 11
89.4859903138
 21
41.7994986856
 31
0.0
  0
LINE
  5
114
330
1F
100
AcDbEntity
  8
SLD-0
  6
Continuous
370
    15
100
AcDbLine
 10
83.2359904077
 20
41.7994986856
 30
0.0
 11
84.2359909089
 21
41.7994986856
 31
0.0
  0
LINE
  5
115
330
1F
100
AcDbEntity
  8
SLD-0
  6
Continuous
370
    15
100
AcDbLine
 10
86.7359904021
 20
41.7994986856
 30
0.0
 11
87.7359909033
 21
41.7994986856
 31
0.0
  0
LINE
  5
116
330
1F
100
AcDbEntity
  8
SLD-0
  6
Continuous
370
    15
100
AcDbLine
 10
84.9859909915
 20
41.7994986856
 30
0.0
 11
85.9859903195
 21
41.7994986856
 31
0.0
  0
LINE
  5
117
330
1F
100
AcDbEntity
  8
SLD-0
  6
Continuous
370
    15
100
AcDbLine
 10
62.2359904415
 20
41.7994986856
 30
0.0
 11
63.2359909427
 21
41.7994986856
 31
0.0
  0
LINE
  5
118
330
1F
100
AcDbEntity
  8
SLD-0
  6
Continuous
370
    15
100
AcDbLine
 10
63.9859910253
 20
41.7994986856
 30
0.0
 11
64.9859903533
 21
41.7994986856
 31
0.0
  0
LINE
  5
119
330
1F
100
AcDbEntity
  8
SLD-0
  6
Continuous
370
    15
100
AcDbLine
 10
65.7359904359
 20
41.7994986856
 30
0.0
 11
66.7359909371
 21
41.7994986856
 31
0.0
  0
LINE
  5
11A
330
1F
100
AcDbEntity
  8
SLD-0
  6
Continuous
370
    15
100
AcDbLine
 10
67.485990433
 20
41.7994986856
 30
0.0
 11
68.4859909343
 21
41.7994986856
 31
0.0
  0
LINE
  5
11B
330
1F
100
AcDbEntity
  8
SLD-0
  6
Continuous
370
    15
100
AcDbLine
 10
79.7359907067
 20
41.7994986856
 30
0.0
 11
80.7359909146
 21
41.7994986856
 31
0.0
  0
LINE
  5
11C
330
1F
100
AcDbEntity
  8
SLD-0
  6
Continuous
370
    15
100
AcDbLine
 10
70.9859907207
 20
41.7994986856
 30
0.0
 11
71.9859906353
 21
41.7994986856
 31
0.0
  0
LINE
  5
11D
330
1F
100
AcDbEntity
  8
SLD-0
  6
Continuous
370
    15
100
AcDbLine
 10
74.4859906784
 20
41.7994986856
 30
0.0
 11
75.4859906664
 21
41.7994986856
 31
0.0
  0
LINE
  5
11E
330
1F
100
AcDbEntity
  8
SLD-0
  6
Continuous
370
    15
100
AcDbLine
 10
76.2359907123
 20
41.7994986856
 30
0.0
 11
77.2359906269
 21
41.7994986856
 31
0.0
  0
LINE
  5
11F
330
1F
100
AcDbEntity
  8
SLD-0
  6
Continuous
370
    15
100
AcDbLine
 10
69.2359904302
 20
41.7994986856
 30
0.0
 11
70.2359906381
 21
41.7994986856
 31
0.0
  0
LINE
  5
120
330
1F
100
AcDbEntity
  8
SLD-0
  6
Continuous
370
    15
100
AcDbLine
 10
81.4859904105
 20
41.7994986856
 30
0.0
 11
82.4859909118
 21
41.7994986856
 31
0.0
  0
LINE
  5
121
330
1F
100
AcDbEntity
  8
SLD-0
  6
Continuous
370
    15
100
AcDbLine
 10
60.485991031
 20
41.7994986856
 30
0.0
 11
61.4859903589
 21
41.7994986856
 31
0.0
  0
LINE
  5
122
330
1F
100
AcDbEntity
  8
SLD-0
  6
Continuous
370
    15
100
AcDbLine
 10
72.7359907179
 20
41.7994986856
 30
0.0
 11
73.7359906325
 21
41.7994986856
 31
0.0
  0
LINE
  5
123
330
1F
100
AcDbEntity
  8
SLD-0
  6
Continuous
370
    15
100
AcDbLine
 10
77.9859907095
 20
41.7994986856
 30
0.0
 11
78.9859906241
 21
41.7994986856
 31
0.0
  0
LINE
  5
124
330
1F
100
AcDbEntity
  8
SLD-0
  6
Continuous
370
    15
100
AcDbLine
 10
57.3770444391
 20
41.5386509256
 30
0.0
 11
92.5949369057
 21
41.5386509256
 31
0.0
  0
SPLINE
  5
125
330
1F
100
AcDbEntity
  8
SLD-0
  6
Continuous
370
    15
100
AcDbSpline
210
0.0
220
0.0
230
1.0
 70
     8
 71
     3
 72
    11
 73
     7
 74
     0
 42
0.00000001
 43
0.00000001
 12
1.0
 22
0.0
 32
0.0
 13
1.0
 23
0.0
 33
0.0
 40
0.0
 40
0.0
 40
0.0
 40
0.0
 40
0.25001110620237
 40
0.5000016304569065
 40
0.7499985379105094
 40
1.0
 40
1.0
 40
1.0
 40
1.0
 10
57.37129517220488
 20
41.55995137285714
 30
0.0
 10
57.37177426649725
 20
41.55687018790275
 30
0.0
 10
57.37273241564096
 20
41.55070807164985
 30
0.0
 10
57.37416983496371
 20
41.54398586549789
 30
0.0
 10
57.37560713340108
 20
41.53949600753843
 30
0.0
 10
57.37656533430565
 20
41.53893262128242
 30
0.0
 10
57.37704443912219
 20
41.53865092558839
 30
0.0
  0
SPLINE
  5
126
330
1F
100
AcDbEntity
  8
SLD-0
  6
Continuous
370
    15
100
AcDbSpline
210
0.0
220
0.0
230
1.0
 70
     8
 71
     3
 72
    11
 73
     7
 74
     0
 42
0.00000001
 43
0.00000001
 12
1.0
 22
0.0
 32
0.0
 13
1.0
 23
0.0
 33
0.0
 40
0.0
 40
0.0
 40
0.0
 40
0.0
 40
0.2500014620894906
 40
0.4999983695430936
 40
0.74998889379763
 40
1.0
 40
1.0
 40
1.0
 40
1.0
 10
92.59493690568983
 20
41.53865092558839
 30
0.0
 10
92.59541601050638
 20
41.53893262128243
 30
0.0
 10
92.59637421141096
 20
41.53949600753842
 30
0.0
 10
92.59781150984834
 20
41.5439858654979
 30
0.0
 10
92.59924892917107
 20
41.55070807164984
 30
0.0
 10
92.60020707831478
 20
41.55687018790275
 30
0.0
 10
92.60068617260714
 20
41.55995137285714
 30
0.0
  0
LINE
  5
127
330
1F
100
AcDbEntity
  8
SLD-0
  6
Continuous
370
    15
100
AcDbLine
 10
57.5380579391
 20
41.5381393582
 30
0.0
 11
92.4339234057
 21
41.5381393582
 31
0.0
  0
LINE
  5
128
330
1F
100
AcDbEntity
  8
SLD-0
  6
Continuous
370
    15
100
AcDbLine
 10
92.4339234057
 20
41.5381393582
 30
0.0
 11
92.4339234057
 21
41.5360273826
 31
0.0
  0
LINE
  5
129
330
1F
100
AcDbEntity
  8
SLD-0
  6
Continuous
370
    15
100
AcDbLine
 10
57.5380579391
 20
41.5360273826
 30
0.0
 11
57.5380579391
 21
41.5381393582
 31
0.0
  0
SPLINE
  5
12A
330
1F
100
AcDbEntity
  8
SLD-0
  6
Continuous
370
    15
100
AcDbSpline
210
0.0
220
0.0
230
1.0
 70
     8
 71
     3
 72
    10
 73
     6
 74
     0
 42
0.00000001
 43
0.00000001
 12
1.0
 22
0.0
 32
0.0
 13
1.0
 23
0.0
 33
0.0
 40
0.0
 40
0.0
 40
0.0
 40
0.0
 40
0.1550382191561431
 40
0.5775181270610431
 40
1.0
 40
1.0
 40
1.0
 40
1.0
 10
92.44472616093717
 20
41.52329686295983
 30
0.0
 10
92.44482848509462
 20
41.52310946325469
 30
0.0
 10
92.44520964308313
 20
41.52241139843353
 30
0.0
 10
92.44080583340805
 20
41.52535098506434
 30
0.0
 10
92.4362175518472
 20
41.53246857787888
 30
0.0
 10
92.43392340573152
 20
41.53602738256246
 30
0.0
  0
SPLINE
  5
12B
330
1F
100
AcDbEntity
  8
SLD-0
  6
Continuous
370
    15
100
AcDbSpline
210
0.0
220
0.0
230
1.0
 70
     8
 71
     3
 72
    10
 73
     6
 74
     0
 42
0.00000001
 43
0.00000001
 12
1.0
 22
0.0
 32
0.0
 13
1.0
 23
0.0
 33
0.0
 40
0.0
 40
0.0
 40
0.0
 40
0.0
 40
0.4224818729389568
 40
0.8449617808438569
 40
1.0
 40
1.0
 40
1.0
 40
1.0
 10
57.5380579390805
 20
41.53602738256245
 30
0.0
 10
57.53576379296484
 20
41.53246857787888
 30
0.0
 10
57.53117551140398
 20
41.52535098506434
 30
0.0
 10
57.5267717017289
 20
41.52241139843353
 30
0.0
 10
57.52715285971741
 20
41.52310946325469
 30
0.0
 10
57.52725518387486
 20
41.52329686295983
 30
0.0
  0
ARC
  5
12C
330
1F
100
AcDbEntity
  8
SLD-0
  6
Continuous
370
    15
100
AcDbCircle
 10
85.3059906724
 20
50.2146716018
 30
0.0
 40
0.0450000000000088
100
AcDbArc
 50
30.2564371635
 51
149.7435628365
  0
LINE
  5
12D
330
1F
100
AcDbEntity
  8
SLD-0
  6
Continuous
370
    15
100
AcDbLine
 10
85.3448602325
 20
50.2373457442
 30
0.0
 11
85.3189474652
 21
50.2222286922
 31
0.0
  0
ARC
  5
12E
330
1F
100
AcDbEntity
  8
SLD-0
  6
Continuous
370
    15
100
AcDbCircle
 10
85.3059906724
 20
50.2146716018
 30
0.0
 40
0.0149999999999931
100
AcDbArc
 50
30.2564371635
 51
149.7435628364
  0
LINE
  5
12F
330
1F
100
AcDbEntity
  8
SLD-0
  6
Continuous
370
    15
100
AcDbLine
 10
85.2930335246
 20
50.2222286922
 30
0.0
 11
85.2671207572
 21
50.2373457442
 31
0.0
  0
LINE
  5
130
330
1F
100
AcDbEntity
  8
SLD-0
  6
Continuous
370
    15
100
AcDbLine
 10
85.2930335246
 20
50.2222286922
 30
0.0
 11
84.5569584011
 21
48.9603866291
 31
0.0
  0
LINE
  5
131
330
1F
100
AcDbEntity
  8
SLD-0
  6
Continuous
370
    15
100
AcDbLine
 10
84.5569584011
 20
48.9603866291
 30
0.0
 11
84.5310450471
 21
48.9755013345
 31
0.0
  0
LINE
  5
132
330
1F
100
AcDbEntity
  8
SLD-0
  6
Continuous
370
    15
100
AcDbLine
 10
85.2671207572
 20
50.2373457442
 30
0.0
 11
84.5310450471
 21
48.9755013345
 31
0.0
  0
LINE
  5
133
330
1F
100
AcDbEntity
  8
SLD-0
  6
Continuous
370
    15
100
AcDbLine
 10
84.4309907896
 20
48.744441817
 30
0.0
 11
84.4050774356
 21
48.7595565224
 31
0.0
  0
LINE
  5
134
330
1F
100
AcDbEntity
  8
SLD-0
  6
Continuous
370
    15
100
AcDbLine
 10
84.5569584011
 20
48.9603866291
 30
0.0
 11
84.4309907896
 21
48.744441817
 31
0.0
  0
LINE
  5
135
330
1F
100
AcDbEntity
  8
SLD-0
  6
Continuous
370
    15
100
AcDbLine
 10
84.5310450471
 20
48.9755013345
 30
0.0
 11
84.4050774356
 21
48.7595565224
 31
0.0
  0
LINE
  5
136
330
1F
100
AcDbEntity
  8
SLD-0
  6
Continuous
370
    15
100
AcDbLine
 10
86.0550225887
 20
48.9603866291
 30
0.0
 11
86.0809365293
 21
48.9755013345
 31
0.0
  0
LINE
  5
137
330
1F
100
AcDbEntity
  8
SLD-0
  6
Continuous
370
    15
100
AcDbLine
 10
86.0550225887
 20
48.9603866291
 30
0.0
 11
85.3189474652
 21
50.2222286922
 31
0.0
  0
LINE
  5
138
330
1F
100
AcDbEntity
  8
SLD-0
  6
Continuous
370
    15
100
AcDbLine
 10
86.0809365293
 20
48.9755013345
 30
0.0
 11
85.3448602325
 21
50.2373457442
 31
0.0
  0
LINE
  5
139
330
1F
100
AcDbEntity
  8
SLD-0
  6
Continuous
370
    15
100
AcDbLine
 10
86.1809902001
 20
48.744441817
 30
0.0
 11
86.2069041408
 21
48.7595565224
 31
0.0
  0
LINE
  5
13A
330
1F
100
AcDbEntity
  8
SLD-0
  6
Continuous
370
    15
100
AcDbLine
 10
86.0550225887
 20
48.9603866291
 30
0.0
 11
86.1809902001
 21
48.744441817
 31
0.0
  0
LINE
  5
13B
330
1F
100
AcDbEntity
  8
SLD-0
  6
Continuous
370
    15
100
AcDbLine
 10
86.0809365293
 20
48.9755013345
 30
0.0
 11
86.2069041408
 21
48.7595565224
 31
0.0
  0
LINE
  5
13C
330
1F
100
AcDbEntity
  8
SLD-0
  6
Continuous
370
    15
100
AcDbLine
 10
84.4221727048
 20
48.729324765
 30
0.0
 11
84.3962593508
 21
48.744441817
 31
0.0
  0
LINE
  5
13D
330
1F
100
AcDbEntity
  8
SLD-0
  6
Continuous
370
    15
100
AcDbLine
 10
84.4309907896
 20
48.744441817
 30
0.0
 11
84.4221727048
 21
48.729324765
 31
0.0
  0
LINE
  5
13E
330
1F
100
AcDbEntity
  8
SLD-0
  6
Continuous
370
    15
100
AcDbLine
 10
84.3962593508
 20
48.744441817
 30
0.0
 11
84.4050774356
 21
48.7595565224
 31
0.0
  0
LINE
  5
13F
330
1F
100
AcDbEntity
  8
SLD-0
  6
Continuous
370
    15
100
AcDbLine
 10
86.2157216389
 20
48.744441817
 30
0.0
 11
86.1898088716
 21
48.729324765
 31
0.0
  0
LINE
  5
140
330
1F
100
AcDbEntity
  8
SLD-0
  6
Continuous
370
    15
100
AcDbLine
 10
86.1898088716
 20
48.729324765
 30
0.0
 11
86.1809902001
 21
48.744441817
 31
0.0
  0
LINE
  5
141
330
1F
100
AcDbEntity
  8
SLD-0
  6
Continuous
370
    15
100
AcDbLine
 10
86.2157216389
 20
48.744441817
 30
0.0
 11
86.2069041408
 21
48.7595565224
 31
0.0
  0
LINE
  5
142
330
1F
100
AcDbEntity
  8
SLD-0
  6
Continuous
370
    15
100
AcDbLine
 10
87.0017402921
 20
47.3374413241
 30
0.0
 11
86.1898088716
 21
48.729324765
 31
0.0
  0
LINE
  5
143
330
1F
100
AcDbEntity
  8
SLD-0
  6
Continuous
370
    15
100
AcDbLine
 10
87.0364717309
 20
47.3374413241
 30
0.0
 11
86.2157216389
 21
48.744441817
 31
0.0
  0
LINE
  5
144
330
1F
100
AcDbEntity
  8
SLD-0
  6
Continuous
370
    15
100
AcDbLine
 10
83.6102406977
 20
47.3374413241
 30
0.0
 11
84.4221727048
 21
48.729324765
 31
0.0
  0
LINE
  5
145
330
1F
100
AcDbEntity
  8
SLD-0
  6
Continuous
370
    15
100
AcDbLine
 10
84.3962593508
 20
48.744441817
 30
0.0
 11
83.5755098455
 21
47.3374413241
 31
0.0
  0
ARC
  5
146
330
1F
100
AcDbEntity
  8
SLD-0
  6
Continuous
370
    15
100
AcDbCircle
 10
64.6659906724
 20
50.2146716018
 30
0.0
 40
0.044999999999993
100
AcDbArc
 50
30.2564371635
 51
149.7435628365
  0
LINE
  5
147
330
1F
100
AcDbEntity
  8
SLD-0
  6
Continuous
370
    15
100
AcDbLine
 10
64.7048605876
 20
50.2373457442
 30
0.0
 11
64.6789478202
 21
50.2222286922
 31
0.0
  0
ARC
  5
148
330
1F
100
AcDbEntity
  8
SLD-0
  6
Continuous
370
    15
100
AcDbCircle
 10
64.6659906724
 20
50.2146716018
 30
0.0
 40
0.0150000000000018
100
AcDbArc
 50
30.2564371635
 51
149.7435628365
  0
LINE
  5
149
330
1F
100
AcDbEntity
  8
SLD-0
  6
Continuous
370
    15
100
AcDbLine
 10
64.6530338796
 20
50.2222286922
 30
0.0
 11
64.6271211123
 21
50.2373457442
 31
0.0
  0
LINE
  5
14A
330
1F
100
AcDbEntity
  8
SLD-0
  6
Continuous
370
    15
100
AcDbLine
 10
63.9169587561
 20
48.9603866291
 30
0.0
 11
63.8910448155
 21
48.9755013345
 31
0.0
  0
LINE
  5
14B
330
1F
100
AcDbEntity
  8
SLD-0
  6
Continuous
370
    15
100
AcDbLine
 10
63.7909911447
 20
48.744441817
 30
0.0
 11
63.765077204
 21
48.7595565224
 31
0.0
  0
LINE
  5
14C
330
1F
100
AcDbEntity
  8
SLD-0
  6
Continuous
370
    15
100
AcDbLine
 10
63.8910448155
 20
48.9755013345
 30
0.0
 11
63.765077204
 21
48.7595565224
 31
0.0
  0
LINE
  5
14D
330
1F
100
AcDbEntity
  8
SLD-0
  6
Continuous
370
    15
100
AcDbLine
 10
63.9169587561
 20
48.9603866291
 30
0.0
 11
63.7909911447
 21
48.744441817
 31
0.0
  0
LINE
  5
14E
330
1F
100
AcDbEntity
  8
SLD-0
  6
Continuous
370
    15
100
AcDbLine
 10
64.6271211123
 20
50.2373457442
 30
0.0
 11
63.8910448155
 21
48.9755013345
 31
0.0
  0
LINE
  5
14F
330
1F
100
AcDbEntity
  8
SLD-0
  6
Continuous
370
    15
100
AcDbLine
 10
64.6530338796
 20
50.2222286922
 30
0.0
 11
63.9169587561
 21
48.9603866291
 31
0.0
  0
LINE
  5
150
330
1F
100
AcDbEntity
  8
SLD-0
  6
Continuous
370
    15
100
AcDbLine
 10
65.5409905552
 20
48.744441817
 30
0.0
 11
65.5669039092
 21
48.7595565224
 31
0.0
  0
LINE
  5
151
330
1F
100
AcDbEntity
  8
SLD-0
  6
Continuous
370
    15
100
AcDbLine
 10
65.4150229437
 20
48.9603866291
 30
0.0
 11
65.5409905552
 21
48.744441817
 31
0.0
  0
LINE
  5
152
330
1F
100
AcDbEntity
  8
SLD-0
  6
Continuous
370
    15
100
AcDbLine
 10
65.4150229437
 20
48.9603866291
 30
0.0
 11
65.4409362977
 21
48.9755013345
 31
0.0
  0
LINE
  5
153
330
1F
100
AcDbEntity
  8
SLD-0
  6
Continuous
370
    15
100
AcDbLine
 10
65.4409362977
 20
48.9755013345
 30
0.0
 11
65.5669039092
 21
48.7595565224
 31
0.0
  0
LINE
  5
154
330
1F
100
AcDbEntity
  8
SLD-0
  6
Continuous
370
    15
100
AcDbLine
 10
65.4150229437
 20
48.9603866291
 30
0.0
 11
64.6789478202
 21
50.2222286922
 31
0.0
  0
LINE
  5
155
330
1F
100
AcDbEntity
  8
SLD-0
  6
Continuous
370
    15
100
AcDbLine
 10
65.4409362977
 20
48.9755013345
 30
0.0
 11
64.7048605876
 21
50.2373457442
 31
0.0
  0
LINE
  5
156
330
1F
100
AcDbEntity
  8
SLD-0
  6
Continuous
370
    15
100
AcDbLine
 10
63.7821724732
 20
48.729324765
 30
0.0
 11
63.7562597059
 21
48.744441817
 31
0.0
  0
LINE
  5
157
330
1F
100
AcDbEntity
  8
SLD-0
  6
Continuous
370
    15
100
AcDbLine
 10
63.7562597059
 20
48.744441817
 30
0.0
 11
62.9355096139
 21
47.3374413241
 31
0.0
  0
LINE
  5
158
330
1F
100
AcDbEntity
  8
SLD-0
  6
Continuous
370
    15
100
AcDbLine
 10
62.9702410527
 20
47.3374413241
 30
0.0
 11
63.7821724732
 21
48.729324765
 31
0.0
  0
LINE
  5
159
330
1F
100
AcDbEntity
  8
SLD-0
  6
Continuous
370
    15
100
AcDbLine
 10
65.575721994
 20
48.744441817
 30
0.0
 11
65.54980864
 21
48.729324765
 31
0.0
  0
LINE
  5
15A
330
1F
100
AcDbEntity
  8
SLD-0
  6
Continuous
370
    15
100
AcDbLine
 10
65.54980864
 20
48.729324765
 30
0.0
 11
65.5409905552
 21
48.744441817
 31
0.0
  0
LINE
  5
15B
330
1F
100
AcDbEntity
  8
SLD-0
  6
Continuous
370
    15
100
AcDbLine
 10
65.575721994
 20
48.744441817
 30
0.0
 11
65.5669039092
 21
48.7595565224
 31
0.0
  0
LINE
  5
15C
330
1F
100
AcDbEntity
  8
SLD-0
  6
Continuous
370
    15
100
AcDbLine
 10
63.7562597059
 20
48.744441817
 30
0.0
 11
63.765077204
 21
48.7595565224
 31
0.0
  0
LINE
  5
15D
330
1F
100
AcDbEntity
  8
SLD-0
  6
Continuous
370
    15
100
AcDbLine
 10
63.7909911447
 20
48.744441817
 30
0.0
 11
63.7821724732
 21
48.729324765
 31
0.0
  0
LINE
  5
15E
330
1F
100
AcDbEntity
  8
SLD-0
  6
Continuous
370
    15
100
AcDbLine
 10
66.3617406471
 20
47.3374413241
 30
0.0
 11
65.54980864
 21
48.729324765
 31
0.0
  0
LINE
  5
15F
330
1F
100
AcDbEntity
  8
SLD-0
  6
Continuous
370
    15
100
AcDbLine
 10
66.3964714993
 20
47.3374413241
 30
0.0
 11
65.575721994
 21
48.744441817
 31
0.0
  0
ARC
  5
160
330
1F
100
AcDbEntity
  8
SLD-0
  6
Continuous
370
    15
100
AcDbCircle
 10
55.4859906724
 20
47.1917411246
 30
0.0
 40
0.0527000000000011
100
AcDbArc
 50
104.0426024304
 51
179.9999999996
  0
ARC
  5
161
330
1F
100
AcDbEntity
  8
SLD-0
  6
Continuous
370
    15
100
AcDbCircle
 10
55.4859906724
 20
47.1917411246
 30
0.0
 40
0.0310000000000067
100
AcDbArc
 50
114.3615754613
 51
180.0000000001
  0
LINE
  5
162
330
1F
100
AcDbEntity
  8
SLD-0
  6
Continuous
370
    15
100
AcDbLine
 10
55.4549905895
 20
47.1917408206
 30
0.0
 11
55.4332912135
 21
47.1917408206
 31
0.0
  0
LINE
  5
163
330
1F
100
AcDbEntity
  8
SLD-0
  6
Continuous
370
    15
100
AcDbLine
 10
55.4549905895
 20
46.8230156935
 30
0.0
 11
55.4549905895
 21
47.1917408206
 31
0.0
  0
LINE
  5
164
330
1F
100
AcDbEntity
  8
SLD-0
  6
Continuous
370
    15
100
AcDbLine
 10
55.4332912135
 20
46.806697162
 30
0.0
 11
55.4332912135
 21
47.1917408206
 31
0.0
  0
LINE
  5
165
330
1F
100
AcDbEntity
  8
SLD-0
  6
Continuous
370
    15
100
AcDbLine
 10
94.5169907553
 20
46.8230156935
 30
0.0
 11
94.5169907553
 21
47.1917408206
 31
0.0
  0
LINE
  5
166
330
1F
100
AcDbEntity
  8
SLD-0
  6
Continuous
370
    15
100
AcDbLine
 10
94.5169907553
 20
47.1917408206
 30
0.0
 11
94.5386901313
 21
47.1917408206
 31
0.0
  0
LINE
  5
167
330
1F
100
AcDbEntity
  8
SLD-0
  6
Continuous
370
    15
100
AcDbLine
 10
94.5386901313
 20
46.806697162
 30
0.0
 11
94.5386901313
 21
47.1917408206
 31
0.0
  0
ARC
  5
168
330
1F
100
AcDbEntity
  8
SLD-0
  6
Continuous
370
    15
100
AcDbCircle
 10
94.4859906724
 20
47.1917411246
 30
0.0
 40
0.052700000000008
100
AcDbArc
 50
359.9999999999
 51
75.9573975695
  0
ARC
  5
169
330
1F
100
AcDbEntity
  8
SLD-0
  6
Continuous
370
    15
100
AcDbCircle
 10
94.4859906724
 20
47.1917411246
 30
0.0
 40
0.0310000000000018
100
AcDbArc
 50
0.0000000001
 51
65.6384245385
  0
LINE
  5
16A
330
1F
100
AcDbEntity
  8
SLD-0
  6
Continuous
370
    15
100
AcDbLine
 10
55.4549905895
 20
47.1917408206
 30
0.0
 11
55.4637412084
 21
47.1917408206
 31
0.0
  0
SPLINE
  5
16B
330
1F
100
AcDbEntity
  8
SLD-0
  6
Continuous
370
    15
100
AcDbSpline
210
0.0
220
0.0
230
1.0
 70
     8
 71
     3
 72
    10
 73
     6
 74
     0
 42
0.00000001
 43
0.00000001
 12
1.0
 22
0.0
 32
0.0
 13
1.0
 23
0.0
 33
0.0
 40
0.0
 40
0.0
 40
0.0
 40
0.0
 40
0.4253451241187751
 40
0.851169246282286
 40
1.0
 40
1.0
 40
1.0
 40
1.0
 10
55.46374120843105
 20
47.19174082061153
 30
0.0
 10
55.46358841531174
 20
47.19614452470959
 30
0.0
 10
55.46328265700669
 20
47.20495689209186
 30
0.0
 10
55.46775724179617
 20
47.21429664100182
 30
0.0
 10
55.47208262218331
 20
47.21686702760005
 30
0.0
 10
55.47320285912926
 20
47.21753273599445
 30
0.0
  0
LINE
  5
16C
330
1F
100
AcDbEntity
  8
SLD-0
  6
Continuous
370
    15
100
AcDbLine
 10
94.5169907553
 20
47.1917408206
 30
0.0
 11
94.5082401364
 21
47.1917408206
 31
0.0
  0
SPLINE
  5
16D
330
1F
100
AcDbEntity
  8
SLD-0
  6
Continuous
370
    15
100
AcDbSpline
210
0.0
220
0.0
230
1.0
 70
     8
 71
     3
 72
    10
 73
     6
 74
     0
 42
0.00000001
 43
0.00000001
 12
1.0
 22
0.0
 32
0.0
 13
1.0
 23
0.0
 33
0.0
 40
0.0
 40
0.0
 40
0.0
 40
0.0
 40
0.3057598272672972
 40
0.7316720261310348
 40
1.0
 40
1.0
 40
1.0
 40
1.0
 10
94.49877848568276
 20
47.21761486837899
 30
0.0
 10
94.50089125973162
 20
47.21586753608862
 30
0.0
 10
94.50594705035951
 20
47.21168623415417
 30
0.0
 10
94.5090732966939
 20
47.20176272203703
 30
0.0
 10
94.50847239029406
 20
47.19453455164587
 30
0.0
 10
94.50824013638098
 20
47.19174082061153
 30
0.0
  0
LINE
  5
16E
330
1F
100
AcDbEntity
  8
SLD-0
  6
Continuous
370
    15
100
AcDbLine
 10
55.4637412084
 20
47.1917408206
 30
0.0
 11
55.4732028591
 21
47.1215340583
 31
0.0
  0
LINE
  5
16F
330
1F
100
AcDbEntity
  8
SLD-0
  6
Continuous
370
    15
100
AcDbLine
 10
55.4549905895
 20
47.0991494636
 30
0.0
 11
55.4732028591
 21
46.9640064914
 31
0.0
  0
LINE
  5
170
330
1F
100
AcDbEntity
  8
SLD-0
  6
Continuous
370
    15
100
AcDbLine
 10
94.4987784857
 20
47.1215340583
 30
0.0
 11
94.5082401364
 21
47.1917408206
 31
0.0
  0
LINE
  5
171
330
1F
100
AcDbEntity
  8
SLD-0
  6
Continuous
370
    15
100
AcDbLine
 10
94.4987784857
 20
46.9640064914
 30
0.0
 11
94.5169907553
 21
47.0991494636
 31
0.0
  0
LINE
  5
172
330
1F
100
AcDbEntity
  8
SLD-0
  6
Continuous
370
    15
100
AcDbLine
 10
74.7359906754
 20
41.8314857294
 30
0.0
 11
74.7359906754
 21
41.7994986856
 31
0.0
  0
LINE
  5
173
330
1F
100
AcDbEntity
  8
SLD-0
  6
Continuous
370
    15
100
AcDbLine
 10
75.2359906694
 20
41.8314857294
 30
0.0
 11
75.2359906694
 21
41.7994986856
 31
0.0
  0
ARC
  5
174
330
1F
100
AcDbEntity
  8
SLD-0
  6
Continuous
370
    15
100
AcDbCircle
 10
94.4859906724
 20
12.6537411246
 30
0.0
 40
0.0527000000000015
100
AcDbArc
 50
284.0426024304
 51
359.9999999996
  0
ARC
  5
175
330
1F
100
AcDbEntity
  8
SLD-0
  6
Continuous
370
    15
100
AcDbCircle
 10
94.4859906724
 20
12.6537411246
 30
0.0
 40
0.0310000000000012
100
AcDbArc
 50
294.3615754613
 51
0.0000000001
  0
LINE
  5
176
330
1F
100
AcDbEntity
  8
SLD-0
  6
Continuous
370
    15
100
AcDbLine
 10
94.5169907553
 20
12.6537411247
 30
0.0
 11
94.5386901313
 21
12.6537411247
 31
0.0
  0
LINE
  5
177
330
1F
100
AcDbEntity
  8
SLD-0
  6
Continuous
370
    15
100
AcDbLine
 10
94.5386901313
 20
13.0981859189
 30
0.0
 11
94.5386901313
 21
12.6537411247
 31
0.0
  0
LINE
  5
178
330
1F
100
AcDbEntity
  8
SLD-0
  6
Continuous
370
    15
100
AcDbLine
 10
94.5169907553
 20
13.0818676074
 30
0.0
 11
94.5169907553
 21
12.6537411247
 31
0.0
  0
LINE
  5
179
330
1F
100
AcDbEntity
  8
SLD-0
  6
Continuous
370
    15
100
AcDbLine
 10
55.4549905895
 20
12.6537411247
 30
0.0
 11
55.4332912135
 21
12.6537411247
 31
0.0
  0
LINE
  5
17A
330
1F
100
AcDbEntity
  8
SLD-0
  6
Continuous
370
    15
100
AcDbLine
 10
55.4332912135
 20
13.0981859189
 30
0.0
 11
55.4332912135
 21
12.6537411247
 31
0.0
  0
LINE
  5
17B
330
1F
100
AcDbEntity
  8
SLD-0
  6
Continuous
370
    15
100
AcDbLine
 10
55.4549905895
 20
13.0818676074
 30
0.0
 11
55.4549905895
 21
12.6537411247
 31
0.0
  0
ARC
  5
17C
330
1F
100
AcDbEntity
  8
SLD-0
  6
Continuous
370
    15
100
AcDbCircle
 10
55.4859906724
 20
12.6537411246
 30
0.0
 40
0.0527000000000015
100
AcDbArc
 50
179.9999999999
 51
255.9573975695
  0
ARC
  5
17D
330
1F
100
AcDbEntity
  8
SLD-0
  6
Continuous
370
    15
100
AcDbCircle
 10
55.4859906724
 20
12.6537411246
 30
0.0
 40
0.0309999999999984
100
AcDbArc
 50
180.0000000001
 51
245.6384245386
  0
LINE
  5
17E
330
1F
100
AcDbEntity
  8
SLD-0
  6
Continuous
370
    15
100
AcDbLine
 10
94.5169907553
 20
12.6537411247
 30
0.0
 11
94.5082401364
 21
12.6537411247
 31
0.0
  0
SPLINE
  5
17F
330
1F
100
AcDbEntity
  8
SLD-0
  6
Continuous
370
    15
100
AcDbSpline
210
0.0
220
0.0
230
1.0
 70
     8
 71
     3
 72
    10
 73
     6
 74
     0
 42
0.00000001
 43
0.00000001
 12
1.0
 22
0.0
 32
0.0
 13
1.0
 23
0.0
 33
0.0
 40
0.0
 40
0.0
 40
0.0
 40
0.0
 40
0.4253287815277744
 40
0.8511615612029415
 40
1.0
 40
1.0
 40
1.0
 40
1.0
 10
94.50824013638098
 20
12.65374112465626
 30
0.0
 10
94.5083929078534
 20
12.649337773333
 30
0.0
 10
94.50869863182653
 20
12.64052585288554
 30
0.0
 10
94.5042239876701
 20
12.63118645531304
 30
0.0
 10
94.49989871954023
 20
12.62861511666776
 30
0.0
 10
94.49877848568276
 20
12.62794914625323
 30
0.0
  0
LINE
  5
180
330
1F
100
AcDbEntity
  8
SLD-0
  6
Continuous
370
    15
100
AcDbLine
 10
55.4549905895
 20
12.6537411247
 30
0.0
 11
55.4637412084
 21
12.6537411247
 31
0.0
  0
SPLINE
  5
181
330
1F
100
AcDbEntity
  8
SLD-0
  6
Continuous
370
    15
100
AcDbSpline
210
0.0
220
0.0
230
1.0
 70
     8
 71
     3
 72
    10
 73
     6
 74
     0
 42
0.00000001
 43
0.00000001
 12
1.0
 22
0.0
 32
0.0
 13
1.0
 23
0.0
 33
0.0
 40
0.0
 40
0.0
 40
0.0
 40
0.0
 40
0.3057782700027715
 40
0.731660924639478
 40
1.0
 40
1.0
 40
1.0
 40
1.0
 10
55.47320285912926
 20
12.62786641746934
 30
0.0
 10
55.47109010765575
 20
12.62961445039998
 30
0.0
 10
55.46603475268685
 20
12.63379711318475
 30
0.0
 10
55.46290795317064
 20
12.64371862080438
 30
0.0
 10
55.46350891666843
 20
12.65094708878711
 30
0.0
 10
55.46374120843105
 20
12.65374112465626
 30
0.0
  0
LINE
  5
182
330
1F
100
AcDbEntity
  8
SLD-0
  6
Continuous
370
    15
100
AcDbLine
 10
94.5082401364
 20
12.6537411247
 30
0.0
 11
94.4987784857
 21
12.7239493055
 31
0.0
  0
LINE
  5
183
330
1F
100
AcDbEntity
  8
SLD-0
  6
Continuous
370
    15
100
AcDbLine
 10
94.5169907553
 20
12.7463320669
 30
0.0
 11
94.4987784857
 21
12.8814746174
 31
0.0
  0
LINE
  5
184
330
1F
100
AcDbEntity
  8
SLD-0
  6
Continuous
370
    15
100
AcDbLine
 10
55.4732028591
 20
12.7239493055
 30
0.0
 11
55.4637412084
 21
12.6537411247
 31
0.0
  0
LINE
  5
185
330
1F
100
AcDbEntity
  8
SLD-0
  6
Continuous
370
    15
100
AcDbLine
 10
55.4732028591
 20
12.8814746174
 30
0.0
 11
55.4549905895
 21
12.7463320669
 31
0.0
  0
LINE
  5
186
330
1F
100
AcDbEntity
  8
SLD-0
  6
Continuous
370
    15
100
AcDbLine
 10
94.5061563205
 20
11.5984410974
 30
0.0
 11
94.4859904734
 21
11.5984410974
 31
0.0
  0
LINE
  5
187
330
1F
100
AcDbEntity
  8
SLD-0
  6
Continuous
370
    15
100
AcDbLine
 10
55.4859908714
 20
11.5984410974
 30
0.0
 11
55.4658250244
 21
11.5984410974
 31
0.0
  0
LINE
  5
188
330
1F
100
AcDbEntity
  8
SLD-0
  6
Continuous
370
    15
100
AcDbLine
 10
94.5169907553
 20
11.5984410974
 30
0.0
 11
94.5061563205
 21
11.5984410974
 31
0.0
  0
LINE
  5
189
330
1F
100
AcDbEntity
  8
SLD-0
  6
Continuous
370
    15
100
AcDbLine
 10
55.4658250244
 20
11.5984410974
 30
0.0
 11
55.4549905895
 21
11.5984410974
 31
0.0
  0
LINE
  5
18A
330
1F
100
AcDbEntity
  8
SLD-0
  6
Continuous
370
    15
100
AcDbLine
 10
55.4637412084
 20
47.1917408206
 30
0.0
 11
55.4732028591
 21
47.1917408206
 31
0.0
  0
LINE
  5
18B
330
1F
100
AcDbEntity
  8
SLD-0
  6
Continuous
370
    15
100
AcDbLine
 10
94.4987784857
 20
47.1917408206
 30
0.0
 11
94.5082401364
 21
47.1917408206
 31
0.0
  0
LINE
  5
18C
330
1F
100
AcDbEntity
  8
SLD-0
  6
Continuous
370
    15
100
AcDbLine
 10
94.5082401364
 20
12.6537411247
 30
0.0
 11
94.4987784857
 21
12.6537411247
 31
0.0
  0
LINE
  5
18D
330
1F
100
AcDbEntity
  8
SLD-0
  6
Continuous
370
    15
100
AcDbLine
 10
55.4732028591
 20
12.6537411247
 30
0.0
 11
55.4637412084
 21
12.6537411247
 31
0.0
  0
DIMENSION
  5
18E
330
1F
100
AcDbEntity
  8
DIM
100
AcDbDimension
  2
_D
 10
93.0195906724
 20
29.4344411246
 30
0.0
 11
75.0027906724
 21
29.4344411246
 31
0.0
 70
   160
  1
<>
 71
     2
 42
-1.0
  3
SLDDIMSTYLE0
100
AcDbAlignedDimension
 13
56.9859906724
 23
19.2539411374
 33
0.0
 14
93.0195906724
 24
19.2539411822
 34
0.0
 50
0.0
100
AcDbRotatedDimension
  0
DIMENSION
  5
19C
330
1F
100
AcDbEntity
  8
DIM
100
AcDbDimension
  2
_D_1
 10
50.4836473424
 20
11.5314411246
 30
0.0
 11
50.4836473424
 21
29.4344411246
 31
0.0
 70
   160
  1
<>
 71
     2
 42
-1.0
  3
SLDDIMSTYLE0
100
AcDbAlignedDimension
 13
55.4732033708
 23
47.3374411246
 33
0.0
 14
55.4859906724
 24
11.5314411246
 34
0.0
 50
90.0
100
AcDbRotatedDimension
  0
DIMENSION
  5
1AB
330
1F
100
AcDbEntity
  8
DIM
100
AcDbDimension
  2
_D_2
 10
94.5529906724
 20
7.5313417152
 30
0.0
 11
74.9859906724
 21
7.5313417152
 31
0.0
 70
   160
  1
<>
 71
     2
 42
-1.0
  3
SLDDIMSTYLE0
100
AcDbAlignedDimension
 13
55.4189906724
 23
11.5984411246
 33
0.0
 14
94.5529906724
 24
11.5984411246
 34
0.0
 50
0.0
100
AcDbRotatedDimension
  0
DIMENSION
  5
1BA
330
1F
100
AcDbEntity
  8
DIM
100
AcDbDimension
  2
_D_3
 10
99.4809519125
 20
18.6930411246
 30
0.0
 11
99.4809519125
 21
30.2622636339
 31
0.0
 70
   160
  1
<>
 71
     2
 42
-1.0
  3
SLDDIMSTYLE0
100
AcDbAlignedDimension
 13
92.8437452967
 23
41.8314861432
 33
0.0
 14
92.0500906724
 24
18.6930411246
 34
0.0
 50
90.0
100
AcDbRotatedDimension
  0
DIMENSION
  5
1C9
330
1F
100
AcDbEntity
  8
DIM
100
AcDbDimension
  2
_D_4
 10
103.9883340024
 20
11.5314411246
 30
0.0
 11
103.9883340024
 21
23.7992079392
 31
0.0
 70
   160
  1
<>
 71
     2
 42
-1.0
  3
SLDDIMSTYLE0
100
AcDbAlignedDimension
 13
93.0505906724
 23
43.0068411246
 33
0.0
 14
94.4859906724
 24
11.5314411246
 34
0.0
 50
90.0
100
AcDbRotatedDimension
  0
DIMENSION
  5
1D8
330
1F
100
AcDbEntity
  8
DIM
100
AcDbDimension
  2
_D_5
 10
41.3040117609
 20
11.5314411246
 30
0.0
 11
41.3040117609
 21
24.839238435
 31
0.0
 70
   160
  1
<>
 71
     2
 42
-1.0
  3
SLDDIMSTYLE0
100
AcDbAlignedDimension
 13
64.6659906724
 23
50.2596716018
 33
0.0
 14
55.4859906724
 24
11.5314411246
 34
0.0
 50
90.0
100
AcDbRotatedDimension
  0
LINE
  5
1E7
330
1F
100
AcDbEntity
  8
SLD-0
  6
Continuous
370
    15
100
AcDbLine
 10
57.1016533805
 20
62.0117312329
 30
0.0
 11
92.8703279643
 21
62.0117312329
 31
0.0
  0
LINE
  5
1E8
330
1F
100
AcDbEntity
  8
SLD-0
  6
Continuous
370
    15
100
AcDbLine
 10
91.2993090996
 20
83.5950846735
 30
0.0
 11
91.0890220355
 21
84.5880329528
 31
0.0
  0
LINE
  5
1E9
330
1F
100
AcDbEntity
  8
SLD-0
  6
Continuous
370
    15
100
AcDbLine
 10
91.1242415753
 20
84.5954916269
 30
0.0
 11
91.0890220355
 21
84.5880329528
 31
0.0
  0
LINE
  5
1EA
330
1F
100
AcDbEntity
  8
SLD-0
  6
Continuous
370
    15
100
AcDbLine
 10
94.5413758603
 20
68.4602415925
 30
0.0
 11
94.5250139159
 21
68.4567767791
 31
0.0
  0
LINE
  5
1EB
330
1F
100
AcDbEntity
  8
SLD-0
  6
Continuous
370
    15
100
AcDbLine
 10
94.5413758603
 20
68.4602415925
 30
0.0
 11
91.1242415753
 21
84.5954916269
 31
0.0
  0
LINE
  5
1EC
330
1F
100
AcDbEntity
  8
SLD-0
  6
Continuous
370
    15
100
AcDbLine
 10
55.4306054846
 20
68.4602415925
 30
0.0
 11
55.4469674289
 21
68.4567767791
 31
0.0
  0
LINE
  5
1ED
330
1F
100
AcDbEntity
  8
SLD-0
  6
Continuous
370
    15
100
AcDbLine
 10
58.8477397695
 20
84.5954916269
 30
0.0
 11
58.8829593093
 21
84.5880329528
 31
0.0
  0
LINE
  5
1EE
330
1F
100
AcDbEntity
  8
SLD-0
  6
Continuous
370
    15
100
AcDbLine
 10
58.6726722453
 20
83.5950846735
 30
0.0
 11
58.8829593093
 21
84.5880329528
 31
0.0
  0
LINE
  5
1EF
330
1F
100
AcDbEntity
  8
SLD-0
  6
Continuous
370
    15
100
AcDbLine
 10
55.4306054846
 20
68.4602415925
 30
0.0
 11
58.8477397695
 21
84.5954916269
 31
0.0
  0
LINE
  5
1F0
330
1F
100
AcDbEntity
  8
SLD-0
  6
Continuous
370
    15
100
AcDbLine
 10
94.5298902329
 20
65.4603797138
 30
0.0
 11
94.5169907553
 21
65.4603797138
 31
0.0
  0
LINE
  5
1F1
330
1F
100
AcDbEntity
  8
SLD-0
  6
Continuous
370
    15
100
AcDbLine
 10
94.5169907553
 20
65.4603797138
 30
0.0
 11
94.5169907553
 21
66.1912382575
 31
0.0
  0
LINE
  5
1F2
330
1F
100
AcDbEntity
  8
SLD-0
  6
Continuous
370
    15
100
AcDbLine
 10
94.5169907553
 20
68.3621989917
 30
0.0
 11
94.5169907553
 21
68.3983794804
 31
0.0
  0
LINE
  5
1F3
330
1F
100
AcDbEntity
  8
SLD-0
  6
Continuous
370
    15
100
AcDbLine
 10
94.5529905528
 20
68.3983794804
 30
0.0
 11
94.5169907553
 21
68.3983794804
 31
0.0
  0
LINE
  5
1F4
330
1F
100
AcDbEntity
  8
SLD-0
  6
Continuous
370
    15
100
AcDbLine
 10
94.5529905528
 20
66.143379717
 30
0.0
 11
94.5529905528
 21
66.1810550151
 31
0.0
  0
LINE
  5
1F5
330
1F
100
AcDbEntity
  8
SLD-0
  6
Continuous
370
    15
100
AcDbLine
 10
94.5529905528
 20
66.229054354
 30
0.0
 11
94.5529905528
 21
68.3983794804
 31
0.0
  0
LINE
  5
1F6
330
1F
100
AcDbEntity
  8
SLD-0
  6
Continuous
370
    15
100
AcDbLine
 10
58.9159906078
 20
84.6613796672
 30
0.0
 11
91.0559907371
 21
84.6613796672
 31
0.0
  0
LINE
  5
1F7
330
1F
100
AcDbEntity
  8
SLD-0
  6
Continuous
370
    15
100
AcDbLine
 10
91.0559907371
 20
84.6613796672
 30
0.0
 11
91.0559907371
 21
84.6253796635
 31
0.0
  0
LINE
  5
1F8
330
1F
100
AcDbEntity
  8
SLD-0
  6
Continuous
370
    15
100
AcDbLine
 10
58.9159906078
 20
84.6253796635
 30
0.0
 11
58.9238483303
 21
84.6253796635
 31
0.0
  0
LINE
  5
1F9
330
1F
100
AcDbEntity
  8
SLD-0
  6
Continuous
370
    15
100
AcDbLine
 10
91.0481330145
 20
84.6253796635
 30
0.0
 11
91.0559907371
 21
84.6253796635
 31
0.0
  0
LINE
  5
1FA
330
1F
100
AcDbEntity
  8
SLD-0
  6
Continuous
370
    15
100
AcDbLine
 10
58.9159906078
 20
84.6613796672
 30
0.0
 11
58.9159906078
 21
84.6253796635
 31
0.0
  0
LINE
  5
1FB
330
1F
100
AcDbEntity
  8
SLD-0
  6
Continuous
370
    15
100
AcDbLine
 10
55.4420911119
 20
65.4603797138
 30
0.0
 11
55.4549905895
 21
65.4603797138
 31
0.0
  0
LINE
  5
1FC
330
1F
100
AcDbEntity
  8
SLD-0
  6
Continuous
370
    15
100
AcDbLine
 10
55.4189907921
 20
66.143379717
 30
0.0
 11
55.4189907921
 21
66.1810550151
 31
0.0
  0
LINE
  5
1FD
330
1F
100
AcDbEntity
  8
SLD-0
  6
Continuous
370
    15
100
AcDbLine
 10
55.4189907921
 20
66.229054354
 30
0.0
 11
55.4189907921
 21
68.3983794804
 31
0.0
  0
LINE
  5
1FE
330
1F
100
AcDbEntity
  8
SLD-0
  6
Continuous
370
    15
100
AcDbLine
 10
55.4189907921
 20
68.3983794804
 30
0.0
 11
55.4549905895
 21
68.3983794804
 31
0.0
  0
LINE
  5
1FF
330
1F
100
AcDbEntity
  8
SLD-0
  6
Continuous
370
    15
100
AcDbLine
 10
55.4549905895
 20
65.4603797138
 30
0.0
 11
55.4549905895
 21
66.1912382575
 31
0.0
  0
LINE
  5
200
330
1F
100
AcDbEntity
  8
SLD-0
  6
Continuous
370
    15
100
AcDbLine
 10
55.4549905895
 20
68.3621989917
 30
0.0
 11
55.4549905895
 21
68.3983794804
 31
0.0
  0
LINE
  5
201
330
1F
100
AcDbEntity
  8
SLD-0
  6
Continuous
370
    15
100
AcDbLine
 10
55.4549905895
 20
65.4603797138
 30
0.0
 11
55.4732028591
 21
65.4603797138
 31
0.0
  0
SPLINE
  5
202
330
1F
100
AcDbEntity
  8
SLD-0
  6
Continuous
370
    15
100
AcDbSpline
210
0.0
220
0.0
230
1.0
 70
     8
 71
     3
 72
    11
 73
     7
 74
     0
 42
0.00000001
 43
0.00000001
 12
1.0
 22
0.0
 32
0.0
 13
1.0
 23
0.0
 33
0.0
 40
0.0
 40
0.0
 40
0.0
 40
0.0
 40
0.2215742206208623
 40
0.4810383374070895
 40
0.740527754464561
 40
1.0
 40
1.0
 40
1.0
 40
1.0
 10
55.4842578780874
 20
68.38463638585485
 30
0.0
 10
55.48079578209234
 20
68.38565130697651
 30
0.0
 10
55.47327956068023
 20
68.38785470395833
 30
0.0
 10
55.46356516709292
 20
68.3912467032934
 30
0.0
 10
55.45638637141153
 20
68.3948139878079
 30
0.0
 10
55.4554558398866
 20
68.39719100910429
 30
0.0
 10
55.45499058951895
 20
68.39837948042678
 30
0.0
  0
LINE
  5
203
330
1F
100
AcDbEntity
  8
SLD-0
  6
Continuous
370
    15
100
AcDbLine
 10
94.4987784857
 20
65.4603797138
 30
0.0
 11
94.5169907553
 21
65.4603797138
 31
0.0
  0
SPLINE
  5
204
330
1F
100
AcDbEntity
  8
SLD-0
  6
Continuous
370
    15
100
AcDbSpline
210
0.0
220
0.0
230
1.0
 70
     8
 71
     3
 72
    11
 73
     7
 74
     0
 42
0.00000001
 43
0.00000001
 12
1.0
 22
0.0
 32
0.0
 13
1.0
 23
0.0
 33
0.0
 40
0.0
 40
0.0
 40
0.0
 40
0.0
 40
0.2594905858380321
 40
0.5189983444118332
 40
0.7784808009260884
 40
1.0
 40
1.0
 40
1.0
 40
1.0
 10
94.51699075529308
 20
68.39837948042678
 30
0.0
 10
94.51652550397692
 20
68.39719101645238
 30
0.0
 10
94.51559497055493
 20
68.39481400985264
 30
0.0
 10
94.50841618910175
 20
68.39124661511117
 30
0.0
 10
94.49870267125773
 20
68.38785533792242
 30
0.0
 10
94.49118784459291
 20
68.3856513873016
 30
0.0
 10
94.48772698668397
 20
68.38463638585485
 30
0.0
  0
LINE
  5
205
330
1F
100
AcDbEntity
  8
SLD-0
  6
Continuous
370
    15
100
AcDbLine
 10
91.0559907371
 20
84.5943796646
 30
0.0
 11
91.0559907371
 21
84.6253796635
 31
0.0
  0
LINE
  5
206
330
1F
100
AcDbEntity
  8
SLD-0
  6
Continuous
370
    15
100
AcDbLine
 10
58.9159906078
 20
84.6253796635
 30
0.0
 11
58.9159906078
 21
84.5943796646
 31
0.0
  0
SPLINE
  5
207
330
1F
100
AcDbEntity
  8
SLD-0
  6
Continuous
370
    15
100
AcDbSpline
210
0.0
220
0.0
230
1.0
 70
     8
 71
     3
 72
    11
 73
     7
 74
     0
 42
0.00000001
 43
0.00000001
 12
1.0
 22
0.0
 32
0.0
 13
1.0
 23
0.0
 33
0.0
 40
0.0
 40
0.0
 40
0.0
 40
0.0
 40
0.2499883301978297
 40
0.5000006270731807
 40
0.7500061394827634
 40
1.0
 40
1.0
 40
1.0
 40
1.0
 10
58.91599060775139
 20
84.59437966462143
 30
0.0
 10
58.91212935992606
 20
84.59408558855932
 30
0.0
 10
58.904406494093
 20
84.59349740824169
 30
0.0
 10
58.89428391217835
 20
84.59230567680581
 30
0.0
 10
58.88648654641101
 20
84.5906213411637
 30
0.0
 10
58.8843149471888
 20
84.58885765884398
 30
0.0
 10
58.88322917288096
 20
84.5879758382344
 30
0.0
  0
ARC
  5
208
330
1F
100
AcDbEntity
  8
SLD-0
  6
Continuous
370
    15
100
AcDbCircle
 10
58.8940373671
 20
84.6397101497
 30
0.0
 40
0.0528512634345288
100
AcDbArc
 50
257.9006077605
 51
258.1996461857
  0
SPLINE
  5
209
330
1F
100
AcDbEntity
  8
SLD-0
  6
Continuous
370
    15
100
AcDbSpline
210
0.0
220
0.0
230
1.0
 70
     8
 71
     3
 72
    11
 73
     7
 74
     0
 42
0.00000001
 43
0.00000001
 12
1.0
 22
0.0
 32
0.0
 13
1.0
 23
0.0
 33
0.0
 40
0.0
 40
0.0
 40
0.0
 40
0.0
 40
0.2500029435471393
 40
0.4999989105359022
 40
0.7499972079258017
 40
1.0
 40
1.0
 40
1.0
 40
1.0
 10
58.9159906077514
 20
84.59437966462143
 30
0.0
 10
58.90790648939304
 20
84.59497985527818
 30
0.0
 10
58.891738478271
 20
84.59618021984282
 30
0.0
 10
58.87064634090864
 20
84.59731166534623
 30
0.0
 10
58.85458130528199
 20
84.59737848723222
 30
0.0
 10
58.85040905389889
 20
84.59603829078343
 30
0.0
 10
58.84832290945442
 20
84.59536818653527
 30
0.0
  0
SPLINE
  5
20A
330
1F
100
AcDbEntity
  8
SLD-0
  6
Continuous
370
    15
100
AcDbSpline
210
0.0
220
0.0
230
1.0
 70
     8
 71
     3
 72
    11
 73
     7
 74
     0
 42
0.00000001
 43
0.00000001
 12
1.0
 22
0.0
 32
0.0
 13
1.0
 23
0.0
 33
0.0
 40
0.0
 40
0.0
 40
0.0
 40
0.0
 40
0.2500027920741983
 40
0.5000010894640978
 40
0.7499970564528607
 40
1.0
 40
1.0
 40
1.0
 40
1.0
 10
91.1236584353576
 20
84.59536818653527
 30
0.0
 10
91.12157229091314
 20
84.59603829078343
 30
0.0
 10
91.11740003953003
 20
84.59737848723222
 30
0.0
 10
91.10133500390339
 20
84.59731166534623
 30
0.0
 10
91.08024286654101
 20
84.59618021984282
 30
0.0
 10
91.06407485541897
 20
84.59497985527818
 30
0.0
 10
91.05599073706063
 20
84.59437966462143
 30
0.0
  0
SPLINE
  5
20B
330
1F
100
AcDbEntity
  8
SLD-0
  6
Continuous
370
    15
100
AcDbSpline
210
0.0
220
0.0
230
1.0
 70
     8
 71
     3
 72
    11
 73
     7
 74
     0
 42
0.00000001
 43
0.00000001
 12
1.0
 22
0.0
 32
0.0
 13
1.0
 23
0.0
 33
0.0
 40
0.0
 40
0.0
 40
0.0
 40
0.0
 40
0.2499938605172366
 40
0.4999993729268193
 40
0.7500116698021704
 40
1.0
 40
1.0
 40
1.0
 40
1.0
 10
91.08875217193106
 20
84.5879758382344
 30
0.0
 10
91.08766639762322
 20
84.58885765884398
 30
0.0
 10
91.085494798401
 20
84.5906213411637
 30
0.0
 10
91.07769743263366
 20
84.59230567680581
 30
0.0
 10
91.06757485071901
 20
84.59349740824169
 30
0.0
 10
91.05985198488595
 20
84.59408558855932
 30
0.0
 10
91.05599073706063
 20
84.59437966462143
 30
0.0
  0
ARC
  5
20C
330
1F
100
AcDbEntity
  8
SLD-0
  6
Continuous
370
    15
100
AcDbCircle
 10
91.0779439779
 20
84.639710149
 30
0.0
 40
0.0528512626462425
100
AcDbArc
 50
281.8003538124
 51
282.099392242
  0
LINE
  5
20D
330
1F
100
AcDbEntity
  8
SLD-0
  6
Continuous
370
    15
100
AcDbLine
 10
92.8909901257
 20
65.3933796344
 30
0.0
 11
92.8909901257
 21
64.9233794106
 31
0.0
  0
LINE
  5
20E
330
1F
100
AcDbEntity
  8
SLD-0
  6
Continuous
370
    15
100
AcDbLine
 10
92.8909901257
 20
64.9233794106
 30
0.0
 11
57.0809912192
 21
64.9233794106
 31
0.0
  0
LINE
  5
20F
330
1F
100
AcDbEntity
  8
SLD-0
  6
Continuous
370
    15
100
AcDbLine
 10
57.0809912192
 20
65.3933796344
 30
0.0
 11
57.0809912192
 21
64.9233794106
 31
0.0
  0
LINE
  5
210
330
1F
100
AcDbEntity
  8
SLD-0
  6
Continuous
370
    15
100
AcDbLine
 10
92.8909901257
 20
64.9080230013
 30
0.0
 11
57.0809912192
 21
64.9080230013
 31
0.0
  0
LINE
  5
211
330
1F
100
AcDbEntity
  8
SLD-0
  6
Continuous
370
    15
100
AcDbLine
 10
57.0809912192
 20
64.9080230013
 30
0.0
 11
57.0809912192
 21
64.9233794106
 31
0.0
  0
LINE
  5
212
330
1F
100
AcDbEntity
  8
SLD-0
  6
Continuous
370
    15
100
AcDbLine
 10
92.8909901257
 20
64.9233794106
 30
0.0
 11
92.8909901257
 21
64.9080230013
 31
0.0
  0
LWPOLYLINE
  5
213
330
1F
100
AcDbEntity
  8
SLD-0
  6
Continuous
370
    15
100
AcDbPolyline
 90
        9
 70
   128
 43
0.0
 10
57.0360906178
 20
64.9233794106
 10
57.0369530079
 20
64.9203839252
 10
57.0395084984
 20
64.9175034251
 10
57.0436573571
 20
64.9148482025
 10
57.0492411859
 20
64.912520336
 10
57.0560452673
 20
64.9106113448
 10
57.063807951
 20
64.9091916278
 10
57.0722312137
 20
64.9083175046
 10
57.0809912192
 20
64.9080230013
  0
LINE
  5
214
330
1F
100
AcDbEntity
  8
SLD-0
  6
Continuous
370
    15
100
AcDbLine
 10
57.0809912192
 20
64.9080230013
 30
0.0
 11
57.0809912192
 21
62.032700804
 31
0.0
  0
SPLINE
  5
215
330
1F
100
AcDbEntity
  8
SLD-0
  6
Continuous
370
    15
100
AcDbSpline
210
0.0
220
0.0
230
1.0
 70
     8
 71
     3
 72
    11
 73
     7
 74
     0
 42
0.00000001
 43
0.00000001
 12
1.0
 22
0.0
 32
0.0
 13
1.0
 23
0.0
 33
0.0
 40
0.0
 40
0.0
 40
0.0
 40
0.0
 40
0.2582751752183826
 40
0.516737379264115
 40
0.7752159117431701
 40
1.0
 40
1.0
 40
1.0
 40
1.0
 10
57.08099121915426
 20
62.03270080395672
 30
0.0
 10
57.07491154834491
 20
62.0367542165167
 30
0.0
 10
57.06274780415946
 20
62.04486397689746
 30
0.0
 10
57.04758429470829
 20
62.0600745115396
 30
0.0
 10
57.03781608332219
 20
62.07615085234688
 30
0.0
 10
57.03663840259073
 20
62.08714960956593
 30
0.0
 10
57.03609061784984
 20
62.09226555585963
 30
0.0
  0
LINE
  5
216
330
1F
100
AcDbEntity
  8
SLD-0
  6
Continuous
370
    15
100
AcDbLine
 10
57.0360906178
 20
62.0922655559
 30
0.0
 11
57.0360906178
 21
64.9233794106
 31
0.0
  0
LWPOLYLINE
  5
217
330
1F
100
AcDbEntity
  8
SLD-0
  6
Continuous
370
    15
100
AcDbPolyline
 90
        9
 70
   128
 43
0.0
 10
92.8909901257
 20
64.9080230013
 10
92.8997501311
 20
64.9083175046
 10
92.9081733938
 20
64.9091916278
 10
92.9159360775
 20
64.9106113448
 10
92.9227401589
 20
64.912520336
 10
92.9283239877
 20
64.9148482025
 10
92.9324728464
 20
64.9175034251
 10
92.9350283369
 20
64.9203839252
 10
92.935890727
 20
64.9233794106
  0
LINE
  5
218
330
1F
100
AcDbEntity
  8
SLD-0
  6
Continuous
370
    15
100
AcDbLine
 10
92.935890727
 20
64.9233794106
 30
0.0
 11
92.935890727
 21
62.0922655559
 31
0.0
  0
SPLINE
  5
219
330
1F
100
AcDbEntity
  8
SLD-0
  6
Continuous
370
    15
100
AcDbSpline
210
0.0
220
0.0
230
1.0
 70
     8
 71
     3
 72
    11
 73
     7
 74
     0
 42
0.00000001
 43
0.00000001
 12
1.0
 22
0.0
 32
0.0
 13
1.0
 23
0.0
 33
0.0
 40
0.0
 40
0.0
 40
0.0
 40
0.0
 40
0.258286999334593
 40
0.516739440987599
 40
0.7752247953323453
 40
1.0
 40
1.0
 40
1.0
 40
1.0
 10
92.93589072696219
 20
62.09226555585963
 30
0.0
 10
92.93516931561764
 20
62.08637842990918
 30
0.0
 10
92.93372603083802
 20
62.07460040708774
 30
0.0
 10
92.92265909159653
 20
62.05799097308074
 30
0.0
 10
92.9076369383731
 20
62.04370936654229
 30
0.0
 10
92.89627487386838
 20
62.03619561599193
 30
0.0
 10
92.89099012565777
 20
62.03270080395671
 30
0.0
  0
LINE
  5
21A
330
1F
100
AcDbEntity
  8
SLD-0
  6
Continuous
370
    15
100
AcDbLine
 10
92.8909901257
 20
64.9080230013
 30
0.0
 11
92.8909901257
 21
62.032700804
 31
0.0
  0
LINE
  5
21B
330
1F
100
AcDbEntity
  8
SLD-0
  6
Continuous
370
    15
100
AcDbLine
 10
92.8909901257
 20
62.032700804
 30
0.0
 11
57.0809912192
 21
62.032700804
 31
0.0
  0
LWPOLYLINE
  5
21C
330
1F
100
AcDbEntity
  8
SLD-0
  6
Continuous
370
    15
100
AcDbPolyline
 90
        9
 70
   128
 43
0.0
 10
92.8909901257
 20
64.9182496565
 10
92.8939175585
 20
64.9183482154
 10
92.8967311793
 20
64.918640372
 10
92.899324216
 20
64.9191143932
 10
92.9015969365
 20
64.9197515058
 10
92.9034625149
 20
64.9205294168
 10
92.9048493789
 20
64.9214164466
 10
92.9057023824
 20
64.9223785688
 10
92.905991019
 20
64.9233794106
  0
LINE
  5
21D
330
1F
100
AcDbEntity
  8
SLD-0
  6
Continuous
370
    15
100
AcDbLine
 10
92.905991019
 20
64.9233794106
 30
0.0
 11
92.935890727
 21
64.9233794106
 31
0.0
  0
LINE
  5
21E
330
1F
100
AcDbEntity
  8
SLD-0
  6
Continuous
370
    15
100
AcDbLine
 10
57.0659903258
 20
64.9233794106
 30
0.0
 11
57.0360906178
 21
64.9233794106
 31
0.0
  0
LWPOLYLINE
  5
21F
330
1F
100
AcDbEntity
  8
SLD-0
  6
Continuous
370
    15
100
AcDbPolyline
 90
        9
 70
   128
 43
0.0
 10
57.0659903258
 20
64.9233794106
 10
57.0662789624
 20
64.9223785688
 10
57.0671319659
 20
64.9214164466
 10
57.0685188299
 20
64.9205294168
 10
57.0703844084
 20
64.9197515058
 10
57.0726571288
 20
64.9191143932
 10
57.0752501655
 20
64.918640372
 10
57.0780637863
 20
64.9183482154
 10
57.0809912192
 20
64.9182496565
  0
LINE
  5
220
330
1F
100
AcDbEntity
  8
SLD-0
  6
Continuous
370
    15
100
AcDbLine
 10
57.0360906178
 20
65.3933796344
 30
0.0
 11
57.0360906178
 21
64.9233794106
 31
0.0
  0
LINE
  5
221
330
1F
100
AcDbEntity
  8
SLD-0
  6
Continuous
370
    15
100
AcDbLine
 10
57.0659903258
 20
65.3933796344
 30
0.0
 11
57.0659903258
 21
64.9233794106
 31
0.0
  0
LINE
  5
222
330
1F
100
AcDbEntity
  8
SLD-0
  6
Continuous
370
    15
100
AcDbLine
 10
92.935890727
 20
65.3933796344
 30
0.0
 11
92.935890727
 21
64.9233794106
 31
0.0
  0
LINE
  5
223
330
1F
100
AcDbEntity
  8
SLD-0
  6
Continuous
370
    15
100
AcDbLine
 10
92.905991019
 20
65.3933796344
 30
0.0
 11
92.905991019
 21
64.9233794106
 31
0.0
  0
SPLINE
  5
224
330
1F
100
AcDbEntity
  8
SLD-0
  6
Continuous
370
    15
100
AcDbSpline
210
0.0
220
0.0
230
1.0
 70
     8
 71
     3
 72
    11
 73
     7
 74
     0
 42
0.00000001
 43
0.00000001
 12
1.0
 22
0.0
 32
0.0
 13
1.0
 23
0.0
 33
0.0
 40
0.0
 40
0.0
 40
0.0
 40
0.0
 40
0.3215586045458315
 40
0.6430604482651427
 40
0.9645859134821451
 40
1.0
 40
1.0
 40
1.0
 40
1.0
 10
92.89099012565777
 20
62.03270080395672
 30
0.0
 10
92.88877567765978
 20
62.02891850323156
 30
0.0
 10
92.88434717255336
 20
62.02135456942474
 30
0.0
 10
92.87770449208858
 20
62.01429361711373
 30
0.0
 10
92.87302728917052
 20
62.01110994754038
 30
0.0
 10
92.87057160710744
 20
62.01189290796101
 30
0.0
 10
92.87032796434882
 20
62.01197059010059
 30
0.0
  0
SPLINE
  5
225
330
1F
100
AcDbEntity
  8
SLD-0
  6
Continuous
370
    15
100
AcDbSpline
210
0.0
220
0.0
230
1.0
 70
     8
 71
     3
 72
    11
 73
     7
 74
     0
 42
0.00000001
 43
0.00000001
 12
1.0
 22
0.0
 32
0.0
 13
1.0
 23
0.0
 33
0.0
 40
0.0
 40
0.0
 40
0.0
 40
0.0
 40
0.0354140865178548
 40
0.3569395517348571
 40
0.6784413954541684
 40
1.0
 40
1.0
 40
1.0
 40
1.0
 10
57.1016533804632
 20
62.01197059010059
 30
0.0
 10
57.10140973770459
 20
62.01189290796101
 30
0.0
 10
57.09895405564149
 20
62.0111099475404
 30
0.0
 10
57.09427685272343
 20
62.01429361711372
 30
0.0
 10
57.08763417225867
 20
62.02135456942474
 30
0.0
 10
57.08320566715224
 20
62.02891850323156
 30
0.0
 10
57.08099121915426
 20
62.03270080395672
 30
0.0
  0
LINE
  5
226
330
1F
100
AcDbEntity
  8
SLD-0
  6
Continuous
370
    15
100
AcDbLine
 10
94.5363341052
 20
66.2440552474
 30
0.0
 11
94.5363341052
 21
66.2586795051
 31
0.0
  0
LINE
  5
227
330
1F
100
AcDbEntity
  8
SLD-0
  6
Continuous
370
    15
100
AcDbLine
 10
94.5363341052
 20
66.2440552474
 30
0.0
 11
94.488333593
 21
66.2440552474
 31
0.0
  0
LINE
  5
228
330
1F
100
AcDbEntity
  8
SLD-0
  6
Continuous
370
    15
100
AcDbLine
 10
94.5169907553
 20
67.8216799025
 30
0.0
 11
94.488333593
 21
67.8216799025
 31
0.0
  0
LINE
  5
229
330
1F
100
AcDbEntity
  8
SLD-0
  6
Continuous
370
    15
100
AcDbLine
 10
95.4883340943
 20
66.229054354
 30
0.0
 11
94.5513338252
 21
66.229054354
 31
0.0
  0
LINE
  5
22A
330
1F
100
AcDbEntity
  8
SLD-0
  6
Continuous
370
    15
100
AcDbLine
 10
95.4883340943
 20
66.1810550151
 30
0.0
 11
94.5513338252
 21
66.1810550151
 31
0.0
  0
LINE
  5
22B
330
1F
100
AcDbEntity
  8
SLD-0
  6
Continuous
370
    15
100
AcDbLine
 10
94.5513338252
 20
66.229054354
 30
0.0
 11
94.5513338252
 21
66.1810550151
 31
0.0
  0
LINE
  5
22C
330
1F
100
AcDbEntity
  8
SLD-0
  6
Continuous
370
    15
100
AcDbLine
 10
95.4883340943
 20
66.229054354
 30
0.0
 11
95.4883340943
 21
66.1810550151
 31
0.0
  0
ARC
  5
22D
330
1F
100
AcDbEntity
  8
SLD-0
  6
Continuous
370
    15
100
AcDbCircle
 10
94.5513340024
 20
66.2440546647
 30
0.0
 40
0.0630000000000166
100
AcDbArc
 50
180.0
 51
270.0
  0
ARC
  5
22E
330
1F
100
AcDbEntity
  8
SLD-0
  6
Continuous
370
    15
100
AcDbCircle
 10
94.5513340024
 20
66.2440546647
 30
0.0
 40
0.0150000000000148
100
AcDbArc
 50
180.0
 51
270.0
  0
LINE
  5
22F
330
1F
100
AcDbEntity
  8
SLD-0
  6
Continuous
370
    15
100
AcDbLine
 10
55.4356472396
 20
66.2440552474
 30
0.0
 11
55.4836477518
 21
66.2440552474
 31
0.0
  0
LINE
  5
230
330
1F
100
AcDbEntity
  8
SLD-0
  6
Continuous
370
    15
100
AcDbLine
 10
55.4356472396
 20
66.2440552474
 30
0.0
 11
55.4356472396
 21
66.2586795051
 31
0.0
  0
LINE
  5
231
330
1F
100
AcDbEntity
  8
SLD-0
  6
Continuous
370
    15
100
AcDbLine
 10
55.4549905895
 20
67.8216799025
 30
0.0
 11
55.4836477518
 21
67.8216799025
 31
0.0
  0
ARC
  5
232
330
1F
100
AcDbEntity
  8
SLD-0
  6
Continuous
370
    15
100
AcDbCircle
 10
55.4206473424
 20
66.2440546647
 30
0.0
 40
0.0630000000000166
100
AcDbArc
 50
270.0
 51
0.0
  0
LINE
  5
233
330
1F
100
AcDbEntity
  8
SLD-0
  6
Continuous
370
    15
100
AcDbLine
 10
55.4206475196
 20
66.229054354
 30
0.0
 11
55.4206475196
 21
66.1810550151
 31
0.0
  0
ARC
  5
234
330
1F
100
AcDbEntity
  8
SLD-0
  6
Continuous
370
    15
100
AcDbCircle
 10
55.4206473424
 20
66.2440546647
 30
0.0
 40
0.0150000000000148
100
AcDbArc
 50
270.0
 51
0.0
  0
LINE
  5
235
330
1F
100
AcDbEntity
  8
SLD-0
  6
Continuous
370
    15
100
AcDbLine
 10
54.4836472506
 20
66.229054354
 30
0.0
 11
55.4206475196
 21
66.229054354
 31
0.0
  0
LINE
  5
236
330
1F
100
AcDbEntity
  8
SLD-0
  6
Continuous
370
    15
100
AcDbLine
 10
54.4836472506
 20
66.229054354
 30
0.0
 11
54.4836472506
 21
66.1810550151
 31
0.0
  0
LINE
  5
237
330
1F
100
AcDbEntity
  8
SLD-0
  6
Continuous
370
    15
100
AcDbLine
 10
54.4836472506
 20
66.1810550151
 30
0.0
 11
55.4206475196
 21
66.1810550151
 31
0.0
  0
LINE
  5
238
330
1F
100
AcDbEntity
  8
SLD-0
  6
Continuous
370
    15
100
AcDbLine
 10
94.4987784857
 20
65.4579791015
 30
0.0
 11
55.4732028591
 21
65.4579791015
 31
0.0
  0
LINE
  5
239
330
1F
100
AcDbEntity
  8
SLD-0
  6
Continuous
370
    15
100
AcDbLine
 10
55.4732028591
 20
65.3933796344
 30
0.0
 11
94.4987784857
 21
65.3933796344
 31
0.0
  0
LINE
  5
23A
330
1F
100
AcDbEntity
  8
SLD-0
  6
Continuous
370
    15
100
AcDbLine
 10
55.4732028591
 20
65.3933796344
 30
0.0
 11
55.4732028591
 21
65.4579791015
 31
0.0
  0
LINE
  5
23B
330
1F
100
AcDbEntity
  8
SLD-0
  6
Continuous
370
    15
100
AcDbLine
 10
94.4987784857
 20
65.4579791015
 30
0.0
 11
94.4987784857
 21
65.3933796344
 31
0.0
  0
LINE
  5
23C
330
1F
100
AcDbEntity
  8
SLD-0
  6
Continuous
370
    15
100
AcDbLine
 10
94.4987784857
 20
66.143379717
 30
0.0
 11
86.0911643578
 21
66.143379717
 31
0.0
  0
LINE
  5
23D
330
1F
100
AcDbEntity
  8
SLD-0
  6
Continuous
370
    15
100
AcDbLine
 10
84.5208166319
 20
66.143379717
 30
0.0
 11
65.4511647129
 21
66.143379717
 31
0.0
  0
LINE
  5
23E
330
1F
100
AcDbEntity
  8
SLD-0
  6
Continuous
370
    15
100
AcDbLine
 10
63.880816987
 20
66.143379717
 30
0.0
 11
55.4732028591
 21
66.143379717
 31
0.0
  0
LINE
  5
23F
330
1F
100
AcDbEntity
  8
SLD-0
  6
Continuous
370
    15
100
AcDbLine
 10
94.4987784857
 20
66.143379717
 30
0.0
 11
94.4987784857
 21
65.4579791015
 31
0.0
  0
LINE
  5
240
330
1F
100
AcDbEntity
  8
SLD-0
  6
Continuous
370
    15
100
AcDbLine
 10
55.4732028591
 20
66.143379717
 30
0.0
 11
55.4732028591
 21
65.4579791015
 31
0.0
  0
LINE
  5
241
330
1F
100
AcDbEntity
  8
SLD-0
  6
Continuous
370
    15
100
AcDbLine
 10
94.4988911244
 20
65.3933796344
 30
0.0
 11
94.4987784857
 21
65.3933796344
 31
0.0
  0
LINE
  5
242
330
1F
100
AcDbEntity
  8
SLD-0
  6
Continuous
370
    15
100
AcDbLine
 10
94.4988911244
 20
65.426979993
 30
0.0
 11
94.4987784857
 21
65.426979993
 31
0.0
  0
LINE
  5
243
330
1F
100
AcDbEntity
  8
SLD-0
  6
Continuous
370
    15
100
AcDbLine
 10
55.4732028591
 20
65.3933796344
 30
0.0
 11
55.4730902204
 21
65.3933796344
 31
0.0
  0
LINE
  5
244
330
1F
100
AcDbEntity
  8
SLD-0
  6
Continuous
370
    15
100
AcDbLine
 10
55.4732028591
 20
65.426979993
 30
0.0
 11
55.4730902204
 21
65.426979993
 31
0.0
  0
SPLINE
  5
245
330
1F
100
AcDbEntity
  8
SLD-0
  6
Continuous
370
    15
100
AcDbSpline
210
0.0
220
0.0
230
1.0
 70
     8
 71
     3
 72
    11
 73
     7
 74
     0
 42
0.00000001
 43
0.00000001
 12
1.0
 22
0.0
 32
0.0
 13
1.0
 23
0.0
 33
0.0
 40
0.0
 40
0.0
 40
0.0
 40
0.0
 40
0.2499898123315775
 40
0.4999884418387616
 40
0.7499870713459458
 40
1.0
 40
1.0
 40
1.0
 40
1.0
 10
94.49889112438156
 20
65.42697999295389
 30
0.0
 10
94.50295284019985
 20
65.42744598279761
 30
0.0
 10
94.51107641509373
 20
65.4283779789206
 30
0.0
 10
94.52132446241254
 20
65.43554567799663
 30
0.0
 10
94.5284924993591
 20
65.44579443717952
 30
0.0
 10
94.5294243128664
 20
65.45391746930414
 30
0.0
 10
94.52989023294387
 20
65.4579791015162
 30
0.0
  0
LINE
  5
246
330
1F
100
AcDbEntity
  8
SLD-0
  6
Continuous
370
    15
100
AcDbLine
 10
94.5298902329
 20
65.4579791015
 30
0.0
 11
94.5634905915
 21
65.4579791015
 31
0.0
  0
SPLINE
  5
247
330
1F
100
AcDbEntity
  8
SLD-0
  6
Continuous
370
    15
100
AcDbSpline
210
0.0
220
0.0
230
1.0
 70
     8
 71
     3
 72
    11
 73
     7
 74
     0
 42
0.00000001
 43
0.00000001
 12
1.0
 22
0.0
 32
0.0
 13
1.0
 23
0.0
 33
0.0
 40
0.0
 40
0.0
 40
0.0
 40
0.0
 40
0.2499946771875426
 40
0.4999946632936856
 40
0.7499946493998286
 40
0.9999999999999999
 40
0.9999999999999999
 40
0.9999999999999999
 40
0.9999999999999999
 10
94.49889112438156
 20
65.39337963444143
 30
0.0
 10
94.50735586342905
 20
65.3943507087143
 30
0.0
 10
94.52428552128231
 20
65.39629287788189
 30
0.0
 10
94.54563874150969
 20
65.41123140212235
 30
0.0
 10
94.56057759087862
 20
65.4325853072984
 30
0.0
 10
94.56251958431864
 20
65.44951444290008
 30
0.0
 10
94.56349059145633
 20
65.4579791015162
 30
0.0
  0
SPLINE
  5
248
330
1F
100
AcDbEntity
  8
SLD-0
  6
Continuous
370
    15
100
AcDbSpline
210
0.0
220
0.0
230
1.0
 70
     8
 71
     3
 72
    11
 73
     7
 74
     0
 42
0.00000001
 43
0.00000001
 12
1.0
 22
0.0
 32
0.0
 13
1.0
 23
0.0
 33
0.0
 40
0.0
 40
0.0
 40
0.0
 40
0.0
 40
0.2500129286540541
 40
0.5000115581612382
 40
0.7500101876684224
 40
1.0
 40
1.0
 40
1.0
 40
1.0
 10
55.44209111186814
 20
65.4579791015162
 30
0.0
 10
55.44255703194562
 20
65.45391746930414
 30
0.0
 10
55.44348884545292
 20
65.4457944371795
 30
0.0
 10
55.4506568823995
 20
65.43554567799664
 30
0.0
 10
55.46090492971828
 20
65.4283779789206
 30
0.0
 10
55.46902850461217
 20
65.42744598279761
 30
0.0
 10
55.47309022043046
 20
65.42697999295389
 30
0.0
  0
LINE
  5
249
330
1F
100
AcDbEntity
  8
SLD-0
  6
Continuous
370
    15
100
AcDbLine
 10
55.4084907534
 20
65.4579791015
 30
0.0
 11
55.4420911119
 21
65.4579791015
 31
0.0
  0
SPLINE
  5
24A
330
1F
100
AcDbEntity
  8
SLD-0
  6
Continuous
370
    15
100
AcDbSpline
210
0.0
220
0.0
230
1.0
 70
     8
 71
     3
 72
    11
 73
     7
 74
     0
 42
0.00000001
 43
0.00000001
 12
1.0
 22
0.0
 32
0.0
 13
1.0
 23
0.0
 33
0.0
 40
0.0
 40
0.0
 40
0.0
 40
0.0
 40
0.2500053506001714
 40
0.5000053367063144
 40
0.7500053228124574
 40
0.9999999999999999
 40
0.9999999999999999
 40
0.9999999999999999
 40
0.9999999999999999
 10
55.40849075335569
 20
65.4579791015162
 30
0.0
 10
55.40946176049339
 20
65.44951444290008
 30
0.0
 10
55.41140375393339
 20
65.4325853072984
 30
0.0
 10
55.42634260330233
 20
65.41123140212235
 30
0.0
 10
55.44769582352971
 20
65.3962928778819
 30
0.0
 10
55.46462548138297
 20
65.3943507087143
 30
0.0
 10
55.47309022043046
 20
65.39337963444143
 30
0.0
  0
LINE
  5
24B
330
1F
100
AcDbEntity
  8
SLD-0
  6
Continuous
370
    15
100
AcDbLine
 10
55.4084907534
 20
66.143379717
 30
0.0
 11
55.4420911119
 21
66.143379717
 31
0.0
  0
LINE
  5
24C
330
1F
100
AcDbEntity
  8
SLD-0
  6
Continuous
370
    15
100
AcDbLine
 10
55.4420911119
 20
66.143379717
 30
0.0
 11
55.4420911119
 21
65.4579791015
 31
0.0
  0
LINE
  5
24D
330
1F
100
AcDbEntity
  8
SLD-0
  6
Continuous
370
    15
100
AcDbLine
 10
55.4084907534
 20
66.143379717
 30
0.0
 11
55.4084907534
 21
65.4579791015
 31
0.0
  0
LINE
  5
24E
330
1F
100
AcDbEntity
  8
SLD-0
  6
Continuous
370
    15
100
AcDbLine
 10
94.5634905915
 20
65.4579791015
 30
0.0
 11
94.5634905915
 21
66.143379717
 31
0.0
  0
LINE
  5
24F
330
1F
100
AcDbEntity
  8
SLD-0
  6
Continuous
370
    15
100
AcDbLine
 10
94.5298902329
 20
65.4579791015
 30
0.0
 11
94.5298902329
 21
66.143379717
 31
0.0
  0
LINE
  5
250
330
1F
100
AcDbEntity
  8
SLD-0
  6
Continuous
370
    15
100
AcDbLine
 10
94.5298902329
 20
66.143379717
 30
0.0
 11
94.5634905915
 21
66.143379717
 31
0.0
  0
LINE
  5
251
330
1F
100
AcDbEntity
  8
SLD-0
  6
Continuous
370
    15
100
AcDbLine
 10
85.3448602325
 20
66.1230801115
 30
0.0
 11
85.3448602325
 21
82.9980796234
 31
0.0
  0
LINE
  5
252
330
1F
100
AcDbEntity
  8
SLD-0
  6
Continuous
370
    15
100
AcDbLine
 10
85.3448602325
 20
66.1230801115
 30
0.0
 11
85.2671207572
 21
66.1230801115
 31
0.0
  0
LINE
  5
253
330
1F
100
AcDbEntity
  8
SLD-0
  6
Continuous
370
    15
100
AcDbLine
 10
85.2671207572
 20
82.9980796234
 30
0.0
 11
85.2671207572
 21
66.1230801115
 31
0.0
  0
LINE
  5
254
330
1F
100
AcDbEntity
  8
SLD-0
  6
Continuous
370
    15
100
AcDbLine
 10
85.2671207572
 20
82.9980796234
 30
0.0
 11
85.3448602325
 21
82.9980796234
 31
0.0
  0
LWPOLYLINE
  5
255
330
1F
100
AcDbEntity
  8
SLD-0
  6
Continuous
370
    15
100
AcDbPolyline
 90
       21
 70
   128
 43
0.0
 10
84.8021194623
 20
71.7480795577
 10
84.8119724152
 20
71.7465401622
 10
84.8215824908
 20
71.7419618684
 10
84.830713852
 20
71.7344549685
 10
84.8391406346
 20
71.7242071935
 10
84.8466557478
 20
71.7114684607
 10
84.8530749803
 20
71.6965532196
 10
84.8582387607
 20
71.6798287195
 10
84.8620203703
 20
71.6617067955
 10
84.8643282903
 20
71.6426344825
 10
84.8651038547
 20
71.6230799351
 10
84.8643282903
 20
71.6035253876
 10
84.8620203703
 20
71.5844530746
 10
84.8582387607
 20
71.5663311506
 10
84.8530749803
 20
71.5496066505
 10
84.8466557478
 20
71.5346914095
 10
84.8391406346
 20
71.5219526766
 10
84.830713852
 20
71.5117037284
 10
84.8215824908
 20
71.5041980017
 10
84.8119724152
 20
71.4996185346
 10
84.8021194623
 20
71.4980791391
  0
LINE
  5
256
330
1F
100
AcDbEntity
  8
SLD-0
  6
Continuous
370
    15
100
AcDbLine
 10
84.8021194623
 20
71.7480795577
 30
0.0
 11
84.2982484297
 21
71.7480795577
 31
0.0
  0
LWPOLYLINE
  5
257
330
1F
100
AcDbEntity
  8
SLD-0
  6
Continuous
370
    15
100
AcDbPolyline
 90
       21
 70
   128
 43
0.0
 10
84.2982484297
 20
71.4980791391
 10
84.2883960636
 20
71.4996185346
 10
84.2787854012
 20
71.5041980017
 10
84.2696546267
 20
71.5117037284
 10
84.2612278441
 20
71.5219526766
 10
84.2537121442
 20
71.5346914095
 10
84.2472934984
 20
71.5496066505
 10
84.242129718
 20
71.5663311506
 10
84.2383475217
 20
71.5844530746
 10
84.2360401884
 20
71.6035253876
 10
84.235264624
 20
71.6230799351
 10
84.2360401884
 20
71.6426344825
 10
84.2383475217
 20
71.6617067955
 10
84.242129718
 20
71.6798287195
 10
84.2472934984
 20
71.6965532196
 10
84.2537121442
 20
71.7114684607
 10
84.2612278441
 20
71.7242071935
 10
84.2696546267
 20
71.7344549685
 10
84.2787854012
 20
71.7419618684
 10
84.2883960636
 20
71.7465401622
 10
84.2982484297
 20
71.7480795577
  0
LINE
  5
258
330
1F
100
AcDbEntity
  8
SLD-0
  6
Continuous
370
    15
100
AcDbLine
 10
84.8021194623
 20
71.4980791391
 30
0.0
 11
84.2982484297
 21
71.4980791391
 31
0.0
  0
LINE
  5
259
330
1F
100
AcDbEntity
  8
SLD-0
  6
Continuous
370
    15
100
AcDbLine
 10
84.4050774356
 20
66.3730793569
 30
0.0
 11
84.4050774356
 21
68.498079982
 31
0.0
  0
LINE
  5
25A
330
1F
100
AcDbEntity
  8
SLD-0
  6
Continuous
370
    15
100
AcDbLine
 10
84.3962593508
 20
68.498079982
 30
0.0
 11
84.4050774356
 21
68.498079982
 31
0.0
  0
LINE
  5
25B
330
1F
100
AcDbEntity
  8
SLD-0
  6
Continuous
370
    15
100
AcDbLine
 10
84.3962593508
 20
68.498079982
 30
0.0
 11
83.5431004066
 21
68.498079982
 31
0.0
  0
LINE
  5
25C
330
1F
100
AcDbEntity
  8
SLD-0
  6
Continuous
370
    15
100
AcDbLine
 10
83.5431004066
 20
68.498079982
 30
0.0
 11
83.5431004066
 21
82.9980796234
 31
0.0
  0
LINE
  5
25D
330
1F
100
AcDbEntity
  8
SLD-0
  6
Continuous
370
    15
100
AcDbLine
 10
85.2671207572
 20
66.1230801115
 30
0.0
 11
84.5310450471
 21
66.1230801115
 31
0.0
  0
LINE
  5
25E
330
1F
100
AcDbEntity
  8
SLD-0
  6
Continuous
370
    15
100
AcDbLine
 10
84.5310450471
 20
66.1230801115
 30
0.0
 11
84.4050774356
 21
66.3730793569
 31
0.0
  0
LWPOLYLINE
  5
25F
330
1F
100
AcDbEntity
  8
SLD-0
  6
Continuous
370
    15
100
AcDbPolyline
 90
       21
 70
   128
 43
0.0
 10
84.8021194623
 20
74.7480798881
 10
84.8119724152
 20
74.7465404926
 10
84.8215824908
 20
74.7419616122
 10
84.830713852
 20
74.7344552989
 10
84.8391406346
 20
74.7242063506
 10
84.8466557478
 20
74.7114676178
 10
84.8530749803
 20
74.6965523767
 10
84.8582387607
 20
74.6798290499
 10
84.8620203703
 20
74.6617071259
 10
84.8643282903
 20
74.6426336396
 10
84.8651038547
 20
74.6230790922
 10
84.8643282903
 20
74.603525718
 10
84.8620203703
 20
74.5844522317
 10
84.8582387607
 20
74.5663303077
 10
84.8530749803
 20
74.5496069809
 10
84.8466557478
 20
74.5346917399
 10
84.8391406346
 20
74.521953007
 10
84.830713852
 20
74.5117040588
 10
84.8215824908
 20
74.5041971588
 10
84.8119724152
 20
74.4996188651
 10
84.8021194623
 20
74.4980794695
  0
LINE
  5
260
330
1F
100
AcDbEntity
  8
SLD-0
  6
Continuous
370
    15
100
AcDbLine
 10
84.2982484297
 20
74.7480798881
 30
0.0
 11
84.8021194623
 21
74.7480798881
 31
0.0
  0
LWPOLYLINE
  5
261
330
1F
100
AcDbEntity
  8
SLD-0
  6
Continuous
370
    15
100
AcDbPolyline
 90
       21
 70
   128
 43
0.0
 10
84.2982484297
 20
74.4980794695
 10
84.2883960636
 20
74.4996188651
 10
84.2787854012
 20
74.5041971588
 10
84.2696546267
 20
74.5117040588
 10
84.2612278441
 20
74.521953007
 10
84.2537121442
 20
74.5346917399
 10
84.2472934984
 20
74.5496069809
 10
84.242129718
 20
74.5663303077
 10
84.2383475217
 20
74.5844522317
 10
84.2360401884
 20
74.603525718
 10
84.235264624
 20
74.6230790922
 10
84.2360401884
 20
74.6426336396
 10
84.2383475217
 20
74.6617071259
 10
84.242129718
 20
74.6798290499
 10
84.2472934984
 20
74.6965523767
 10
84.2537121442
 20
74.7114676178
 10
84.2612278441
 20
74.7242063506
 10
84.2696546267
 20
74.7344552989
 10
84.2787854012
 20
74.7419616122
 10
84.2883960636
 20
74.7465404926
 10
84.2982484297
 20
74.7480798881
  0
LINE
  5
262
330
1F
100
AcDbEntity
  8
SLD-0
  6
Continuous
370
    15
100
AcDbLine
 10
84.8021194623
 20
74.4980794695
 30
0.0
 11
84.2982484297
 21
74.4980794695
 31
0.0
  0
LINE
  5
263
330
1F
100
AcDbEntity
  8
SLD-0
  6
Continuous
370
    15
100
AcDbLine
 10
85.2671207572
 20
82.9980796234
 30
0.0
 11
83.5431004066
 21
82.9980796234
 31
0.0
  0
LINE
  5
264
330
1F
100
AcDbEntity
  8
SLD-0
  6
Continuous
370
    15
100
AcDbLine
 10
87.0688811698
 20
82.9980796234
 30
0.0
 11
87.0688811698
 21
68.498079982
 31
0.0
  0
LINE
  5
265
330
1F
100
AcDbEntity
  8
SLD-0
  6
Continuous
370
    15
100
AcDbLine
 10
87.0688811698
 20
68.498079982
 30
0.0
 11
86.2157216389
 21
68.498079982
 31
0.0
  0
LINE
  5
266
330
1F
100
AcDbEntity
  8
SLD-0
  6
Continuous
370
    15
100
AcDbLine
 10
86.2157216389
 20
68.498079982
 30
0.0
 11
86.2069041408
 21
68.498079982
 31
0.0
  0
LINE
  5
267
330
1F
100
AcDbEntity
  8
SLD-0
  6
Continuous
370
    15
100
AcDbLine
 10
86.2069041408
 20
66.3730793569
 30
0.0
 11
86.2069041408
 21
68.498079982
 31
0.0
  0
LINE
  5
268
330
1F
100
AcDbEntity
  8
SLD-0
  6
Continuous
370
    15
100
AcDbLine
 10
86.0809365293
 20
66.1230801115
 30
0.0
 11
86.2069041408
 21
66.3730793569
 31
0.0
  0
LINE
  5
269
330
1F
100
AcDbEntity
  8
SLD-0
  6
Continuous
370
    15
100
AcDbLine
 10
86.0809365293
 20
66.1230801115
 30
0.0
 11
85.3448602325
 21
66.1230801115
 31
0.0
  0
LINE
  5
26A
330
1F
100
AcDbEntity
  8
SLD-0
  6
Continuous
370
    15
100
AcDbLine
 10
85.8098621141
 20
74.4980794695
 30
0.0
 11
86.31373256
 21
74.4980794695
 31
0.0
  0
LWPOLYLINE
  5
26B
330
1F
100
AcDbEntity
  8
SLD-0
  6
Continuous
370
    15
100
AcDbPolyline
 90
       21
 70
   128
 43
0.0
 10
86.31373256
 20
74.4980794695
 10
86.3235860995
 20
74.4996188651
 10
86.3331955885
 20
74.5041971588
 10
86.342326363
 20
74.5117040588
 10
86.3507531457
 20
74.521953007
 10
86.3582694322
 20
74.5346917399
 10
86.3646874914
 20
74.5496069809
 10
86.3698512717
 20
74.5663303077
 10
86.3736340547
 20
74.5844522317
 10
86.3759408014
 20
74.603525718
 10
86.3767163658
 20
74.6230790922
 10
86.3759408014
 20
74.6426336396
 10
86.3736340547
 20
74.6617071259
 10
86.3698512717
 20
74.6798290499
 10
86.3646874914
 20
74.6965523767
 10
86.3582694322
 20
74.7114676178
 10
86.3507531457
 20
74.7242063506
 10
86.342326363
 20
74.7344552989
 10
86.3331955885
 20
74.7419616122
 10
86.3235860995
 20
74.7465404926
 10
86.31373256
 20
74.7480798881
  0
LINE
  5
26C
330
1F
100
AcDbEntity
  8
SLD-0
  6
Continuous
370
    15
100
AcDbLine
 10
86.31373256
 20
74.7480798881
 30
0.0
 11
85.8098621141
 21
74.7480798881
 31
0.0
  0
LWPOLYLINE
  5
26D
330
1F
100
AcDbEntity
  8
SLD-0
  6
Continuous
370
    15
100
AcDbPolyline
 90
       21
 70
   128
 43
0.0
 10
85.8098621141
 20
74.7480798881
 10
85.8000085746
 20
74.7465404926
 10
85.7903990856
 20
74.7419616122
 10
85.7812671378
 20
74.7344552989
 10
85.7728403551
 20
74.7242063506
 10
85.7653252419
 20
74.7114676178
 10
85.7589071828
 20
74.6965523767
 10
85.7537422291
 20
74.6798290499
 10
85.7499606194
 20
74.6617071259
 10
85.7476526994
 20
74.6426336396
 10
85.7468783084
 20
74.6230790922
 10
85.7476526994
 20
74.603525718
 10
85.7499606194
 20
74.5844522317
 10
85.7537422291
 20
74.5663303077
 10
85.7589071828
 20
74.5496069809
 10
85.7653252419
 20
74.5346917399
 10
85.7728403551
 20
74.521953007
 10
85.7812671378
 20
74.5117040588
 10
85.7903990856
 20
74.5041971588
 10
85.8000085746
 20
74.4996188651
 10
85.8098621141
 20
74.4980794695
  0
LINE
  5
26E
330
1F
100
AcDbEntity
  8
SLD-0
  6
Continuous
370
    15
100
AcDbLine
 10
85.8098621141
 20
71.4980791391
 30
0.0
 11
86.31373256
 21
71.4980791391
 31
0.0
  0
LWPOLYLINE
  5
26F
330
1F
100
AcDbEntity
  8
SLD-0
  6
Continuous
370
    15
100
AcDbPolyline
 90
       21
 70
   128
 43
0.0
 10
86.31373256
 20
71.4980791391
 10
86.3235860995
 20
71.4996185346
 10
86.3331955885
 20
71.5041980017
 10
86.342326363
 20
71.5117037284
 10
86.3507531457
 20
71.5219526766
 10
86.3582694322
 20
71.5346914095
 10
86.3646874914
 20
71.5496066505
 10
86.3698512717
 20
71.5663311506
 10
86.3736340547
 20
71.5844530746
 10
86.3759408014
 20
71.6035253876
 10
86.3767163658
 20
71.6230799351
 10
86.3759408014
 20
71.6426344825
 10
86.3736340547
 20
71.6617067955
 10
86.3698512717
 20
71.6798287195
 10
86.3646874914
 20
71.6965532196
 10
86.3582694322
 20
71.7114684607
 10
86.3507531457
 20
71.7242071935
 10
86.342326363
 20
71.7344549685
 10
86.3331955885
 20
71.7419618684
 10
86.3235860995
 20
71.7465401622
 10
86.31373256
 20
71.7480795577
  0
LINE
  5
270
330
1F
100
AcDbEntity
  8
SLD-0
  6
Continuous
370
    15
100
AcDbLine
 10
86.31373256
 20
71.7480795577
 30
0.0
 11
85.8098621141
 21
71.7480795577
 31
0.0
  0
LWPOLYLINE
  5
271
330
1F
100
AcDbEntity
  8
SLD-0
  6
Continuous
370
    15
100
AcDbPolyline
 90
       21
 70
   128
 43
0.0
 10
85.8098621141
 20
71.7480795577
 10
85.8000085746
 20
71.7465401622
 10
85.7903990856
 20
71.7419618684
 10
85.7812671378
 20
71.7344549685
 10
85.7728403551
 20
71.7242071935
 10
85.7653252419
 20
71.7114684607
 10
85.7589071828
 20
71.6965532196
 10
85.7537422291
 20
71.6798287195
 10
85.7499606194
 20
71.6617067955
 10
85.7476526994
 20
71.6426344825
 10
85.7468783084
 20
71.6230799351
 10
85.7476526994
 20
71.6035253876
 10
85.7499606194
 20
71.5844530746
 10
85.7537422291
 20
71.5663311506
 10
85.7589071828
 20
71.5496066505
 10
85.7653252419
 20
71.5346914095
 10
85.7728403551
 20
71.5219526766
 10
85.7812671378
 20
71.5117037284
 10
85.7903990856
 20
71.5041980017
 10
85.8000085746
 20
71.4996185346
 10
85.8098621141
 20
71.4980791391
  0
LINE
  5
272
330
1F
100
AcDbEntity
  8
SLD-0
  6
Continuous
370
    15
100
AcDbLine
 10
87.0688811698
 20
82.9980796234
 30
0.0
 11
85.3448602325
 21
82.9980796234
 31
0.0
  0
LWPOLYLINE
  5
273
330
1F
100
AcDbEntity
  8
SLD-0
  6
Continuous
370
    15
100
AcDbPolyline
 90
       21
 70
   128
 43
0.0
 10
86.2878197927
 20
74.4980794695
 10
86.2976721589
 20
74.4996188651
 10
86.3072828212
 20
74.5041971588
 10
86.3164135957
 20
74.5117040588
 10
86.3248403784
 20
74.521953007
 10
86.3323554916
 20
74.5346917399
 10
86.3387747241
 20
74.5496069809
 10
86.3439385044
 20
74.5663303077
 10
86.3477201141
 20
74.5844522317
 10
86.3500280341
 20
74.603525718
 10
86.3508035985
 20
74.6230790922
 10
86.3500280341
 20
74.6426336396
 10
86.3477201141
 20
74.6617071259
 10
86.3439385044
 20
74.6798290499
 10
86.3387747241
 20
74.6965523767
 10
86.3323554916
 20
74.7114676178
 10
86.3248403784
 20
74.7242063506
 10
86.3164135957
 20
74.7344552989
 10
86.3072828212
 20
74.7419616122
 10
86.2976721589
 20
74.7465404926
 10
86.2878197927
 20
74.7480798881
  0
LWPOLYLINE
  5
274
330
1F
100
AcDbEntity
  8
SLD-0
  6
Continuous
370
    15
100
AcDbPolyline
 90
       21
 70
   128
 43
0.0
 10
84.3241617837
 20
74.4980794695
 10
84.3143094175
 20
74.4996188651
 10
84.3046987552
 20
74.5041971588
 10
84.2955679807
 20
74.5117040588
 10
84.2871411981
 20
74.521953007
 10
84.2796254982
 20
74.5346917399
 10
84.2732068524
 20
74.5496069809
 10
84.268043072
 20
74.5663303077
 10
84.2642608757
 20
74.5844522317
 10
84.2619535424
 20
74.603525718
 10
84.261177978
 20
74.6230790922
 10
84.2619535424
 20
74.6426336396
 10
84.2642608757
 20
74.6617071259
 10
84.268043072
 20
74.6798290499
 10
84.2732068524
 20
74.6965523767
 10
84.2796254982
 20
74.7114676178
 10
84.2871411981
 20
74.7242063506
 10
84.2955679807
 20
74.7344552989
 10
84.3046987552
 20
74.7419616122
 10
84.3143094175
 20
74.7465404926
 10
84.3241617837
 20
74.7480798881
  0
LWPOLYLINE
  5
275
330
1F
100
AcDbEntity
  8
SLD-0
  6
Continuous
370
    15
100
AcDbPolyline
 90
       21
 70
   128
 43
0.0
 10
84.3241617837
 20
71.4980791391
 10
84.3143094175
 20
71.4996185346
 10
84.3046987552
 20
71.5041980017
 10
84.2955679807
 20
71.5117037284
 10
84.2871411981
 20
71.5219526766
 10
84.2796254982
 20
71.5346914095
 10
84.2732068524
 20
71.5496066505
 10
84.268043072
 20
71.5663311506
 10
84.2642608757
 20
71.5844530746
 10
84.2619535424
 20
71.6035253876
 10
84.261177978
 20
71.6230799351
 10
84.2619535424
 20
71.6426344825
 10
84.2642608757
 20
71.6617067955
 10
84.268043072
 20
71.6798287195
 10
84.2732068524
 20
71.6965532196
 10
84.2796254982
 20
71.7114684607
 10
84.2871411981
 20
71.7242071935
 10
84.2955679807
 20
71.7344549685
 10
84.3046987552
 20
71.7419618684
 10
84.3143094175
 20
71.7465401622
 10
84.3241617837
 20
71.7480795577
  0
LWPOLYLINE
  5
276
330
1F
100
AcDbEntity
  8
SLD-0
  6
Continuous
370
    15
100
AcDbPolyline
 90
       21
 70
   128
 43
0.0
 10
86.2878197927
 20
71.4980791391
 10
86.2976721589
 20
71.4996185346
 10
86.3072828212
 20
71.5041980017
 10
86.3164135957
 20
71.5117037284
 10
86.3248403784
 20
71.5219526766
 10
86.3323554916
 20
71.5346914095
 10
86.3387747241
 20
71.5496066505
 10
86.3439385044
 20
71.5663311506
 10
86.3477201141
 20
71.5844530746
 10
86.3500280341
 20
71.6035253876
 10
86.3508035985
 20
71.6230799351
 10
86.3500280341
 20
71.6426344825
 10
86.3477201141
 20
71.6617067955
 10
86.3439385044
 20
71.6798287195
 10
86.3387747241
 20
71.6965532196
 10
86.3323554916
 20
71.7114684607
 10
86.3248403784
 20
71.7242071935
 10
86.3164135957
 20
71.7344549685
 10
86.3072828212
 20
71.7419618684
 10
86.2976721589
 20
71.7465401622
 10
86.2878197927
 20
71.7480795577
  0
LINE
  5
277
330
1F
100
AcDbEntity
  8
SLD-0
  6
Continuous
370
    15
100
AcDbLine
 10
87.0818369668
 20
82.9980796234
 30
0.0
 11
87.0818369668
 21
68.498079982
 31
0.0
  0
LINE
  5
278
330
1F
100
AcDbEntity
  8
SLD-0
  6
Continuous
370
    15
100
AcDbLine
 10
87.0818369668
 20
68.498079982
 30
0.0
 11
87.0688811698
 21
68.498079982
 31
0.0
  0
LINE
  5
279
330
1F
100
AcDbEntity
  8
SLD-0
  6
Continuous
370
    15
100
AcDbLine
 10
87.0688811698
 20
82.9980796234
 30
0.0
 11
87.0818369668
 21
82.9980796234
 31
0.0
  0
LINE
  5
27A
330
1F
100
AcDbEntity
  8
SLD-0
  6
Continuous
370
    15
100
AcDbLine
 10
83.530144023
 20
68.498079982
 30
0.0
 11
83.5431004066
 21
68.498079982
 31
0.0
  0
LINE
  5
27B
330
1F
100
AcDbEntity
  8
SLD-0
  6
Continuous
370
    15
100
AcDbLine
 10
83.530144023
 20
82.9980796234
 30
0.0
 11
83.530144023
 21
68.498079982
 31
0.0
  0
LINE
  5
27C
330
1F
100
AcDbEntity
  8
SLD-0
  6
Continuous
370
    15
100
AcDbLine
 10
83.5431004066
 20
82.9980796234
 30
0.0
 11
83.530144023
 21
82.9980796234
 31
0.0
  0
LINE
  5
27D
330
1F
100
AcDbEntity
  8
SLD-0
  6
Continuous
370
    15
100
AcDbLine
 10
87.5559907427
 20
82.9980796234
 30
0.0
 11
87.5559907427
 21
68.498079982
 31
0.0
  0
LINE
  5
27E
330
1F
100
AcDbEntity
  8
SLD-0
  6
Continuous
370
    15
100
AcDbLine
 10
87.5559907427
 20
68.498079982
 30
0.0
 11
87.0818369668
 21
68.498079982
 31
0.0
  0
LINE
  5
27F
330
1F
100
AcDbEntity
  8
SLD-0
  6
Continuous
370
    15
100
AcDbLine
 10
87.5559907427
 20
82.9980796234
 30
0.0
 11
87.0818369668
 21
82.9980796234
 31
0.0
  0
LINE
  5
280
330
1F
100
AcDbEntity
  8
SLD-0
  6
Continuous
370
    15
100
AcDbLine
 10
83.530144023
 20
68.498079982
 30
0.0
 11
83.0559908337
 21
68.498079982
 31
0.0
  0
LINE
  5
281
330
1F
100
AcDbEntity
  8
SLD-0
  6
Continuous
370
    15
100
AcDbLine
 10
83.0559908337
 20
82.9980796234
 30
0.0
 11
83.0559908337
 21
68.498079982
 31
0.0
  0
LINE
  5
282
330
1F
100
AcDbEntity
  8
SLD-0
  6
Continuous
370
    15
100
AcDbLine
 10
83.530144023
 20
82.9980796234
 30
0.0
 11
83.0559908337
 21
82.9980796234
 31
0.0
  0
LINE
  5
283
330
1F
100
AcDbEntity
  8
SLD-0
  6
Continuous
370
    15
100
AcDbLine
 10
64.7048605876
 20
66.1230801115
 30
0.0
 11
64.7048605876
 21
82.9980796234
 31
0.0
  0
LINE
  5
284
330
1F
100
AcDbEntity
  8
SLD-0
  6
Continuous
370
    15
100
AcDbLine
 10
64.7048605876
 20
66.1230801115
 30
0.0
 11
64.6271211123
 21
66.1230801115
 31
0.0
  0
LINE
  5
285
330
1F
100
AcDbEntity
  8
SLD-0
  6
Continuous
370
    15
100
AcDbLine
 10
64.6271211123
 20
82.9980796234
 30
0.0
 11
64.6271211123
 21
66.1230801115
 31
0.0
  0
LINE
  5
286
330
1F
100
AcDbEntity
  8
SLD-0
  6
Continuous
370
    15
100
AcDbLine
 10
64.6271211123
 20
82.9980796234
 30
0.0
 11
64.7048605876
 21
82.9980796234
 31
0.0
  0
LWPOLYLINE
  5
287
330
1F
100
AcDbEntity
  8
SLD-0
  6
Continuous
370
    15
100
AcDbPolyline
 90
       21
 70
   128
 43
0.0
 10
64.1621192307
 20
71.7480795577
 10
64.1719727702
 20
71.7465401622
 10
64.1815822592
 20
71.7419618684
 10
64.190714207
 20
71.7344549685
 10
64.1991409897
 20
71.7242071935
 10
64.2066561029
 20
71.7114684607
 10
64.2130741621
 20
71.6965532196
 10
64.2182391157
 20
71.6798287195
 10
64.2220207254
 20
71.6617067955
 10
64.2243286454
 20
71.6426344825
 10
64.2251030364
 20
71.6230799351
 10
64.2243286454
 20
71.6035253876
 10
64.2220207254
 20
71.5844530746
 10
64.2182391157
 20
71.5663311506
 10
64.2130741621
 20
71.5496066505
 10
64.2066561029
 20
71.5346914095
 10
64.1991409897
 20
71.5219526766
 10
64.190714207
 20
71.5117037284
 10
64.1815822592
 20
71.5041980017
 10
64.1719727702
 20
71.4996185346
 10
64.1621192307
 20
71.4980791391
  0
LINE
  5
288
330
1F
100
AcDbEntity
  8
SLD-0
  6
Continuous
370
    15
100
AcDbLine
 10
64.1621192307
 20
71.7480795577
 30
0.0
 11
63.6582487848
 21
71.7480795577
 31
0.0
  0
LWPOLYLINE
  5
289
330
1F
100
AcDbEntity
  8
SLD-0
  6
Continuous
370
    15
100
AcDbPolyline
 90
       21
 70
   128
 43
0.0
 10
63.6582487848
 20
71.4980791391
 10
63.6483952453
 20
71.4996185346
 10
63.6387857563
 20
71.5041980017
 10
63.6296549818
 20
71.5117037284
 10
63.6212281991
 20
71.5219526766
 10
63.6137119126
 20
71.5346914095
 10
63.6072938534
 20
71.5496066505
 10
63.6021300731
 20
71.5663311506
 10
63.5983472901
 20
71.5844530746
 10
63.5960405434
 20
71.6035253876
 10
63.595264979
 20
71.6230799351
 10
63.5960405434
 20
71.6426344825
 10
63.5983472901
 20
71.6617067955
 10
63.6021300731
 20
71.6798287195
 10
63.6072938534
 20
71.6965532196
 10
63.6137119126
 20
71.7114684607
 10
63.6212281991
 20
71.7242071935
 10
63.6296549818
 20
71.7344549685
 10
63.6387857563
 20
71.7419618684
 10
63.6483952453
 20
71.7465401622
 10
63.6582487848
 20
71.7480795577
  0
LINE
  5
28A
330
1F
100
AcDbEntity
  8
SLD-0
  6
Continuous
370
    15
100
AcDbLine
 10
64.1621192307
 20
71.4980791391
 30
0.0
 11
63.6582487848
 21
71.4980791391
 31
0.0
  0
LINE
  5
28B
330
1F
100
AcDbEntity
  8
SLD-0
  6
Continuous
370
    15
100
AcDbLine
 10
63.765077204
 20
66.3730793569
 30
0.0
 11
63.765077204
 21
68.498079982
 31
0.0
  0
LINE
  5
28C
330
1F
100
AcDbEntity
  8
SLD-0
  6
Continuous
370
    15
100
AcDbLine
 10
63.7562597059
 20
68.498079982
 30
0.0
 11
63.765077204
 21
68.498079982
 31
0.0
  0
LINE
  5
28D
330
1F
100
AcDbEntity
  8
SLD-0
  6
Continuous
370
    15
100
AcDbLine
 10
63.7562597059
 20
68.498079982
 30
0.0
 11
62.903100175
 21
68.498079982
 31
0.0
  0
LINE
  5
28E
330
1F
100
AcDbEntity
  8
SLD-0
  6
Continuous
370
    15
100
AcDbLine
 10
62.903100175
 20
68.498079982
 30
0.0
 11
62.903100175
 21
82.9980796234
 31
0.0
  0
LINE
  5
28F
330
1F
100
AcDbEntity
  8
SLD-0
  6
Continuous
370
    15
100
AcDbLine
 10
64.6271211123
 20
66.1230801115
 30
0.0
 11
63.8910448155
 21
66.1230801115
 31
0.0
  0
LINE
  5
290
330
1F
100
AcDbEntity
  8
SLD-0
  6
Continuous
370
    15
100
AcDbLine
 10
63.8910448155
 20
66.1230801115
 30
0.0
 11
63.765077204
 21
66.3730793569
 31
0.0
  0
LWPOLYLINE
  5
291
330
1F
100
AcDbEntity
  8
SLD-0
  6
Continuous
370
    15
100
AcDbPolyline
 90
       21
 70
   128
 43
0.0
 10
64.1621192307
 20
74.7480798881
 10
64.1719727702
 20
74.7465404926
 10
64.1815822592
 20
74.7419616122
 10
64.190714207
 20
74.7344552989
 10
64.1991409897
 20
74.7242063506
 10
64.2066561029
 20
74.7114676178
 10
64.2130741621
 20
74.6965523767
 10
64.2182391157
 20
74.6798290499
 10
64.2220207254
 20
74.6617071259
 10
64.2243286454
 20
74.6426336396
 10
64.2251030364
 20
74.6230790922
 10
64.2243286454
 20
74.603525718
 10
64.2220207254
 20
74.5844522317
 10
64.2182391157
 20
74.5663303077
 10
64.2130741621
 20
74.5496069809
 10
64.2066561029
 20
74.5346917399
 10
64.1991409897
 20
74.521953007
 10
64.190714207
 20
74.5117040588
 10
64.1815822592
 20
74.5041971588
 10
64.1719727702
 20
74.4996188651
 10
64.1621192307
 20
74.4980794695
  0
LINE
  5
292
330
1F
100
AcDbEntity
  8
SLD-0
  6
Continuous
370
    15
100
AcDbLine
 10
63.6582487848
 20
74.7480798881
 30
0.0
 11
64.1621192307
 21
74.7480798881
 31
0.0
  0
LWPOLYLINE
  5
293
330
1F
100
AcDbEntity
  8
SLD-0
  6
Continuous
370
    15
100
AcDbPolyline
 90
       21
 70
   128
 43
0.0
 10
63.6582487848
 20
74.4980794695
 10
63.6483952453
 20
74.4996188651
 10
63.6387857563
 20
74.5041971588
 10
63.6296549818
 20
74.5117040588
 10
63.6212281991
 20
74.521953007
 10
63.6137119126
 20
74.5346917399
 10
63.6072938534
 20
74.5496069809
 10
63.6021300731
 20
74.5663303077
 10
63.5983472901
 20
74.5844522317
 10
63.5960405434
 20
74.603525718
 10
63.595264979
 20
74.6230790922
 10
63.5960405434
 20
74.6426336396
 10
63.5983472901
 20
74.6617071259
 10
63.6021300731
 20
74.6798290499
 10
63.6072938534
 20
74.6965523767
 10
63.6137119126
 20
74.7114676178
 10
63.6212281991
 20
74.7242063506
 10
63.6296549818
 20
74.7344552989
 10
63.6387857563
 20
74.7419616122
 10
63.6483952453
 20
74.7465404926
 10
63.6582487848
 20
74.7480798881
  0
LINE
  5
294
330
1F
100
AcDbEntity
  8
SLD-0
  6
Continuous
370
    15
100
AcDbLine
 10
64.1621192307
 20
74.4980794695
 30
0.0
 11
63.6582487848
 21
74.4980794695
 31
0.0
  0
LINE
  5
295
330
1F
100
AcDbEntity
  8
SLD-0
  6
Continuous
370
    15
100
AcDbLine
 10
64.6271211123
 20
82.9980796234
 30
0.0
 11
62.903100175
 21
82.9980796234
 31
0.0
  0
LINE
  5
296
330
1F
100
AcDbEntity
  8
SLD-0
  6
Continuous
370
    15
100
AcDbLine
 10
66.4288809382
 20
82.9980796234
 30
0.0
 11
64.7048605876
 21
82.9980796234
 31
0.0
  0
LINE
  5
297
330
1F
100
AcDbEntity
  8
SLD-0
  6
Continuous
370
    15
100
AcDbLine
 10
66.4288809382
 20
82.9980796234
 30
0.0
 11
66.4288809382
 21
68.498079982
 31
0.0
  0
LINE
  5
298
330
1F
100
AcDbEntity
  8
SLD-0
  6
Continuous
370
    15
100
AcDbLine
 10
66.4288809382
 20
68.498079982
 30
0.0
 11
65.575721994
 21
68.498079982
 31
0.0
  0
LINE
  5
299
330
1F
100
AcDbEntity
  8
SLD-0
  6
Continuous
370
    15
100
AcDbLine
 10
65.575721994
 20
68.498079982
 30
0.0
 11
65.5669039092
 21
68.498079982
 31
0.0
  0
LINE
  5
29A
330
1F
100
AcDbEntity
  8
SLD-0
  6
Continuous
370
    15
100
AcDbLine
 10
65.5669039092
 20
66.3730793569
 30
0.0
 11
65.5669039092
 21
68.498079982
 31
0.0
  0
LINE
  5
29B
330
1F
100
AcDbEntity
  8
SLD-0
  6
Continuous
370
    15
100
AcDbLine
 10
65.4409362977
 20
66.1230801115
 30
0.0
 11
65.5669039092
 21
66.3730793569
 31
0.0
  0
LINE
  5
29C
330
1F
100
AcDbEntity
  8
SLD-0
  6
Continuous
370
    15
100
AcDbLine
 10
65.4409362977
 20
66.1230801115
 30
0.0
 11
64.7048605876
 21
66.1230801115
 31
0.0
  0
LINE
  5
29D
330
1F
100
AcDbEntity
  8
SLD-0
  6
Continuous
370
    15
100
AcDbLine
 10
65.1698618825
 20
74.4980794695
 30
0.0
 11
65.6737329151
 21
74.4980794695
 31
0.0
  0
LWPOLYLINE
  5
29E
330
1F
100
AcDbEntity
  8
SLD-0
  6
Continuous
370
    15
100
AcDbPolyline
 90
       21
 70
   128
 43
0.0
 10
65.6737329151
 20
74.4980794695
 10
65.6835852813
 20
74.4996188651
 10
65.6931959436
 20
74.5041971588
 10
65.7023267181
 20
74.5117040588
 10
65.7107535007
 20
74.521953007
 10
65.7182692006
 20
74.5346917399
 10
65.7246878464
 20
74.5496069809
 10
65.7298516268
 20
74.5663303077
 10
65.7336338231
 20
74.5844522317
 10
65.7359411564
 20
74.603525718
 10
65.7367167208
 20
74.6230790922
 10
65.7359411564
 20
74.6426336396
 10
65.7336338231
 20
74.6617071259
 10
65.7298516268
 20
74.6798290499
 10
65.7246878464
 20
74.6965523767
 10
65.7182692006
 20
74.7114676178
 10
65.7107535007
 20
74.7242063506
 10
65.7023267181
 20
74.7344552989
 10
65.6931959436
 20
74.7419616122
 10
65.6835852813
 20
74.7465404926
 10
65.6737329151
 20
74.7480798881
  0
LINE
  5
29F
330
1F
100
AcDbEntity
  8
SLD-0
  6
Continuous
370
    15
100
AcDbLine
 10
65.6737329151
 20
74.7480798881
 30
0.0
 11
65.1698618825
 21
74.7480798881
 31
0.0
  0
LWPOLYLINE
  5
2A0
330
1F
100
AcDbEntity
  8
SLD-0
  6
Continuous
370
    15
100
AcDbPolyline
 90
       21
 70
   128
 43
0.0
 10
65.1698618825
 20
74.7480798881
 10
65.1600089297
 20
74.7465404926
 10
65.150398854
 20
74.7419616122
 10
65.1412674928
 20
74.7344552989
 10
65.1328407102
 20
74.7242063506
 10
65.125325597
 20
74.7114676178
 10
65.1189063645
 20
74.6965523767
 10
65.1137425841
 20
74.6798290499
 10
65.1099609745
 20
74.6617071259
 10
65.1076530545
 20
74.6426336396
 10
65.1068774901
 20
74.6230790922
 10
65.1076530545
 20
74.603525718
 10
65.1099609745
 20
74.5844522317
 10
65.1137425841
 20
74.5663303077
 10
65.1189063645
 20
74.5496069809
 10
65.125325597
 20
74.5346917399
 10
65.1328407102
 20
74.521953007
 10
65.1412674928
 20
74.5117040588
 10
65.150398854
 20
74.5041971588
 10
65.1600089297
 20
74.4996188651
 10
65.1698618825
 20
74.4980794695
  0
LINE
  5
2A1
330
1F
100
AcDbEntity
  8
SLD-0
  6
Continuous
370
    15
100
AcDbLine
 10
65.1698618825
 20
71.4980791391
 30
0.0
 11
65.6737329151
 21
71.4980791391
 31
0.0
  0
LWPOLYLINE
  5
2A2
330
1F
100
AcDbEntity
  8
SLD-0
  6
Continuous
370
    15
100
AcDbPolyline
 90
       21
 70
   128
 43
0.0
 10
65.6737329151
 20
71.4980791391
 10
65.6835852813
 20
71.4996185346
 10
65.6931959436
 20
71.5041980017
 10
65.7023267181
 20
71.5117037284
 10
65.7107535007
 20
71.5219526766
 10
65.7182692006
 20
71.5346914095
 10
65.7246878464
 20
71.5496066505
 10
65.7298516268
 20
71.5663311506
 10
65.7336338231
 20
71.5844530746
 10
65.7359411564
 20
71.6035253876
 10
65.7367167208
 20
71.6230799351
 10
65.7359411564
 20
71.6426344825
 10
65.7336338231
 20
71.6617067955
 10
65.7298516268
 20
71.6798287195
 10
65.7246878464
 20
71.6965532196
 10
65.7182692006
 20
71.7114684607
 10
65.7107535007
 20
71.7242071935
 10
65.7023267181
 20
71.7344549685
 10
65.6931959436
 20
71.7419618684
 10
65.6835852813
 20
71.7465401622
 10
65.6737329151
 20
71.7480795577
  0
LINE
  5
2A3
330
1F
100
AcDbEntity
  8
SLD-0
  6
Continuous
370
    15
100
AcDbLine
 10
65.6737329151
 20
71.7480795577
 30
0.0
 11
65.1698618825
 21
71.7480795577
 31
0.0
  0
LWPOLYLINE
  5
2A4
330
1F
100
AcDbEntity
  8
SLD-0
  6
Continuous
370
    15
100
AcDbPolyline
 90
       21
 70
   128
 43
0.0
 10
65.1698618825
 20
71.7480795577
 10
65.1600089297
 20
71.7465401622
 10
65.150398854
 20
71.7419618684
 10
65.1412674928
 20
71.7344549685
 10
65.1328407102
 20
71.7242071935
 10
65.125325597
 20
71.7114684607
 10
65.1189063645
 20
71.6965532196
 10
65.1137425841
 20
71.6798287195
 10
65.1099609745
 20
71.6617067955
 10
65.1076530545
 20
71.6426344825
 10
65.1068774901
 20
71.6230799351
 10
65.1076530545
 20
71.6035253876
 10
65.1099609745
 20
71.5844530746
 10
65.1137425841
 20
71.5663311506
 10
65.1189063645
 20
71.5496066505
 10
65.125325597
 20
71.5346914095
 10
65.1328407102
 20
71.5219526766
 10
65.1412674928
 20
71.5117037284
 10
65.150398854
 20
71.5041980017
 10
65.1600089297
 20
71.4996185346
 10
65.1698618825
 20
71.4980791391
  0
LWPOLYLINE
  5
2A5
330
1F
100
AcDbEntity
  8
SLD-0
  6
Continuous
370
    15
100
AcDbPolyline
 90
       21
 70
   128
 43
0.0
 10
63.6841615521
 20
74.4980794695
 10
63.6743091859
 20
74.4996188651
 10
63.6646985236
 20
74.5041971588
 10
63.6555677491
 20
74.5117040588
 10
63.6471409664
 20
74.521953007
 10
63.6396258532
 20
74.5346917399
 10
63.6332066207
 20
74.5496069809
 10
63.6280428404
 20
74.5663303077
 10
63.6242612307
 20
74.5844522317
 10
63.6219533107
 20
74.603525718
 10
63.6211777464
 20
74.6230790922
 10
63.6219533107
 20
74.6426336396
 10
63.6242612307
 20
74.6617071259
 10
63.6280428404
 20
74.6798290499
 10
63.6332066207
 20
74.6965523767
 10
63.6396258532
 20
74.7114676178
 10
63.6471409664
 20
74.7242063506
 10
63.6555677491
 20
74.7344552989
 10
63.6646985236
 20
74.7419616122
 10
63.6743091859
 20
74.7465404926
 10
63.6841615521
 20
74.7480798881
  0
LWPOLYLINE
  5
2A6
330
1F
100
AcDbEntity
  8
SLD-0
  6
Continuous
370
    15
100
AcDbPolyline
 90
       21
 70
   128
 43
0.0
 10
65.6478195611
 20
74.4980794695
 10
65.6576719273
 20
74.4996188651
 10
65.6672825896
 20
74.5041971588
 10
65.6764133641
 20
74.5117040588
 10
65.6848401468
 20
74.521953007
 10
65.6923558466
 20
74.5346917399
 10
65.6987744925
 20
74.5496069809
 10
65.7039382728
 20
74.5663303077
 10
65.7077204691
 20
74.5844522317
 10
65.7100278025
 20
74.603525718
 10
65.7108033668
 20
74.6230790922
 10
65.7100278025
 20
74.6426336396
 10
65.7077204691
 20
74.6617071259
 10
65.7039382728
 20
74.6798290499
 10
65.6987744925
 20
74.6965523767
 10
65.6923558466
 20
74.7114676178
 10
65.6848401468
 20
74.7242063506
 10
65.6764133641
 20
74.7344552989
 10
65.6672825896
 20
74.7419616122
 10
65.6576719273
 20
74.7465404926
 10
65.6478195611
 20
74.7480798881
  0
LWPOLYLINE
  5
2A7
330
1F
100
AcDbEntity
  8
SLD-0
  6
Continuous
370
    15
100
AcDbPolyline
 90
       21
 70
   128
 43
0.0
 10
65.6478195611
 20
71.4980791391
 10
65.6576719273
 20
71.4996185346
 10
65.6672825896
 20
71.5041980017
 10
65.6764133641
 20
71.5117037284
 10
65.6848401468
 20
71.5219526766
 10
65.6923558466
 20
71.5346914095
 10
65.6987744925
 20
71.5496066505
 10
65.7039382728
 20
71.5663311506
 10
65.7077204691
 20
71.5844530746
 10
65.7100278025
 20
71.6035253876
 10
65.7108033668
 20
71.6230799351
 10
65.7100278025
 20
71.6426344825
 10
65.7077204691
 20
71.6617067955
 10
65.7039382728
 20
71.6798287195
 10
65.6987744925
 20
71.6965532196
 10
65.6923558466
 20
71.7114684607
 10
65.6848401468
 20
71.7242071935
 10
65.6764133641
 20
71.7344549685
 10
65.6672825896
 20
71.7419618684
 10
65.6576719273
 20
71.7465401622
 10
65.6478195611
 20
71.7480795577
  0
LWPOLYLINE
  5
2A8
330
1F
100
AcDbEntity
  8
SLD-0
  6
Continuous
370
    15
100
AcDbPolyline
 90
       21
 70
   128
 43
0.0
 10
63.6841615521
 20
71.4980791391
 10
63.6743091859
 20
71.4996185346
 10
63.6646985236
 20
71.5041980017
 10
63.6555677491
 20
71.5117037284
 10
63.6471409664
 20
71.5219526766
 10
63.6396258532
 20
71.5346914095
 10
63.6332066207
 20
71.5496066505
 10
63.6280428404
 20
71.5663311506
 10
63.6242612307
 20
71.5844530746
 10
63.6219533107
 20
71.6035253876
 10
63.6211777464
 20
71.6230799351
 10
63.6219533107
 20
71.6426344825
 10
63.6242612307
 20
71.6617067955
 10
63.6280428404
 20
71.6798287195
 10
63.6332066207
 20
71.6965532196
 10
63.6396258532
 20
71.7114684607
 10
63.6471409664
 20
71.7242071935
 10
63.6555677491
 20
71.7344549685
 10
63.6646985236
 20
71.7419618684
 10
63.6743091859
 20
71.7465401622
 10
63.6841615521
 20
71.7480795577
  0
LINE
  5
2A9
330
1F
100
AcDbEntity
  8
SLD-0
  6
Continuous
370
    15
100
AcDbLine
 10
66.4418373219
 20
82.9980796234
 30
0.0
 11
66.4418373219
 21
68.498079982
 31
0.0
  0
LINE
  5
2AA
330
1F
100
AcDbEntity
  8
SLD-0
  6
Continuous
370
    15
100
AcDbLine
 10
66.4418373219
 20
68.498079982
 30
0.0
 11
66.4288809382
 21
68.498079982
 31
0.0
  0
LINE
  5
2AB
330
1F
100
AcDbEntity
  8
SLD-0
  6
Continuous
370
    15
100
AcDbLine
 10
66.4288809382
 20
82.9980796234
 30
0.0
 11
66.4418373219
 21
82.9980796234
 31
0.0
  0
LINE
  5
2AC
330
1F
100
AcDbEntity
  8
SLD-0
  6
Continuous
370
    15
100
AcDbLine
 10
62.890144378
 20
68.498079982
 30
0.0
 11
62.903100175
 21
68.498079982
 31
0.0
  0
LINE
  5
2AD
330
1F
100
AcDbEntity
  8
SLD-0
  6
Continuous
370
    15
100
AcDbLine
 10
62.890144378
 20
82.9980796234
 30
0.0
 11
62.890144378
 21
68.498079982
 31
0.0
  0
LINE
  5
2AE
330
1F
100
AcDbEntity
  8
SLD-0
  6
Continuous
370
    15
100
AcDbLine
 10
62.903100175
 20
82.9980796234
 30
0.0
 11
62.890144378
 21
82.9980796234
 31
0.0
  0
LINE
  5
2AF
330
1F
100
AcDbEntity
  8
SLD-0
  6
Continuous
370
    15
100
AcDbLine
 10
62.890144378
 20
68.498079982
 30
0.0
 11
62.4159906021
 21
68.498079982
 31
0.0
  0
LINE
  5
2B0
330
1F
100
AcDbEntity
  8
SLD-0
  6
Continuous
370
    15
100
AcDbLine
 10
62.4159906021
 20
82.9980796234
 30
0.0
 11
62.4159906021
 21
68.498079982
 31
0.0
  0
LINE
  5
2B1
330
1F
100
AcDbEntity
  8
SLD-0
  6
Continuous
370
    15
100
AcDbLine
 10
62.890144378
 20
82.9980796234
 30
0.0
 11
62.4159906021
 21
82.9980796234
 31
0.0
  0
LINE
  5
2B2
330
1F
100
AcDbEntity
  8
SLD-0
  6
Continuous
370
    15
100
AcDbLine
 10
66.9159905111
 20
68.498079982
 30
0.0
 11
66.4418373219
 21
68.498079982
 31
0.0
  0
LINE
  5
2B3
330
1F
100
AcDbEntity
  8
SLD-0
  6
Continuous
370
    15
100
AcDbLine
 10
66.9159905111
 20
82.9980796234
 30
0.0
 11
66.9159905111
 21
68.498079982
 31
0.0
  0
LINE
  5
2B4
330
1F
100
AcDbEntity
  8
SLD-0
  6
Continuous
370
    15
100
AcDbLine
 10
66.9159905111
 20
82.9980796234
 30
0.0
 11
66.4418373219
 21
82.9980796234
 31
0.0
  0
SPLINE
  5
2B5
330
1F
100
AcDbEntity
  8
SLD-0
  6
Continuous
370
    15
100
AcDbSpline
210
0.0
220
0.0
230
1.0
 70
     8
 71
     3
 72
    11
 73
     7
 74
     0
 42
0.00000001
 43
0.00000001
 12
1.0
 22
0.0
 32
0.0
 13
1.0
 23
0.0
 33
0.0
 40
0.0
 40
0.0
 40
0.0
 40
0.0
 40
0.2500065976048202
 40
0.4999948725725369
 40
0.7500043402451054
 40
1.0
 40
1.0
 40
1.0
 40
1.0
 10
58.70653777403508
 20
83.59367192311181
 30
0.0
 10
58.69956269472788
 20
83.59406773894189
 30
0.0
 10
58.68561304730741
 20
83.5948593415932
 30
0.0
 10
58.66791385648592
 20
83.5953636443728
 30
0.0
 10
58.65533381831154
 20
83.59478370573196
 30
0.0
 10
58.6533456011348
 20
83.59304205062135
 30
0.0
 10
58.65235151999931
 20
83.59217124711442
 30
0.0
  0
LINE
  5
2B6
330
1F
100
AcDbEntity
  8
SLD-0
  6
Continuous
370
    15
100
AcDbLine
 10
58.706537774
 20
83.5936719231
 30
0.0
 11
55.4859908714
 21
68.3866791356
 31
0.0
  0
SPLINE
  5
2B7
330
1F
100
AcDbEntity
  8
SLD-0
  6
Continuous
370
    15
100
AcDbSpline
210
0.0
220
0.0
230
1.0
 70
     8
 71
     3
 72
    12
 73
     8
 74
     0
 42
0.00000001
 43
0.00000001
 12
1.0
 22
0.0
 32
0.0
 13
1.0
 23
0.0
 33
0.0
 40
0.0
 40
0.0
 40
0.0
 40
0.0
 40
0.2373815731797834
 40
0.4749137301542748
 40
0.7124365315249235
 40
0.949949448482094
 40
1.0
 40
1.0
 40
1.0
 40
1.0
 10
55.44251233366882
 20
68.43574267547064
 30
0.0
 10
55.44257077197104
 20
68.43257582802504
 30
0.0
 10
55.44268768564604
 20
68.42624012423359
 30
0.0
 10
55.4515748397101
 20
68.41489092242665
 30
0.0
 10
55.46525812534833
 20
68.40253095807081
 30
0.0
 10
55.47782606257454
 20
68.39287266047585
 30
0.0
 10
55.48478045607287
 20
68.38759731231865
 30
0.0
 10
55.48599087140104
 20
68.38667913559017
 30
0.0
  0
LINE
  5
2B8
330
1F
100
AcDbEntity
  8
SLD-0
  6
Continuous
370
    15
100
AcDbLine
 10
55.4425123337
 20
68.4357426755
 30
0.0
 11
58.65235152
 21
83.5921712471
 31
0.0
  0
SPLINE
  5
2B9
330
1F
100
AcDbEntity
  8
SLD-0
  6
Continuous
370
    15
100
AcDbSpline
210
0.0
220
0.0
230
1.0
 70
     8
 71
     3
 72
    11
 73
     7
 74
     0
 42
0.00000001
 43
0.00000001
 12
1.0
 22
0.0
 32
0.0
 13
1.0
 23
0.0
 33
0.0
 40
0.0
 40
0.0
 40
0.0
 40
0.0
 40
0.2499956597548946
 40
0.5000051274274631
 40
0.7499934023951799
 40
1.0
 40
1.0
 40
1.0
 40
1.0
 10
91.31962982481272
 20
83.59217124711442
 30
0.0
 10
91.3186357436772
 20
83.59304205062135
 30
0.0
 10
91.31664752650047
 20
83.59478370573196
 30
0.0
 10
91.30406748832608
 20
83.5953636443728
 30
0.0
 10
91.28636829750462
 20
83.5948593415932
 30
0.0
 10
91.27241865008413
 20
83.59406773894189
 30
0.0
 10
91.26544357077695
 20
83.59367192311181
 30
0.0
  0
LINE
  5
2BA
330
1F
100
AcDbEntity
  8
SLD-0
  6
Continuous
370
    15
100
AcDbLine
 10
91.3196298248
 20
83.5921712471
 30
0.0
 11
94.5294690111
 21
68.4357426755
 31
0.0
  0
SPLINE
  5
2BB
330
1F
100
AcDbEntity
  8
SLD-0
  6
Continuous
370
    15
100
AcDbSpline
210
0.0
220
0.0
230
1.0
 70
     8
 71
     3
 72
    12
 73
     8
 74
     0
 42
0.00000001
 43
0.00000001
 12
1.0
 22
0.0
 32
0.0
 13
1.0
 23
0.0
 33
0.0
 40
0.0
 40
0.0
 40
0.0
 40
0.0
 40
0.2373975330684039
 40
0.4749143624456583
 40
0.7124356465792836
 40
0.9499587384365472
 40
1.0
 40
1.0
 40
1.0
 40
1.0
 10
94.48599047341098
 20
68.38667913559017
 30
0.0
 10
94.49175955183038
 20
68.39105570762344
 30
0.0
 10
94.50330060772951
 20
68.39981105099208
 30
0.0
 10
94.51798168973247
 20
68.41238715707833
 30
0.0
 10
94.52768465050654
 20
68.42390642694446
 30
0.0
 10
94.53014921572107
 20
68.43142410240176
 30
0.0
 10
94.52956983380042
 20
68.43510255920796
 30
0.0
 10
94.5294690111432
 20
68.43574267547064
 30
0.0
  0
LINE
  5
2BC
330
1F
100
AcDbEntity
  8
SLD-0
  6
Continuous
370
    15
100
AcDbLine
 10
94.4859904734
 20
68.3866791356
 30
0.0
 11
91.2654435708
 21
83.5936719231
 31
0.0
  0
LINE
  5
2BD
330
1F
100
AcDbEntity
  8
SLD-0
  6
Continuous
370
    15
100
AcDbLine
 10
55.4859908714
 20
66.6336795464
 30
0.0
 11
55.4859908714
 21
66.2586795051
 31
0.0
  0
LINE
  5
2BE
330
1F
100
AcDbEntity
  8
SLD-0
  6
Continuous
370
    15
100
AcDbLine
 10
55.4859908714
 20
66.6336795464
 30
0.0
 11
55.5030192614
 21
66.6336795464
 31
0.0
  0
LINE
  5
2BF
330
1F
100
AcDbEntity
  8
SLD-0
  6
Continuous
370
    15
100
AcDbLine
 10
55.5030192614
 20
66.6336795464
 30
0.0
 11
55.5030192614
 21
67.9466795252
 31
0.0
  0
LINE
  5
2C0
330
1F
100
AcDbEntity
  8
SLD-0
  6
Continuous
370
    15
100
AcDbLine
 10
55.5030192614
 20
67.9466795252
 30
0.0
 11
55.4859908714
 21
67.9466795252
 31
0.0
  0
LINE
  5
2C1
330
1F
100
AcDbEntity
  8
SLD-0
  6
Continuous
370
    15
100
AcDbLine
 10
55.4859908714
 20
68.3866791356
 30
0.0
 11
55.4859908714
 21
67.9466795252
 31
0.0
  0
LINE
  5
2C2
330
1F
100
AcDbEntity
  8
SLD-0
  6
Continuous
370
    15
100
AcDbLine
 10
91.0559907371
 20
84.5826796647
 30
0.0
 11
58.9159906078
 21
84.5826796647
 31
0.0
  0
LINE
  5
2C3
330
1F
100
AcDbEntity
  8
SLD-0
  6
Continuous
370
    15
100
AcDbLine
 10
91.2654435708
 20
83.5936719231
 30
0.0
 11
91.0559907371
 21
84.5826796647
 31
0.0
  0
LINE
  5
2C4
330
1F
100
AcDbEntity
  8
SLD-0
  6
Continuous
370
    15
100
AcDbLine
 10
94.4859904734
 20
67.9466795252
 30
0.0
 11
94.4859904734
 21
68.3866791356
 31
0.0
  0
LINE
  5
2C5
330
1F
100
AcDbEntity
  8
SLD-0
  6
Continuous
370
    15
100
AcDbLine
 10
94.4859904734
 20
67.9466795252
 30
0.0
 11
94.4689620835
 21
67.9466795252
 31
0.0
  0
LINE
  5
2C6
330
1F
100
AcDbEntity
  8
SLD-0
  6
Continuous
370
    15
100
AcDbLine
 10
94.4689620835
 20
67.9466795252
 30
0.0
 11
94.4689620835
 21
66.6336795464
 31
0.0
  0
LINE
  5
2C7
330
1F
100
AcDbEntity
  8
SLD-0
  6
Continuous
370
    15
100
AcDbLine
 10
94.4689620835
 20
66.6336795464
 30
0.0
 11
94.4859904734
 21
66.6336795464
 31
0.0
  0
LINE
  5
2C8
330
1F
100
AcDbEntity
  8
SLD-0
  6
Continuous
370
    15
100
AcDbLine
 10
94.4859904734
 20
66.2586795051
 30
0.0
 11
94.4859904734
 21
66.6336795464
 31
0.0
  0
LINE
  5
2C9
330
1F
100
AcDbEntity
  8
SLD-0
  6
Continuous
370
    15
100
AcDbLine
 10
94.4859904734
 20
66.143379717
 30
0.0
 11
94.4859904734
 21
66.2586795051
 31
0.0
  0
LINE
  5
2CA
330
1F
100
AcDbEntity
  8
SLD-0
  6
Continuous
370
    15
100
AcDbLine
 10
55.4859908714
 20
66.2586795051
 30
0.0
 11
55.4859908714
 21
66.143379717
 31
0.0
  0
LINE
  5
2CB
330
1F
100
AcDbEntity
  8
SLD-0
  6
Continuous
370
    15
100
AcDbLine
 10
58.9159906078
 20
84.5826796647
 30
0.0
 11
58.706537774
 21
83.5936719231
 31
0.0
  0
LINE
  5
2CC
330
1F
100
AcDbEntity
  8
SLD-0
  6
Continuous
370
    15
100
AcDbLine
 10
55.4332912135
 20
67.9466795252
 30
0.0
 11
55.4859908714
 21
67.9466795252
 31
0.0
  0
LINE
  5
2CD
330
1F
100
AcDbEntity
  8
SLD-0
  6
Continuous
370
    15
100
AcDbLine
 10
55.4332912135
 20
68.3267365747
 30
0.0
 11
55.4332912135
 21
67.9466795252
 31
0.0
  0
SPLINE
  5
2CE
330
1F
100
AcDbEntity
  8
SLD-0
  6
Continuous
370
    15
100
AcDbSpline
210
0.0
220
0.0
230
1.0
 70
     8
 71
     3
 72
    11
 73
     7
 74
     0
 42
0.00000001
 43
0.00000001
 12
1.0
 22
0.0
 32
0.0
 13
1.0
 23
0.0
 33
0.0
 40
0.0
 40
0.0
 40
0.0
 40
0.0
 40
0.2500080302662009
 40
0.5000016044966806
 40
0.7500029254523414
 40
1.0
 40
1.0
 40
1.0
 40
1.0
 10
55.48599087140104
 20
68.38667913559017
 30
0.0
 10
55.47908492726464
 20
68.38168401212916
 30
0.0
 10
55.46527343830931
 20
68.37169405403662
 30
0.0
 10
55.44785383450676
 20
68.35670748761694
 30
0.0
 10
55.43566796944544
 20
68.34172241660661
 30
0.0
 10
55.43408346101303
 20
68.33173182706497
 30
0.0
 10
55.43329121352532
 20
68.32673657471841
 30
0.0
  0
LINE
  5
2CF
330
1F
100
AcDbEntity
  8
SLD-0
  6
Continuous
370
    15
100
AcDbLine
 10
58.9286859278
 20
84.6353796663
 30
0.0
 11
91.0432954171
 21
84.6353796663
 31
0.0
  0
SPLINE
  5
2D0
330
1F
100
AcDbEntity
  8
SLD-0
  6
Continuous
370
    15
100
AcDbSpline
210
0.0
220
0.0
230
1.0
 70
     8
 71
     3
 72
    11
 73
     7
 74
     0
 42
0.00000001
 43
0.00000001
 12
1.0
 22
0.0
 32
0.0
 13
1.0
 23
0.0
 33
0.0
 40
0.0
 40
0.0
 40
0.0
 40
0.0
 40
0.2500027924457082
 40
0.499999621189319
 40
0.7500046180119737
 40
0.9999999999999999
 40
0.9999999999999999
 40
0.9999999999999999
 40
0.9999999999999999
 10
91.05599073706063
 20
84.58267966467713
 30
0.0
 10
91.05493280368214
 20
84.58958527088485
 30
0.0
 10
91.05281696216169
 20
84.6033963185702
 30
0.0
 10
91.04964299873637
 20
84.62081667834664
 30
0.0
 10
91.04646932919573
 20
84.63300296074634
 30
0.0
 10
91.04435337420313
 20
84.63458744127071
 30
0.0
 10
91.04329541705138
 20
84.6353796662984
 30
0.0
  0
SPLINE
  5
2D1
330
1F
100
AcDbEntity
  8
SLD-0
  6
Continuous
370
    15
100
AcDbSpline
210
0.0
220
0.0
230
1.0
 70
     8
 71
     3
 72
    11
 73
     7
 74
     0
 42
0.00000001
 43
0.00000001
 12
1.0
 22
0.0
 32
0.0
 13
1.0
 23
0.0
 33
0.0
 40
0.0
 40
0.0
 40
0.0
 40
0.0
 40
0.2499953819880262
 40
0.5000003788106809
 40
0.7499972075542918
 40
0.9999999999999999
 40
0.9999999999999999
 40
0.9999999999999999
 40
0.9999999999999999
 10
58.92868592776065
 20
84.6353796662984
 30
0.0
 10
58.92762797060887
 20
84.63458744127071
 30
0.0
 10
58.92551201561627
 20
84.63300296074634
 30
0.0
 10
58.92233834607564
 20
84.62081667834664
 30
0.0
 10
58.91916438265032
 20
84.6033963185702
 30
0.0
 10
58.91704854112988
 20
84.58958527088485
 30
0.0
 10
58.9159906077514
 20
84.58267966467713
 30
0.0
  0
LINE
  5
2D2
330
1F
100
AcDbEntity
  8
SLD-0
  6
Continuous
370
    15
100
AcDbLine
 10
94.5386901313
 20
67.9466795252
 30
0.0
 11
94.5386901313
 21
68.3267365747
 31
0.0
  0
LINE
  5
2D3
330
1F
100
AcDbEntity
  8
SLD-0
  6
Continuous
370
    15
100
AcDbLine
 10
94.4859904734
 20
67.9466795252
 30
0.0
 11
94.5386901313
 21
67.9466795252
 31
0.0
  0
SPLINE
  5
2D4
330
1F
100
AcDbEntity
  8
SLD-0
  6
Continuous
370
    15
100
AcDbSpline
210
0.0
220
0.0
230
1.0
 70
     8
 71
     3
 72
    11
 73
     7
 74
     0
 42
0.00000001
 43
0.00000001
 12
1.0
 22
0.0
 32
0.0
 13
1.0
 23
0.0
 33
0.0
 40
0.0
 40
0.0
 40
0.0
 40
0.0
 40
0.2499970745476586
 40
0.4999983955033193
 40
0.749991969733799
 40
0.9999999999999999
 40
0.9999999999999999
 40
0.9999999999999999
 40
0.9999999999999999
 10
94.5386901312867
 20
68.32673657471841
 30
0.0
 10
94.53789788379898
 20
68.33173182706497
 30
0.0
 10
94.53631337536657
 20
68.34172241660661
 30
0.0
 10
94.52412751030525
 20
68.35670748761694
 30
0.0
 10
94.5067079065027
 20
68.37169405403662
 30
0.0
 10
94.49289641754737
 20
68.38168401212916
 30
0.0
 10
94.48599047341098
 20
68.38667913559017
 30
0.0
  0
LINE
  5
2D5
330
1F
100
AcDbEntity
  8
SLD-0
  6
Continuous
370
    15
100
AcDbLine
 10
55.4332912135
 20
66.6336795464
 30
0.0
 11
55.4332912135
 21
66.2586795051
 31
0.0
  0
LINE
  5
2D6
330
1F
100
AcDbEntity
  8
SLD-0
  6
Continuous
370
    15
100
AcDbLine
 10
55.4859908714
 20
66.6336795464
 30
0.0
 11
55.4332912135
 21
66.6336795464
 31
0.0
  0
LINE
  5
2D7
330
1F
100
AcDbEntity
  8
SLD-0
  6
Continuous
370
    15
100
AcDbLine
 10
55.4332912135
 20
66.2586795051
 30
0.0
 11
55.4859908714
 21
66.2586795051
 31
0.0
  0
LINE
  5
2D8
330
1F
100
AcDbEntity
  8
SLD-0
  6
Continuous
370
    15
100
AcDbLine
 10
94.5386901313
 20
66.6336795464
 30
0.0
 11
94.4859904734
 21
66.6336795464
 31
0.0
  0
LINE
  5
2D9
330
1F
100
AcDbEntity
  8
SLD-0
  6
Continuous
370
    15
100
AcDbLine
 10
94.5386901313
 20
66.2586795051
 30
0.0
 11
94.5386901313
 21
66.6336795464
 31
0.0
  0
LINE
  5
2DA
330
1F
100
AcDbEntity
  8
SLD-0
  6
Continuous
370
    15
100
AcDbLine
 10
94.4859904734
 20
66.2586795051
 30
0.0
 11
94.5386901313
 21
66.2586795051
 31
0.0
  0
LINE
  5
2DB
330
1F
100
AcDbEntity
  8
SLD-0
  6
Continuous
370
    15
100
AcDbLine
 10
94.5386901313
 20
66.6336795464
 30
0.0
 11
94.5386901313
 21
67.9466795252
 31
0.0
  0
LINE
  5
2DC
330
1F
100
AcDbEntity
  8
SLD-0
  6
Continuous
370
    15
100
AcDbLine
 10
94.5169907553
 20
66.6336795464
 30
0.0
 11
94.5169907553
 21
67.9466795252
 31
0.0
  0
LINE
  5
2DD
330
1F
100
AcDbEntity
  8
SLD-0
  6
Continuous
370
    15
100
AcDbLine
 10
55.4549905895
 20
67.9466795252
 30
0.0
 11
55.4549905895
 21
66.6336795464
 31
0.0
  0
LINE
  5
2DE
330
1F
100
AcDbEntity
  8
SLD-0
  6
Continuous
370
    15
100
AcDbLine
 10
55.4332912135
 20
67.9466795252
 30
0.0
 11
55.4332912135
 21
66.6336795464
 31
0.0
  0
ARC
  5
2DF
330
1F
100
AcDbEntity
  8
SLD-0
  6
Continuous
370
    15
100
AcDbCircle
 10
91.0113026117
 20
84.5609796647
 30
0.0
 40
0.0527000000000077
100
AcDbArc
 50
11.9836622663
 51
34.2829699132
  0
LINE
  5
2E0
330
1F
100
AcDbEntity
  8
SLD-0
  6
Continuous
370
    15
100
AcDbLine
 10
91.2704407397
 20
83.5939350401
 30
0.0
 11
91.0628546578
 21
84.5719219116
 31
0.0
  0
LINE
  5
2E1
330
1F
100
AcDbEntity
  8
SLD-0
  6
Continuous
370
    15
100
AcDbLine
 10
94.488333593
 20
66.143379717
 30
0.0
 11
94.488333593
 21
66.2586795051
 31
0.0
  0
LINE
  5
2E2
330
1F
100
AcDbEntity
  8
SLD-0
  6
Continuous
370
    15
100
AcDbLine
 10
94.488333593
 20
66.6336795464
 30
0.0
 11
94.488333593
 21
67.9466795252
 31
0.0
  0
LINE
  5
2E3
330
1F
100
AcDbEntity
  8
SLD-0
  6
Continuous
370
    15
100
AcDbLine
 10
58.7015406051
 20
83.5939350401
 30
0.0
 11
58.909126687
 21
84.5719219116
 31
0.0
  0
ARC
  5
2E4
330
1F
100
AcDbEntity
  8
SLD-0
  6
Continuous
370
    15
100
AcDbCircle
 10
58.9606787331
 20
84.5609796647
 30
0.0
 40
0.0526999999999954
100
AcDbArc
 50
145.7170300871
 51
168.0163377337
  0
LINE
  5
2E5
330
1F
100
AcDbEntity
  8
SLD-0
  6
Continuous
370
    15
100
AcDbLine
 10
55.4836477518
 20
66.143379717
 30
0.0
 11
55.4836477518
 21
66.2586795051
 31
0.0
  0
LINE
  5
2E6
330
1F
100
AcDbEntity
  8
SLD-0
  6
Continuous
370
    15
100
AcDbLine
 10
55.4836477518
 20
66.6336795464
 30
0.0
 11
55.4836477518
 21
67.9466795252
 31
0.0
  0
LINE
  5
2E7
330
1F
100
AcDbEntity
  8
SLD-0
  6
Continuous
370
    15
100
AcDbLine
 10
55.4836477518
 20
68.384937929
 30
0.0
 11
55.4836477518
 21
68.3884578884
 31
0.0
  0
LINE
  5
2E8
330
1F
100
AcDbEntity
  8
SLD-0
  6
Continuous
370
    15
100
AcDbLine
 10
91.0559907371
 20
84.5943796646
 30
0.0
 11
91.0541497983
 21
84.5943796646
 31
0.0
  0
LINE
  5
2E9
330
1F
100
AcDbEntity
  8
SLD-0
  6
Continuous
370
    15
100
AcDbLine
 10
58.9178315465
 20
84.5943796646
 30
0.0
 11
58.9159906078
 21
84.5943796646
 31
0.0
  0
LINE
  5
2EA
330
1F
100
AcDbEntity
  8
SLD-0
  6
Continuous
370
    15
100
AcDbLine
 10
58.9159906078
 20
84.5943796646
 30
0.0
 11
58.9141637489
 21
84.585750474
 31
0.0
  0
LINE
  5
2EB
330
1F
100
AcDbEntity
  8
SLD-0
  6
Continuous
370
    15
100
AcDbLine
 10
91.057817596
 20
84.585750474
 30
0.0
 11
91.0559907371
 21
84.5943796646
 31
0.0
  0
LINE
  5
2EC
330
1F
100
AcDbEntity
  8
SLD-0
  6
Continuous
370
    15
100
AcDbLine
 10
91.0584664418
 20
84.5709905397
 30
0.0
 11
91.0628546578
 21
84.5719219116
 31
0.0
  0
LINE
  5
2ED
330
1F
100
AcDbEntity
  8
SLD-0
  6
Continuous
370
    15
100
AcDbLine
 10
58.913514903
 20
84.5709905397
 30
0.0
 11
58.909126687
 21
84.5719219116
 31
0.0
  0
DIMENSION
  5
2EE
330
1F
100
AcDbEntity
  8
DIM
100
AcDbDimension
  2
_D_6
 10
91.0559906724
 20
89.2366228233
 30
0.0
 11
74.9859906724
 21
89.2366228233
 31
0.0
 70
   160
  1
<>
 71
     2
 42
-1.0
  3
SLDDIMSTYLE0
100
AcDbAlignedDimension
 13
58.9159906724
 23
84.6613796647
 33
0.0
 14
91.0559906724
 24
84.6613796647
 34
0.0
100
AcDbRotatedDimension
  0
DIMENSION
  5
2FD
330
1F
100
AcDbEntity
  8
DIM
100
AcDbDimension
  2
_D_7
 10
95.4883340024
 20
58.7705506802
 30
0.0
 11
100.8601987272
 21
58.7705506802
 31
0.0
 70
   160
  1
<>
 71
     2
 42
-1.0
  3
SLDDIMSTYLE1
100
AcDbAlignedDimension
 13
94.5634906724
 23
65.4579796647
 33
0.0
 14
95.4883340024
 24
66.1810546647
 34
0.0
100
AcDbRotatedDimension
  0
DIMENSION
  5
30C
330
1F
100
AcDbEntity
  8
DIM
100
AcDbDimension
  2
_D_8
 10
57.0360906724
 20
58.0178169048
 30
0.0
 11
74.9859906724
 21
58.0178169048
 31
0.0
 70
   160
  1
<>
 71
     2
 42
-1.0
  3
SLDDIMSTYLE0
100
AcDbAlignedDimension
 13
92.9358906724
 23
62.0922645792
 33
0.0
 14
57.0360906724
 24
62.0922645792
 34
0.0
100
AcDbRotatedDimension
  0
DIMENSION
  5
31B
330
1F
100
AcDbEntity
  8
DIM
100
AcDbDimension
  2
_D_9
 10
50.4836473424
 20
62.0117308729
 30
0.0
 11
50.4836473424
 21
56.8541564667
 31
0.0
 70
   160
  1
<>
 71
     2
 42
-1.0
  3
SLDDIMSTYLE1
100
AcDbAlignedDimension
 13
55.4732033708
 23
65.3933796647
 33
0.0
 14
57.1016605243
 24
62.0117308729
 34
0.0
 50
90.0
100
AcDbRotatedDimension
  0
DIMENSION
  5
32B
330
1F
100
AcDbEntity
  8
DIM
100
AcDbDimension
  2
_D_10
 10
50.4836473424
 20
84.6613796647
 30
0.0
 11
50.4836473424
 21
75.0273796647
 31
0.0
 70
   160
  1
<>
 71
     2
 42
-1.0
  3
SLDDIMSTYLE0
100
AcDbAlignedDimension
 13
55.4732033708
 23
65.3933796647
 33
0.0
 14
58.9159906724
 24
84.6613796647
 34
0.0
 50
90.0
100
AcDbRotatedDimension
  0
LINE
  5
33A
330
1F
100
AcDbEntity
  8
SLD-0
  6
Continuous
370
    15
100
AcDbLine
 10
141.2151580843
 20
50.2596716729
 30
0.0
 11
124.3401585724
 21
50.2596716729
 31
0.0
  0
LINE
  5
33B
330
1F
100
AcDbEntity
  8
SLD-0
  6
Continuous
370
    15
100
AcDbLine
 10
126.6154579413
 20
11.6010411007
 30
0.0
 11
126.6698612595
 21
11.6010411007
 31
0.0
  0
LINE
  5
33C
330
1F
100
AcDbEntity
  8
SLD-0
  6
Continuous
370
    15
100
AcDbLine
 10
126.6154579413
 20
12.5670411231
 30
0.0
 11
126.6698612595
 21
12.5670411231
 31
0.0
  0
LINE
  5
33D
330
1F
100
AcDbEntity
  8
SLD-0
  6
Continuous
370
    15
100
AcDbLine
 10
123.6774581747
 20
11.5984410974
 30
0.0
 11
123.6774581747
 21
12.5674411243
 31
0.0
  0
LINE
  5
33E
330
1F
100
AcDbEntity
  8
SLD-0
  6
Continuous
370
    15
100
AcDbLine
 10
123.6774581747
 20
12.5674411243
 30
0.0
 11
126.6154579413
 21
12.5674411243
 31
0.0
  0
LINE
  5
33F
330
1F
100
AcDbEntity
  8
SLD-0
  6
Continuous
370
    15
100
AcDbLine
 10
126.6154579413
 20
12.5674411243
 30
0.0
 11
126.6154579413
 21
11.5984410974
 31
0.0
  0
LINE
  5
340
330
1F
100
AcDbEntity
  8
SLD-0
  6
Continuous
370
    15
100
AcDbLine
 10
126.6154579413
 20
11.5984410974
 30
0.0
 11
123.6774581747
 21
11.5984410974
 31
0.0
  0
LINE
  5
341
330
1F
100
AcDbEntity
  8
SLD-0
  6
Continuous
370
    15
100
AcDbLine
 10
123.6774581747
 20
11.5314410914
 30
0.0
 11
126.6011938928
 21
11.5314410914
 31
0.0
  0
LINE
  5
342
330
1F
100
AcDbEntity
  8
SLD-0
  6
Continuous
370
    15
100
AcDbLine
 10
123.6774581747
 20
11.5314410914
 30
0.0
 11
123.6774581747
 21
11.5984410974
 31
0.0
  0
SPLINE
  5
343
330
1F
100
AcDbEntity
  8
SLD-0
  6
Continuous
370
    15
100
AcDbSpline
210
0.0
220
0.0
230
1.0
 70
     8
 71
     3
 72
    11
 73
     7
 74
     0
 42
0.00000001
 43
0.00000001
 12
1.0
 22
0.0
 32
0.0
 13
1.0
 23
0.0
 33
0.0
 40
0.0
 40
0.0
 40
0.0
 40
0.0
 40
0.2499997771188362
 40
0.4999989259301537
 40
0.7499933324299738
 40
0.9999999999999999
 40
0.9999999999999999
 40
0.9999999999999999
 40
0.9999999999999999
 10
126.6154579413227
 20
11.59844109744723
 30
0.0
 10
126.6142694992328
 20
11.58966163709926
 30
0.0
 10
126.6118926180401
 20
11.57210273846815
 30
0.0
 10
126.6083249650756
 20
11.549956312717
 30
0.0
 10
126.6047596065345
 20
11.53446223738006
 30
0.0
 10
126.6023824834547
 20
11.53244815654785
 30
0.0
 10
126.6011938927688
 20
11.53144109143701
 30
0.0
  0
LINE
  5
344
330
1F
100
AcDbEntity
  8
SLD-0
  6
Continuous
370
    15
100
AcDbLine
 10
142.8125700878
 20
11.5984410974
 30
0.0
 11
142.8125700878
 21
12.5674411243
 31
0.0
  0
LINE
  5
345
330
1F
100
AcDbEntity
  8
SLD-0
  6
Continuous
370
    15
100
AcDbLine
 10
142.8125700878
 20
11.5984410974
 30
0.0
 11
126.6773200534
 21
11.5984410974
 31
0.0
  0
LINE
  5
346
330
1F
100
AcDbEntity
  8
SLD-0
  6
Continuous
370
    15
100
AcDbLine
 10
126.6773200534
 20
12.5674411243
 30
0.0
 11
126.6773200534
 21
11.5984410974
 31
0.0
  0
LINE
  5
347
330
1F
100
AcDbEntity
  8
SLD-0
  6
Continuous
370
    15
100
AcDbLine
 10
126.6773200534
 20
12.5674411243
 30
0.0
 11
142.8125700878
 21
12.5674411243
 31
0.0
  0
LINE
  5
348
330
1F
100
AcDbEntity
  8
SLD-0
  6
Continuous
370
    15
100
AcDbLine
 10
126.663438507
 20
11.5314410914
 30
0.0
 11
142.8114581255
 21
11.5314410914
 31
0.0
  0
ARC
  5
349
330
1F
100
AcDbEntity
  8
SLD-0
  6
Continuous
370
    15
100
AcDbCircle
 10
126.5860740461
 20
11.5824080632
 30
0.0
 40
0.0926438990168613
100
AcDbArc
 50
326.6234877152
 51
9.9658327466
  0
ARC
  5
34A
330
1F
100
AcDbEntity
  8
SLD-0
  6
Continuous
370
    15
100
AcDbCircle
 10
142.4916542923
 20
11.5984260102
 30
0.0
 40
0.3209157958517925
100
AcDbArc
 50
358.4107757176
 51
0.0026936534
  0
SPLINE
  5
34B
330
1F
100
AcDbEntity
  8
SLD-0
  6
Continuous
370
    15
100
AcDbSpline
210
0.0
220
0.0
230
1.0
 70
     8
 71
     3
 72
    11
 73
     7
 74
     0
 42
0.00000001
 43
0.00000001
 12
1.0
 22
0.0
 32
0.0
 13
1.0
 23
0.0
 33
0.0
 40
0.0
 40
0.0
 40
0.0
 40
0.0
 40
0.2500027920741983
 40
0.5000010894640978
 40
0.7499970564528607
 40
1.0
 40
1.0
 40
1.0
 40
1.0
 10
142.8124466474312
 20
11.58952584710363
 30
0.0
 10
142.8131167516793
 20
11.58167615343126
 30
0.0
 10
142.8144569481281
 20
11.56597690721252
 30
0.0
 10
142.8143901262421
 20
11.54703241589539
 30
0.0
 10
142.8132586807387
 20
11.53396200942066
 30
0.0
 10
142.8120583161741
 20
11.53228140524813
 30
0.0
 10
142.8114581255173
 20
11.53144109143701
 30
0.0
  0
LINE
  5
34C
330
1F
100
AcDbEntity
  8
SLD-0
  6
Continuous
370
    15
100
AcDbLine
 10
126.6698612595
 20
12.5674411243
 30
0.0
 11
126.6698612595
 21
11.5984410974
 31
0.0
  0
LINE
  5
34D
330
1F
100
AcDbEntity
  8
SLD-0
  6
Continuous
370
    15
100
AcDbLine
 10
126.6773200534
 20
11.5984410974
 30
0.0
 11
126.6698612595
 21
11.5984410974
 31
0.0
  0
LINE
  5
34E
330
1F
100
AcDbEntity
  8
SLD-0
  6
Continuous
370
    15
100
AcDbLine
 10
126.6773200534
 20
12.5674411243
 30
0.0
 11
126.6698612595
 21
12.5674411243
 31
0.0
  0
ARC
  5
34F
330
1F
100
AcDbEntity
  8
SLD-0
  6
Continuous
370
    15
100
AcDbCircle
 10
126.6276486753
 20
11.5910215934
 30
0.0
 40
0.0428596699389969
100
AcDbArc
 50
326.6207153499
 51
9.9687808719
  0
LINE
  5
350
330
1F
100
AcDbEntity
  8
SLD-0
  6
Continuous
370
    15
100
AcDbLine
 10
126.663438507
 20
11.5674411089
 30
0.0
 11
126.663438507
 21
11.5314410914
 31
0.0
  0
LINE
  5
351
330
1F
100
AcDbEntity
  8
SLD-0
  6
Continuous
370
    15
100
AcDbLine
 10
126.6628260341
 20
11.5314410914
 30
0.0
 11
126.6628260341
 21
11.5674411089
 31
0.0
  0
LINE
  5
352
330
1F
100
AcDbEntity
  8
SLD-0
  6
Continuous
370
    15
100
AcDbLine
 10
126.6628260341
 20
11.5674411089
 30
0.0
 11
126.6110122327
 21
11.5674411089
 31
0.0
  0
LINE
  5
353
330
1F
100
AcDbEntity
  8
SLD-0
  6
Continuous
370
    15
100
AcDbLine
 10
126.6628260341
 20
11.5314410914
 30
0.0
 11
126.6011938928
 21
11.5314410914
 31
0.0
  0
ARC
  5
354
330
1F
100
AcDbEntity
  8
SLD-0
  6
Continuous
370
    15
100
AcDbCircle
 10
123.6774581256
 20
11.5984411246
 30
0.0
 40
0.0310000000000059
100
AcDbArc
 50
180.0
 51
270.0
  0
LINE
  5
355
330
1F
100
AcDbEntity
  8
SLD-0
  6
Continuous
370
    15
100
AcDbLine
 10
123.6464578928
 20
11.5984410974
 30
0.0
 11
123.6104580953
 21
11.5984410974
 31
0.0
  0
ARC
  5
356
330
1F
100
AcDbEntity
  8
SLD-0
  6
Continuous
370
    15
100
AcDbCircle
 10
123.6774581256
 20
11.5984411246
 30
0.0
 40
0.0670000000000073
100
AcDbArc
 50
180.0
 51
270.0
  0
ARC
  5
357
330
1F
100
AcDbEntity
  8
SLD-0
  6
Continuous
370
    15
100
AcDbCircle
 10
123.6774581256
 20
12.5004411246
 30
0.0
 40
0.0310000000000059
100
AcDbArc
 50
90.0
 51
180.0
  0
LINE
  5
358
330
1F
100
AcDbEntity
  8
SLD-0
  6
Continuous
370
    15
100
AcDbLine
 10
123.6464578928
 20
12.5004411275
 30
0.0
 11
123.6104580953
 21
12.5004411275
 31
0.0
  0
ARC
  5
359
330
1F
100
AcDbEntity
  8
SLD-0
  6
Continuous
370
    15
100
AcDbCircle
 10
123.6774581256
 20
12.5004411246
 30
0.0
 40
0.0670000000000073
100
AcDbArc
 50
90.0
 51
180.0
  0
LINE
  5
35A
330
1F
100
AcDbEntity
  8
SLD-0
  6
Continuous
370
    15
100
AcDbLine
 10
123.6464578928
 20
11.5984410974
 30
0.0
 11
123.6464578928
 21
12.5004411275
 31
0.0
  0
LINE
  5
35B
330
1F
100
AcDbEntity
  8
SLD-0
  6
Continuous
370
    15
100
AcDbLine
 10
123.6104580953
 20
11.5984410974
 30
0.0
 11
123.6104580953
 21
12.5004411275
 31
0.0
  0
LINE
  5
35C
330
1F
100
AcDbEntity
  8
SLD-0
  6
Continuous
370
    15
100
AcDbLine
 10
126.663438507
 20
11.5674411089
 30
0.0
 11
126.6628260341
 21
11.5674411089
 31
0.0
  0
LINE
  5
35D
330
1F
100
AcDbEntity
  8
SLD-0
  6
Continuous
370
    15
100
AcDbLine
 10
126.663438507
 20
11.5314410914
 30
0.0
 11
126.6628260341
 21
11.5314410914
 31
0.0
  0
LINE
  5
35E
330
1F
100
AcDbEntity
  8
SLD-0
  6
Continuous
370
    15
100
AcDbLine
 10
142.8424581244
 20
11.5984410974
 30
0.0
 11
142.8784581281
 21
11.5984410974
 31
0.0
  0
ARC
  5
35F
330
1F
100
AcDbEntity
  8
SLD-0
  6
Continuous
370
    15
100
AcDbCircle
 10
142.8114581256
 20
11.5984411246
 30
0.0
 40
0.0670000000000073
100
AcDbArc
 50
270.0
 51
0.0
  0
ARC
  5
360
330
1F
100
AcDbEntity
  8
SLD-0
  6
Continuous
370
    15
100
AcDbCircle
 10
142.8114581256
 20
11.5984411246
 30
0.0
 40
0.0310000000000059
100
AcDbArc
 50
274.8675649223
 51
0.0
  0
LINE
  5
361
330
1F
100
AcDbEntity
  8
SLD-0
  6
Continuous
370
    15
100
AcDbLine
 10
142.8424581244
 20
12.5674411243
 30
0.0
 11
142.8424581244
 21
11.5984410974
 31
0.0
  0
LINE
  5
362
330
1F
100
AcDbEntity
  8
SLD-0
  6
Continuous
370
    15
100
AcDbLine
 10
142.8784581281
 20
12.5674411243
 30
0.0
 11
142.8424581244
 21
12.5674411243
 31
0.0
  0
LINE
  5
363
330
1F
100
AcDbEntity
  8
SLD-0
  6
Continuous
370
    15
100
AcDbLine
 10
142.8784581281
 20
12.5674411243
 30
0.0
 11
142.8784581281
 21
11.5984410974
 31
0.0
  0
LWPOLYLINE
  5
364
330
1F
100
AcDbEntity
  8
SLD-0
  6
Continuous
370
    15
100
AcDbPolyline
 90
        9
 70
   128
 43
0.0
 10
123.1251014622
 20
42.939834099
 10
123.1253959655
 20
42.9390221617
 10
123.1262700887
 20
42.9366215494
 10
123.1276898057
 20
42.9327237811
 10
123.1295987969
 20
42.9274743484
 10
123.1319266634
 20
42.9210821023
 10
123.134581886
 20
42.9137863999
 10
123.1374623861
 20
42.9058735313
 10
123.1404578715
 20
42.8976415197
  0
LINE
  5
365
330
1F
100
AcDbEntity
  8
SLD-0
  6
Continuous
370
    15
100
AcDbLine
 10
123.1404578715
 20
42.8976415197
 30
0.0
 11
120.3093440168
 21
41.8671992368
 31
0.0
  0
SPLINE
  5
366
330
1F
100
AcDbEntity
  8
SLD-0
  6
Continuous
370
    15
100
AcDbSpline
210
0.0
220
0.0
230
1.0
 70
     8
 71
     3
 72
    11
 73
     7
 74
     0
 42
0.00000001
 43
0.00000001
 12
1.0
 22
0.0
 32
0.0
 13
1.0
 23
0.0
 33
0.0
 40
0.0
 40
0.0
 40
0.0
 40
0.0
 40
0.258286999334593
 40
0.516739440987599
 40
0.7752247953323453
 40
1.0
 40
1.0
 40
1.0
 40
1.0
 10
120.3093440167555
 20
41.86719923683693
 30
0.0
 10
120.3034568908051
 20
41.87152605135022
 30
0.0
 10
120.2916788679836
 20
41.88018245186057
 30
0.0
 10
120.2750694339766
 20
41.89027325661035
 30
0.0
 10
120.2607878274382
 20
41.89547462092613
 30
0.0
 10
120.2532740768878
 20
41.8939909820089
 30
0.0
 10
120.2497792648526
 20
41.89330090864154
 30
0.0
  0
LINE
  5
367
330
1F
100
AcDbEntity
  8
SLD-0
  6
Continuous
370
    15
100
AcDbLine
 10
123.1251014622
 20
42.939834099
 30
0.0
 11
120.2497792649
 21
41.8933009086
 31
0.0
  0
SPLINE
  5
368
330
1F
100
AcDbEntity
  8
SLD-0
  6
Continuous
370
    15
100
AcDbSpline
210
0.0
220
0.0
230
1.0
 70
     8
 71
     3
 72
     9
 73
     5
 74
     0
 42
0.00000001
 43
0.00000001
 12
1.0
 22
0.0
 32
0.0
 13
1.0
 23
0.0
 33
0.0
 40
0.0
 40
0.0
 40
0.0
 40
0.0
 40
0.5000106613033332
 40
1.0
 40
1.0
 40
1.0
 40
1.0
 10
120.3093440167555
 20
41.86719923683693
 30
0.0
 10
120.3005891757912
 20
41.8683264303313
 30
0.0
 10
120.2830798672067
 20
41.87058076925165
 30
0.0
 10
120.2676955619959
 20
41.86699662641784
 30
0.0
 10
120.2600035734072
 20
41.86520459321256
 30
0.0
  0
LINE
  5
369
330
1F
100
AcDbEntity
  8
SLD-0
  6
Continuous
370
    15
100
AcDbLine
 10
120.2600035734
 20
41.8652045932
 30
0.0
 11
120.2497792649
 21
41.8933009086
 31
0.0
  0
LINE
  5
36A
330
1F
100
AcDbEntity
  8
SLD-0
  6
Continuous
370
    15
100
AcDbLine
 10
123.6104580953
 20
42.8976415197
 30
0.0
 11
123.1404578715
 21
42.8976415197
 31
0.0
  0
LINE
  5
36B
330
1F
100
AcDbEntity
  8
SLD-0
  6
Continuous
370
    15
100
AcDbLine
 10
123.3567241732
 20
40.4461822659
 30
0.0
 11
123.6104580953
 21
40.5385342657
 31
0.0
  0
LINE
  5
36C
330
1F
100
AcDbEntity
  8
SLD-0
  6
Continuous
370
    15
100
AcDbLine
 10
123.3567241732
 20
40.4461822659
 30
0.0
 11
120.3093440168
 21
41.8671992368
 31
0.0
  0
SPLINE
  5
36D
330
1F
100
AcDbEntity
  8
SLD-0
  6
Continuous
370
    15
100
AcDbSpline
210
0.0
220
0.0
230
1.0
 70
     8
 71
     3
 72
     9
 73
     5
 74
     0
 42
0.00000001
 43
0.00000001
 12
1.0
 22
0.0
 32
0.0
 13
1.0
 23
0.0
 33
0.0
 40
0.0
 40
0.0
 40
0.0
 40
0.0
 40
0.4999881150444654
 40
1.0
 40
1.0
 40
1.0
 40
1.0
 10
120.2600035734072
 20
41.86520459321256
 30
0.0
 10
120.2593035099247
 20
41.86425165999549
 30
0.0
 10
120.2579033496781
 20
41.862345748258
 30
0.0
 10
120.2602014613598
 20
41.86178454895219
 30
0.0
 10
120.2613505445135
 20
41.86150394262945
 30
0.0
  0
LINE
  5
36E
330
1F
100
AcDbEntity
  8
SLD-0
  6
Continuous
370
    15
100
AcDbLine
 10
120.2613505445
 20
41.8615039426
 30
0.0
 11
120.2715771997
 21
41.8334076272
 31
0.0
  0
SPLINE
  5
36F
330
1F
100
AcDbEntity
  8
SLD-0
  6
Continuous
370
    15
100
AcDbSpline
210
0.0
220
0.0
230
1.0
 70
     8
 71
     3
 72
    15
 73
    11
 74
     0
 42
0.00000001
 43
0.00000001
 12
1.0
 22
0.0
 32
0.0
 13
1.0
 23
0.0
 33
0.0
 40
0.0
 40
0.0
 40
0.0
 40
0.0
 40
0.1250143706449303
 40
0.2500066740246578
 40
0.375008160883309
 40
0.5000032124940693
 40
0.6250067963104688
 40
0.7499990996901964
 40
0.8750049483892397
 40
1.0
 40
1.0
 40
1.0
 40
1.0
 10
120.2497792648526
 20
41.89330090864153
 30
0.0
 10
120.2460227644097
 20
41.89142422772124
 30
0.0
 10
120.2385104266132
 20
41.88767119714831
 30
0.0
 10
120.231062547118
 20
41.87711735640192
 30
0.0
 10
120.2280066910014
 20
41.86479508295717
 30
0.0
 10
120.229951925461
 20
41.85217113227488
 30
0.0
 10
120.2365756062616
 20
41.84125086110055
 30
0.0
 10
120.2468394151636
 20
41.83377698129171
 30
0.0
 10
120.2593271083307
 20
41.83047818096558
 30
0.0
 10
120.2674939534858
 20
41.83243117323759
 30
0.0
 10
120.2715771997077
 20
41.83340762720049
 30
0.0
  0
LINE
  5
370
330
1F
100
AcDbEntity
  8
SLD-0
  6
Continuous
370
    15
100
AcDbLine
 10
123.1404578715
 20
42.9425421211
 30
0.0
 11
123.1404578715
 21
42.9126412398
 31
0.0
  0
LINE
  5
371
330
1F
100
AcDbEntity
  8
SLD-0
  6
Continuous
370
    15
100
AcDbLine
 10
123.6104580953
 20
42.9126412398
 30
0.0
 11
123.1404578715
 21
42.9126412398
 31
0.0
  0
LINE
  5
372
330
1F
100
AcDbEntity
  8
SLD-0
  6
Continuous
370
    15
100
AcDbLine
 10
123.6104580953
 20
42.9425421211
 30
0.0
 11
123.1404578715
 21
42.9425421211
 31
0.0
  0
ARC
  5
373
330
1F
100
AcDbEntity
  8
SLD-0
  6
Continuous
370
    15
100
AcDbCircle
 10
123.1404581256
 20
42.8976411246
 30
0.0
 40
0.0150000000000006
100
AcDbArc
 50
90.0
 51
110.0
  0
ARC
  5
374
330
1F
100
AcDbEntity
  8
SLD-0
  6
Continuous
370
    15
100
AcDbCircle
 10
123.1404581256
 20
42.8976411246
 30
0.0
 40
0.0449000000000008
100
AcDbArc
 50
90.0
 51
110.0
  0
LINE
  5
375
330
1F
100
AcDbEntity
  8
SLD-0
  6
Continuous
370
    15
100
AcDbLine
 10
120.2613505445
 20
41.8615039426
 30
0.0
 11
120.281158529
 21
41.868715166
 31
0.0
  0
LINE
  5
376
330
1F
100
AcDbEntity
  8
SLD-0
  6
Continuous
370
    15
100
AcDbLine
 10
120.2715771997
 20
41.8334076272
 30
0.0
 11
120.3334862445
 21
41.8559400602
 31
0.0
  0
LINE
  5
377
330
1F
100
AcDbEntity
  8
SLD-0
  6
Continuous
370
    15
100
AcDbLine
 10
124.4461328149
 20
41.1917401598
 30
0.0
 11
124.398133476
 21
41.1917401598
 31
0.0
  0
LINE
  5
378
330
1F
100
AcDbEntity
  8
SLD-0
  6
Continuous
370
    15
100
AcDbLine
 10
124.4461328149
 20
41.1917401598
 30
0.0
 11
124.4461328149
 21
38.0667413801
 31
0.0
  0
LINE
  5
379
330
1F
100
AcDbEntity
  8
SLD-0
  6
Continuous
370
    15
100
AcDbLine
 10
124.4461328149
 20
38.0667413801
 30
0.0
 11
124.398133476
 21
38.0667413801
 31
0.0
  0
LINE
  5
37A
330
1F
100
AcDbEntity
  8
SLD-0
  6
Continuous
370
    15
100
AcDbLine
 10
124.398133476
 20
41.1917401598
 30
0.0
 11
124.398133476
 21
38.0667413801
 31
0.0
  0
LINE
  5
37B
330
1F
100
AcDbEntity
  8
SLD-0
  6
Continuous
370
    15
100
AcDbLine
 10
124.4611337083
 20
38.0667413801
 30
0.0
 11
124.4611337083
 21
41.1917401598
 31
0.0
  0
LINE
  5
37C
330
1F
100
AcDbEntity
  8
SLD-0
  6
Continuous
370
    15
100
AcDbLine
 10
124.4611337083
 20
38.0667413801
 30
0.0
 11
124.4461328149
 21
38.0667413801
 31
0.0
  0
LINE
  5
37D
330
1F
100
AcDbEntity
  8
SLD-0
  6
Continuous
370
    15
100
AcDbLine
 10
124.4461328149
 20
41.1917401598
 30
0.0
 11
124.4611337083
 21
41.1917401598
 31
0.0
  0
LINE
  5
37E
330
1F
100
AcDbEntity
  8
SLD-0
  6
Continuous
370
    15
100
AcDbLine
 10
124.4611337083
 20
41.1917401598
 30
0.0
 11
126.0387583634
 21
41.1917401598
 31
0.0
  0
LINE
  5
37F
330
1F
100
AcDbEntity
  8
SLD-0
  6
Continuous
370
    15
100
AcDbLine
 10
126.0387583634
 20
41.1917401598
 30
0.0
 11
126.0387583634
 21
38.0667413801
 31
0.0
  0
LINE
  5
380
330
1F
100
AcDbEntity
  8
SLD-0
  6
Continuous
370
    15
100
AcDbLine
 10
124.4611337083
 20
38.0667413801
 30
0.0
 11
126.0387583634
 21
38.0667413801
 31
0.0
  0
LINE
  5
381
330
1F
100
AcDbEntity
  8
SLD-0
  6
Continuous
370
    15
100
AcDbLine
 10
124.4461328149
 20
21.2787411831
 30
0.0
 11
124.4461328149
 21
18.1537412301
 31
0.0
  0
LINE
  5
382
330
1F
100
AcDbEntity
  8
SLD-0
  6
Continuous
370
    15
100
AcDbLine
 10
124.398133476
 20
21.2787411831
 30
0.0
 11
124.398133476
 21
18.1537412301
 31
0.0
  0
LINE
  5
383
330
1F
100
AcDbEntity
  8
SLD-0
  6
Continuous
370
    15
100
AcDbLine
 10
124.4461328149
 20
21.2787411831
 30
0.0
 11
124.398133476
 21
21.2787411831
 31
0.0
  0
LINE
  5
384
330
1F
100
AcDbEntity
  8
SLD-0
  6
Continuous
370
    15
100
AcDbLine
 10
124.4461328149
 20
18.1537412301
 30
0.0
 11
124.398133476
 21
18.1537412301
 31
0.0
  0
LINE
  5
385
330
1F
100
AcDbEntity
  8
SLD-0
  6
Continuous
370
    15
100
AcDbLine
 10
124.4611337083
 20
18.1537412301
 30
0.0
 11
124.4461328149
 21
18.1537412301
 31
0.0
  0
LINE
  5
386
330
1F
100
AcDbEntity
  8
SLD-0
  6
Continuous
370
    15
100
AcDbLine
 10
124.4611337083
 20
18.1537412301
 30
0.0
 11
124.4611337083
 21
21.2787411831
 31
0.0
  0
LINE
  5
387
330
1F
100
AcDbEntity
  8
SLD-0
  6
Continuous
370
    15
100
AcDbLine
 10
124.4461328149
 20
21.2787411831
 30
0.0
 11
124.4611337083
 21
21.2787411831
 31
0.0
  0
LINE
  5
388
330
1F
100
AcDbEntity
  8
SLD-0
  6
Continuous
370
    15
100
AcDbLine
 10
124.4611337083
 20
21.2787411831
 30
0.0
 11
126.0387583634
 21
21.2787411831
 31
0.0
  0
LINE
  5
389
330
1F
100
AcDbEntity
  8
SLD-0
  6
Continuous
370
    15
100
AcDbLine
 10
126.0387583634
 20
21.2787411831
 30
0.0
 11
126.0387583634
 21
18.1537412301
 31
0.0
  0
LINE
  5
38A
330
1F
100
AcDbEntity
  8
SLD-0
  6
Continuous
370
    15
100
AcDbLine
 10
124.4611337083
 20
18.1537412301
 30
0.0
 11
126.0387583634
 21
18.1537412301
 31
0.0
  0
LINE
  5
38B
330
1F
100
AcDbEntity
  8
SLD-0
  6
Continuous
370
    15
100
AcDbLine
 10
123.9224579044
 20
41.7818402229
 30
0.0
 11
124.3604581779
 21
41.7818402229
 31
0.0
  0
LINE
  5
38C
330
1F
100
AcDbEntity
  8
SLD-0
  6
Continuous
370
    15
100
AcDbLine
 10
123.9224579044
 20
37.9068413606
 30
0.0
 11
123.9224579044
 21
41.7818402229
 31
0.0
  0
LINE
  5
38D
330
1F
100
AcDbEntity
  8
SLD-0
  6
Continuous
370
    15
100
AcDbLine
 10
124.3604581779
 20
37.9068413606
 30
0.0
 11
123.9224579044
 21
37.9068413606
 31
0.0
  0
LINE
  5
38E
330
1F
100
AcDbEntity
  8
SLD-0
  6
Continuous
370
    15
100
AcDbLine
 10
124.3604581779
 20
21.9178408402
 30
0.0
 11
124.3604581779
 21
37.9068413606
 31
0.0
  0
LINE
  5
38F
330
1F
100
AcDbEntity
  8
SLD-0
  6
Continuous
370
    15
100
AcDbLine
 10
123.9224579044
 20
21.9178408402
 30
0.0
 11
124.3604581779
 21
21.9178408402
 31
0.0
  0
LINE
  5
390
330
1F
100
AcDbEntity
  8
SLD-0
  6
Continuous
370
    15
100
AcDbLine
 10
123.9224579044
 20
18.0428413912
 30
0.0
 11
123.9224579044
 21
21.9178408402
 31
0.0
  0
LINE
  5
391
330
1F
100
AcDbEntity
  8
SLD-0
  6
Continuous
370
    15
100
AcDbLine
 10
124.3604581779
 20
18.0428413912
 30
0.0
 11
123.9224579044
 21
18.0428413912
 31
0.0
  0
LINE
  5
392
330
1F
100
AcDbEntity
  8
SLD-0
  6
Continuous
370
    15
100
AcDbLine
 10
124.3604581779
 20
13.8212781857
 30
0.0
 11
124.3604581779
 21
18.0428413912
 31
0.0
  0
LINE
  5
393
330
1F
100
AcDbEntity
  8
SLD-0
  6
Continuous
370
    15
100
AcDbLine
 10
124.3604581779
 20
13.8212781857
 30
0.0
 11
123.6750575624
 21
13.1358781935
 31
0.0
  0
LINE
  5
394
330
1F
100
AcDbEntity
  8
SLD-0
  6
Continuous
370
    15
100
AcDbLine
 10
123.6750575624
 20
13.1358781935
 30
0.0
 11
123.6750575624
 21
46.7690030908
 31
0.0
  0
LINE
  5
395
330
1F
100
AcDbEntity
  8
SLD-0
  6
Continuous
370
    15
100
AcDbLine
 10
123.6750575624
 20
46.7690030908
 30
0.0
 11
124.3604581779
 21
46.0836036486
 31
0.0
  0
LINE
  5
396
330
1F
100
AcDbEntity
  8
SLD-0
  6
Continuous
370
    15
100
AcDbLine
 10
124.3604581779
 20
41.7818402229
 30
0.0
 11
124.3604581779
 21
46.0836036486
 31
0.0
  0
SPLINE
  5
397
330
1F
100
AcDbEntity
  8
SLD-0
  6
Continuous
370
    15
100
AcDbSpline
210
0.0
220
0.0
230
1.0
 70
     8
 71
     3
 72
    11
 73
     7
 74
     0
 42
0.00000001
 43
0.00000001
 12
1.0
 22
0.0
 32
0.0
 13
1.0
 23
0.0
 33
0.0
 40
0.0
 40
0.0
 40
0.0
 40
0.0
 40
0.2499957720892083
 40
0.500000000006369
 40
0.7500045890992235
 40
1.0
 40
1.0
 40
1.0
 40
1.0
 10
123.6750575624121
 20
13.13587819350936
 30
0.0
 10
123.6709958483791
 20
13.13036883261267
 30
0.0
 10
123.6628722829301
 20
13.11934992447129
 30
0.0
 10
123.6526242123755
 20
13.1028223628948
 30
0.0
 10
123.6454564241893
 20
13.08629477639336
 30
0.0
 10
123.6445244382603
 20
13.07527588286668
 30
0.0
 10
123.6440584538498
 20
13.06976653723686
 30
0.0
  0
LINE
  5
398
330
1F
100
AcDbEntity
  8
SLD-0
  6
Continuous
370
    15
100
AcDbLine
 10
123.6440584538
 20
13.0697665372
 30
0.0
 11
123.6104580953
 21
13.0697665372
 31
0.0
  0
SPLINE
  5
399
330
1F
100
AcDbEntity
  8
SLD-0
  6
Continuous
370
    15
100
AcDbSpline
210
0.0
220
0.0
230
1.0
 70
     8
 71
     3
 72
    11
 73
     7
 74
     0
 42
0.00000001
 43
0.00000001
 12
1.0
 22
0.0
 32
0.0
 13
1.0
 23
0.0
 33
0.0
 40
0.0
 40
0.0
 40
0.0
 40
0.0
 40
0.2499974289475732
 40
0.5000000000017707
 40
0.7500027378201387
 40
1.0
 40
1.0
 40
1.0
 40
1.0
 10
123.6750575624121
 20
13.13587819350936
 30
0.0
 10
123.6665928250817
 20
13.13036885040891
 30
0.0
 10
123.6496631763129
 20
13.11935005088831
 30
0.0
 10
123.6283099337331
 20
13.10282237268733
 30
0.0
 10
123.6133713237402
 20
13.08629463222681
 30
0.0
 10
123.6114291643819
 20
13.07527586201031
 30
0.0
 10
123.6104580953373
 20
13.06976653723686
 30
0.0
  0
LINE
  5
39A
330
1F
100
AcDbEntity
  8
SLD-0
  6
Continuous
370
    15
100
AcDbLine
 10
123.6104580953
 20
46.8351149671
 30
0.0
 11
123.6104580953
 21
13.0697665372
 31
0.0
  0
SPLINE
  5
39B
330
1F
100
AcDbEntity
  8
SLD-0
  6
Continuous
370
    15
100
AcDbSpline
210
0.0
220
0.0
230
1.0
 70
     8
 71
     3
 72
    11
 73
     7
 74
     0
 42
0.00000001
 43
0.00000001
 12
1.0
 22
0.0
 32
0.0
 13
1.0
 23
0.0
 33
0.0
 40
0.0
 40
0.0
 40
0.0
 40
0.0
 40
0.2499946771875426
 40
0.4999946632936856
 40
0.7499946493998286
 40
0.9999999999999999
 40
0.9999999999999999
 40
0.9999999999999999
 40
0.9999999999999999
 10
123.6104580953373
 20
46.83511496705049
 30
0.0
 10
123.6114291696102
 20
46.82960582010135
 30
0.0
 10
123.6133713387778
 20
46.8185874092101
 30
0.0
 10
123.6283098630183
 20
46.80206008502457
 30
0.0
 10
123.6496637681943
 20
46.78553322890274
 30
0.0
 10
123.666592903796
 20
46.77451317623218
 30
0.0
 10
123.6750575624121
 20
46.76900309078052
 30
0.0
  0
SPLINE
  5
39C
330
1F
100
AcDbEntity
  8
SLD-0
  6
Continuous
370
    15
100
AcDbSpline
210
0.0
220
0.0
230
1.0
 70
     8
 71
     3
 72
    11
 73
     7
 74
     0
 42
0.00000001
 43
0.00000001
 12
1.0
 22
0.0
 32
0.0
 13
1.0
 23
0.0
 33
0.0
 40
0.0
 40
0.0
 40
0.0
 40
0.0
 40
0.2499898123315775
 40
0.4999884418387616
 40
0.7499870713459458
 40
1.0
 40
1.0
 40
1.0
 40
1.0
 10
123.6440584538498
 20
46.83511496705049
 30
0.0
 10
123.6445244436935
 20
46.82960579587733
 30
0.0
 10
123.6454564398165
 20
46.81858725922177
 30
0.0
 10
123.6526241388925
 20
46.80206014378744
 30
0.0
 10
123.6628728980754
 20
46.78553286964334
 30
0.0
 10
123.6709959302
 20
46.77451312211436
 30
0.0
 10
123.6750575624121
 20
46.76900309078052
 30
0.0
  0
LINE
  5
39D
330
1F
100
AcDbEntity
  8
SLD-0
  6
Continuous
370
    15
100
AcDbLine
 10
123.6440584538
 20
46.8351149671
 30
0.0
 11
123.6104580953
 21
46.8351149671
 31
0.0
  0
LINE
  5
39E
330
1F
100
AcDbEntity
  8
SLD-0
  6
Continuous
370
    15
100
AcDbLine
 10
123.6104580953
 20
46.8351149671
 30
0.0
 11
123.6104580953
 21
46.8352276057
 31
0.0
  0
LINE
  5
39F
330
1F
100
AcDbEntity
  8
SLD-0
  6
Continuous
370
    15
100
AcDbLine
 10
123.6440584538
 20
46.8352276057
 30
0.0
 11
123.6104580953
 21
46.8352276057
 31
0.0
  0
LINE
  5
3A0
330
1F
100
AcDbEntity
  8
SLD-0
  6
Continuous
370
    15
100
AcDbLine
 10
123.6440584538
 20
46.8351149671
 30
0.0
 11
123.6440584538
 21
46.8352276057
 31
0.0
  0
LINE
  5
3A1
330
1F
100
AcDbEntity
  8
SLD-0
  6
Continuous
370
    15
100
AcDbLine
 10
123.6440584538
 20
13.0696538252
 30
0.0
 11
123.6104580953
 21
13.0696538252
 31
0.0
  0
LINE
  5
3A2
330
1F
100
AcDbEntity
  8
SLD-0
  6
Continuous
370
    15
100
AcDbLine
 10
123.6440584538
 20
13.0696538252
 30
0.0
 11
123.6440584538
 21
13.0697665372
 31
0.0
  0
LINE
  5
3A3
330
1F
100
AcDbEntity
  8
SLD-0
  6
Continuous
370
    15
100
AcDbLine
 10
123.6104580953
 20
13.0696538252
 30
0.0
 11
123.6104580953
 21
13.0697665372
 31
0.0
  0
LINE
  5
3A4
330
1F
100
AcDbEntity
  8
SLD-0
  6
Continuous
370
    15
100
AcDbLine
 10
124.3604581779
 20
12.6010411253
 30
0.0
 11
124.3604581779
 21
12.5674411243
 31
0.0
  0
LINE
  5
3A5
330
1F
100
AcDbEntity
  8
SLD-0
  6
Continuous
370
    15
100
AcDbLine
 10
123.6774581747
 20
12.5674411243
 30
0.0
 11
123.6750575624
 21
12.5674411243
 31
0.0
  0
LINE
  5
3A6
330
1F
100
AcDbEntity
  8
SLD-0
  6
Continuous
370
    15
100
AcDbLine
 10
123.6750575624
 20
12.6010411253
 30
0.0
 11
123.6750575624
 21
12.5674411243
 31
0.0
  0
LINE
  5
3A7
330
1F
100
AcDbEntity
  8
SLD-0
  6
Continuous
370
    15
100
AcDbLine
 10
124.3604581779
 20
12.6010411253
 30
0.0
 11
123.6750575624
 21
12.6010411253
 31
0.0
  0
ARC
  5
3A8
330
1F
100
AcDbEntity
  8
SLD-0
  6
Continuous
370
    15
100
AcDbCircle
 10
123.6750581256
 20
12.6320411246
 30
0.0
 40
0.0310000000000059
100
AcDbArc
 50
180.0
 51
270.0
  0
ARC
  5
3A9
330
1F
100
AcDbEntity
  8
SLD-0
  6
Continuous
370
    15
100
AcDbCircle
 10
123.6750581256
 20
12.6320411246
 30
0.0
 40
0.0645999999999987
100
AcDbArc
 50
180.0
 51
270.0
  0
LINE
  5
3AA
330
1F
100
AcDbEntity
  8
SLD-0
  6
Continuous
370
    15
100
AcDbLine
 10
123.6440584538
 20
12.6320411248
 30
0.0
 11
123.6104580953
 21
12.6320411248
 31
0.0
  0
LINE
  5
3AB
330
1F
100
AcDbEntity
  8
SLD-0
  6
Continuous
370
    15
100
AcDbLine
 10
123.6440584538
 20
13.0696538252
 30
0.0
 11
123.6440584538
 21
12.6320411248
 31
0.0
  0
LINE
  5
3AC
330
1F
100
AcDbEntity
  8
SLD-0
  6
Continuous
370
    15
100
AcDbLine
 10
123.6104580953
 20
12.6320411248
 30
0.0
 11
123.6104580953
 21
13.0696538252
 31
0.0
  0
LINE
  5
3AD
330
1F
100
AcDbEntity
  8
SLD-0
  6
Continuous
370
    15
100
AcDbLine
 10
123.6750575624
 20
47.3038421389
 30
0.0
 11
123.6750575624
 21
47.3374413241
 31
0.0
  0
LINE
  5
3AE
330
1F
100
AcDbEntity
  8
SLD-0
  6
Continuous
370
    15
100
AcDbLine
 10
124.3604581779
 20
47.3374413241
 30
0.0
 11
123.6750575624
 21
47.3374413241
 31
0.0
  0
LINE
  5
3AF
330
1F
100
AcDbEntity
  8
SLD-0
  6
Continuous
370
    15
100
AcDbLine
 10
124.3604581779
 20
47.3038421389
 30
0.0
 11
124.3604581779
 21
47.3374413241
 31
0.0
  0
LINE
  5
3B0
330
1F
100
AcDbEntity
  8
SLD-0
  6
Continuous
370
    15
100
AcDbLine
 10
124.3604581779
 20
47.3038421389
 30
0.0
 11
123.6750575624
 21
47.3038421389
 31
0.0
  0
LINE
  5
3B1
330
1F
100
AcDbEntity
  8
SLD-0
  6
Continuous
370
    15
100
AcDbLine
 10
123.6440584538
 20
47.2728406837
 30
0.0
 11
123.6104580953
 21
47.2728406837
 31
0.0
  0
LINE
  5
3B2
330
1F
100
AcDbEntity
  8
SLD-0
  6
Continuous
370
    15
100
AcDbLine
 10
123.6440584538
 20
47.2728406837
 30
0.0
 11
123.6440584538
 21
46.8352276057
 31
0.0
  0
LINE
  5
3B3
330
1F
100
AcDbEntity
  8
SLD-0
  6
Continuous
370
    15
100
AcDbLine
 10
123.6104580953
 20
46.8352276057
 30
0.0
 11
123.6104580953
 21
47.2728406837
 31
0.0
  0
ARC
  5
3B4
330
1F
100
AcDbEntity
  8
SLD-0
  6
Continuous
370
    15
100
AcDbCircle
 10
123.6750581256
 20
47.2728411246
 30
0.0
 40
0.0646000000000129
100
AcDbArc
 50
90.0
 51
180.0
  0
ARC
  5
3B5
330
1F
100
AcDbEntity
  8
SLD-0
  6
Continuous
370
    15
100
AcDbCircle
 10
123.6750581256
 20
47.2728411246
 30
0.0
 40
0.0310000000000059
100
AcDbArc
 50
90.0
 51
180.0
  0
LINE
  5
3B6
330
1F
100
AcDbEntity
  8
SLD-0
  6
Continuous
370
    15
100
AcDbLine
 10
129.1440582774
 20
12.5882236242
 30
0.0
 11
129.1440582774
 21
12.6010411253
 31
0.0
  0
LINE
  5
3B7
330
1F
100
AcDbEntity
  8
SLD-0
  6
Continuous
370
    15
100
AcDbLine
 10
129.1440582774
 20
12.5882236242
 30
0.0
 11
126.144057947
 21
12.5882236242
 31
0.0
  0
LINE
  5
3B8
330
1F
100
AcDbEntity
  8
SLD-0
  6
Continuous
370
    15
100
AcDbLine
 10
126.144057947
 20
12.5882236242
 30
0.0
 11
126.144057947
 21
12.6010411253
 31
0.0
  0
LINE
  5
3B9
330
1F
100
AcDbEntity
  8
SLD-0
  6
Continuous
370
    15
100
AcDbLine
 10
126.144057947
 20
12.6227411246
 30
0.0
 11
126.144057947
 21
12.6278236245
 31
0.0
  0
LINE
  5
3BA
330
1F
100
AcDbEntity
  8
SLD-0
  6
Continuous
370
    15
100
AcDbLine
 10
126.6202579925
 20
12.6278236245
 30
0.0
 11
126.5827000264
 21
12.6278236245
 31
0.0
  0
LINE
  5
3BB
330
1F
100
AcDbEntity
  8
SLD-0
  6
Continuous
370
    15
100
AcDbLine
 10
126.1637579861
 20
12.6278236245
 30
0.0
 11
126.144057947
 21
12.6278236245
 31
0.0
  0
LINE
  5
3BC
330
1F
100
AcDbEntity
  8
SLD-0
  6
Continuous
370
    15
100
AcDbLine
 10
126.144057947
 20
12.6328236242
 30
0.0
 11
126.144057947
 21
12.6278236245
 31
0.0
  0
LINE
  5
3BD
330
1F
100
AcDbEntity
  8
SLD-0
  6
Continuous
370
    15
100
AcDbLine
 10
126.144057947
 20
12.6537411247
 30
0.0
 11
126.144057947
 21
12.6328236242
 31
0.0
  0
LINE
  5
3BE
330
1F
100
AcDbEntity
  8
SLD-0
  6
Continuous
370
    15
100
AcDbLine
 10
123.7146324652
 20
47.1926419302
 30
0.0
 11
123.7146324652
 21
47.1917408206
 31
0.0
  0
LINE
  5
3BF
330
1F
100
AcDbEntity
  8
SLD-0
  6
Continuous
370
    15
100
AcDbLine
 10
124.2120156261
 20
47.1926419302
 30
0.0
 11
123.7146324652
 21
47.1926419302
 31
0.0
  0
LINE
  5
3C0
330
1F
100
AcDbEntity
  8
SLD-0
  6
Continuous
370
    15
100
AcDbLine
 10
124.221371678
 20
47.1926419302
 30
0.0
 11
124.2120156261
 21
47.1926419302
 31
0.0
  0
LINE
  5
3C1
330
1F
100
AcDbEntity
  8
SLD-0
  6
Continuous
370
    15
100
AcDbLine
 10
126.6471903747
 20
47.1926419302
 30
0.0
 11
126.5449519825
 21
47.1926419302
 31
0.0
  0
LINE
  5
3C2
330
1F
100
AcDbEntity
  8
SLD-0
  6
Continuous
370
    15
100
AcDbLine
 10
126.1637579861
 20
47.1926419302
 30
0.0
 11
124.8507580073
 21
47.1926419302
 31
0.0
  0
LINE
  5
3C3
330
1F
100
AcDbEntity
  8
SLD-0
  6
Continuous
370
    15
100
AcDbLine
 10
124.475757966
 20
47.1926419302
 30
0.0
 11
124.221371678
 21
47.1926419302
 31
0.0
  0
LINE
  5
3C4
330
1F
100
AcDbEntity
  8
SLD-0
  6
Continuous
370
    15
100
AcDbLine
 10
142.7790581247
 20
47.1926419302
 30
0.0
 11
142.7790581247
 21
47.1917408206
 31
0.0
  0
LINE
  5
3C5
330
1F
100
AcDbEntity
  8
SLD-0
  6
Continuous
370
    15
100
AcDbLine
 10
142.8090581257
 20
47.1926419302
 30
0.0
 11
142.7790581247
 21
47.1926419302
 31
0.0
  0
LINE
  5
3C6
330
1F
100
AcDbEntity
  8
SLD-0
  6
Continuous
370
    15
100
AcDbLine
 10
142.8090581257
 20
47.1926419302
 30
0.0
 11
142.8090581257
 21
47.1917408206
 31
0.0
  0
LINE
  5
3C7
330
1F
100
AcDbEntity
  8
SLD-0
  6
Continuous
370
    15
100
AcDbLine
 10
142.7640581251
 20
47.1926419302
 30
0.0
 11
141.8093512002
 21
47.1926419302
 31
0.0
  0
LINE
  5
3C8
330
1F
100
AcDbEntity
  8
SLD-0
  6
Continuous
370
    15
100
AcDbLine
 10
142.7790581247
 20
47.1926419302
 30
0.0
 11
142.7640581251
 21
47.1926419302
 31
0.0
  0
LINE
  5
3C9
330
1F
100
AcDbEntity
  8
SLD-0
  6
Continuous
370
    15
100
AcDbLine
 10
139.7383330381
 20
13.5287411118
 30
0.0
 11
139.7383330381
 21
13.2477411446
 31
0.0
  0
LINE
  5
3CA
330
1F
100
AcDbEntity
  8
SLD-0
  6
Continuous
370
    15
100
AcDbLine
 10
137.5373672905
 20
13.2477411446
 30
0.0
 11
137.5373672905
 21
13.5287411118
 31
0.0
  0
LINE
  5
3CB
330
1F
100
AcDbEntity
  8
SLD-0
  6
Continuous
370
    15
100
AcDbLine
 10
137.5373672905
 20
13.5287411118
 30
0.0
 11
137.1705400081
 21
13.5287411118
 31
0.0
  0
LINE
  5
3CC
330
1F
100
AcDbEntity
  8
SLD-0
  6
Continuous
370
    15
100
AcDbLine
 10
137.1705400081
 20
13.5287411118
 30
0.0
 11
137.1705400081
 21
18.4657410391
 31
0.0
  0
LINE
  5
3CD
330
1F
100
AcDbEntity
  8
SLD-0
  6
Continuous
370
    15
100
AcDbLine
 10
137.1705400081
 20
18.4657410391
 30
0.0
 11
140.1051606138
 21
18.4657410391
 31
0.0
  0
LINE
  5
3CE
330
1F
100
AcDbEntity
  8
SLD-0
  6
Continuous
370
    15
100
AcDbLine
 10
140.1051606138
 20
18.4657410391
 30
0.0
 11
140.1051606138
 21
13.5287411118
 31
0.0
  0
LINE
  5
3CF
330
1F
100
AcDbEntity
  8
SLD-0
  6
Continuous
370
    15
100
AcDbLine
 10
140.1051606138
 20
13.5287411118
 30
0.0
 11
139.7383330381
 21
13.5287411118
 31
0.0
  0
LINE
  5
3D0
330
1F
100
AcDbEntity
  8
SLD-0
  6
Continuous
370
    15
100
AcDbLine
 10
137.1705400081
 20
13.5287411118
 30
0.0
 11
137.1643108534
 21
13.5287411118
 31
0.0
  0
LINE
  5
3D1
330
1F
100
AcDbEntity
  8
SLD-0
  6
Continuous
370
    15
100
AcDbLine
 10
137.1643108534
 20
13.5287411118
 30
0.0
 11
137.1643108534
 21
18.4657410391
 31
0.0
  0
LINE
  5
3D2
330
1F
100
AcDbEntity
  8
SLD-0
  6
Continuous
370
    15
100
AcDbLine
 10
137.5311387224
 20
13.5287411118
 30
0.0
 11
137.5311387224
 21
13.2477411446
 31
0.0
  0
LINE
  5
3D3
330
1F
100
AcDbEntity
  8
SLD-0
  6
Continuous
370
    15
100
AcDbLine
 10
124.8507580073
 20
47.1951411013
 30
0.0
 11
126.1637579861
 21
47.1951411013
 31
0.0
  0
LINE
  5
3D4
330
1F
100
AcDbEntity
  8
SLD-0
  6
Continuous
370
    15
100
AcDbLine
 10
126.548109386
 20
47.1951411013
 30
0.0
 11
126.6455324739
 21
47.1951411013
 31
0.0
  0
LINE
  5
3D5
330
1F
100
AcDbEntity
  8
SLD-0
  6
Continuous
370
    15
100
AcDbLine
 10
124.4647580931
 20
47.1951411013
 30
0.0
 11
124.4647580931
 21
47.2227422758
 31
0.0
  0
LINE
  5
3D6
330
1F
100
AcDbEntity
  8
SLD-0
  6
Continuous
370
    15
100
AcDbLine
 10
124.475757966
 20
47.1951411013
 30
0.0
 11
124.4647580931
 21
47.1951411013
 31
0.0
  0
LINE
  5
3D7
330
1F
100
AcDbEntity
  8
SLD-0
  6
Continuous
370
    15
100
AcDbLine
 10
124.4647580931
 20
47.1951411013
 30
0.0
 11
124.4647580931
 21
47.1926419302
 31
0.0
  0
LINE
  5
3D8
330
1F
100
AcDbEntity
  8
SLD-0
  6
Continuous
370
    15
100
AcDbLine
 10
123.6721582892
 20
47.1801413813
 30
0.0
 11
123.6721582892
 21
46.7730440041
 31
0.0
  0
LINE
  5
3D9
330
1F
100
AcDbEntity
  8
SLD-0
  6
Continuous
370
    15
100
AcDbLine
 10
123.6997582904
 20
47.1801413813
 30
0.0
 11
123.6997582904
 21
46.7443047094
 31
0.0
  0
LINE
  5
3DA
330
1F
100
AcDbEntity
  8
SLD-0
  6
Continuous
370
    15
100
AcDbLine
 10
123.6721582892
 20
47.1801413813
 30
0.0
 11
123.6997582904
 21
47.1801413813
 31
0.0
  0
LINE
  5
3DB
330
1F
100
AcDbEntity
  8
SLD-0
  6
Continuous
370
    15
100
AcDbLine
 10
126.7151584429
 20
47.2744410919
 30
0.0
 11
126.7151584429
 21
47.2444416518
 31
0.0
  0
LINE
  5
3DC
330
1F
100
AcDbEntity
  8
SLD-0
  6
Continuous
370
    15
100
AcDbLine
 10
141.2151580843
 20
47.2744410919
 30
0.0
 11
126.7151584429
 21
47.2744410919
 31
0.0
  0
LINE
  5
3DD
330
1F
100
AcDbEntity
  8
SLD-0
  6
Continuous
370
    15
100
AcDbLine
 10
141.2151580843
 20
47.2744410919
 30
0.0
 11
141.2151580843
 21
47.2444416518
 31
0.0
  0
LINE
  5
3DE
330
1F
100
AcDbEntity
  8
SLD-0
  6
Continuous
370
    15
100
AcDbLine
 10
126.7151584429
 20
47.2744410919
 30
0.0
 11
126.7151584429
 21
47.281882286
 31
0.0
  0
LINE
  5
3DF
330
1F
100
AcDbEntity
  8
SLD-0
  6
Continuous
370
    15
100
AcDbLine
 10
141.2151580843
 20
47.281882286
 30
0.0
 11
126.7151584429
 21
47.281882286
 31
0.0
  0
LINE
  5
3E0
330
1F
100
AcDbEntity
  8
SLD-0
  6
Continuous
370
    15
100
AcDbLine
 10
141.2151580843
 20
47.281882286
 30
0.0
 11
141.2151580843
 21
47.2744410919
 31
0.0
  0
LINE
  5
3E1
330
1F
100
AcDbEntity
  8
SLD-0
  6
Continuous
370
    15
100
AcDbLine
 10
124.3401585724
 20
50.2373457442
 30
0.0
 11
141.2151580843
 21
50.2373457442
 31
0.0
  0
LINE
  5
3E2
330
1F
100
AcDbEntity
  8
SLD-0
  6
Continuous
370
    15
100
AcDbLine
 10
126.7151584429
 20
47.281882286
 30
0.0
 11
126.7151584429
 21
48.744441817
 31
0.0
  0
LINE
  5
3E3
330
1F
100
AcDbEntity
  8
SLD-0
  6
Continuous
370
    15
100
AcDbLine
 10
126.7151584429
 20
48.744441817
 30
0.0
 11
126.7151584429
 21
48.7595565224
 31
0.0
  0
LINE
  5
3E4
330
1F
100
AcDbEntity
  8
SLD-0
  6
Continuous
370
    15
100
AcDbLine
 10
124.5901578178
 20
48.7595565224
 30
0.0
 11
126.7151584429
 21
48.7595565224
 31
0.0
  0
LINE
  5
3E5
330
1F
100
AcDbEntity
  8
SLD-0
  6
Continuous
370
    15
100
AcDbLine
 10
124.3401585724
 20
48.9755013345
 30
0.0
 11
124.5901578178
 21
48.7595565224
 31
0.0
  0
LINE
  5
3E6
330
1F
100
AcDbEntity
  8
SLD-0
  6
Continuous
370
    15
100
AcDbLine
 10
124.3401585724
 20
48.9755013345
 30
0.0
 11
124.3401585724
 21
50.2373457442
 31
0.0
  0
LINE
  5
3E7
330
1F
100
AcDbEntity
  8
SLD-0
  6
Continuous
370
    15
100
AcDbLine
 10
132.7151579304
 20
49.4402016729
 30
0.0
 11
132.7151579304
 21
48.5764224247
 31
0.0
  0
ARC
  5
3E8
330
1F
100
AcDbEntity
  8
SLD-0
  6
Continuous
370
    15
100
AcDbCircle
 10
132.8401581397
 20
48.5912059048
 30
0.0
 40
0.1258713772660796
100
AcDbArc
 50
186.7449057139
 51
353.2550942861
  0
LINE
  5
3E9
330
1F
100
AcDbEntity
  8
SLD-0
  6
Continuous
370
    15
100
AcDbLine
 10
132.965158349
 20
48.5764224247
 30
0.0
 11
132.965158349
 21
49.4402016729
 31
0.0
  0
ARC
  5
3EA
330
1F
100
AcDbEntity
  8
SLD-0
  6
Continuous
370
    15
100
AcDbCircle
 10
132.8401581397
 20
49.4254172774
 30
0.0
 40
0.1258714847704554
100
AcDbArc
 50
6.7453194679
 51
173.2546805321
  0
LINE
  5
3EB
330
1F
100
AcDbEntity
  8
SLD-0
  6
Continuous
370
    15
100
AcDbLine
 10
129.7151576
 20
49.4402016729
 30
0.0
 11
129.7151576
 21
48.5764224247
 31
0.0
  0
ARC
  5
3EC
330
1F
100
AcDbEntity
  8
SLD-0
  6
Continuous
370
    15
100
AcDbCircle
 10
129.8401578093
 20
48.591205452
 30
0.0
 40
0.12587132408747
100
AcDbArc
 50
186.7447010348
 51
353.2552989652
  0
LINE
  5
3ED
330
1F
100
AcDbEntity
  8
SLD-0
  6
Continuous
370
    15
100
AcDbLine
 10
129.9651580186
 20
48.5764224247
 30
0.0
 11
129.9651580186
 21
49.4402016729
 31
0.0
  0
ARC
  5
3EE
330
1F
100
AcDbEntity
  8
SLD-0
  6
Continuous
370
    15
100
AcDbCircle
 10
129.8401578093
 20
49.4254177302
 30
0.0
 40
0.1258714315885987
100
AcDbArc
 50
6.7451147892
 51
173.2548852108
  0
LINE
  5
3EF
330
1F
100
AcDbEntity
  8
SLD-0
  6
Continuous
370
    15
100
AcDbLine
 10
141.2151580843
 20
47.281882286
 30
0.0
 11
141.2151580843
 21
50.2373457442
 31
0.0
  0
LINE
  5
3F0
330
1F
100
AcDbEntity
  8
SLD-0
  6
Continuous
370
    15
100
AcDbLine
 10
124.5901578178
 20
48.744441817
 30
0.0
 11
124.5901578178
 21
48.7595565224
 31
0.0
  0
LINE
  5
3F1
330
1F
100
AcDbEntity
  8
SLD-0
  6
Continuous
370
    15
100
AcDbLine
 10
124.5901578178
 20
48.744441817
 30
0.0
 11
126.7151584429
 21
48.744441817
 31
0.0
  0
LINE
  5
3F2
330
1F
100
AcDbEntity
  8
SLD-0
  6
Continuous
370
    15
100
AcDbLine
 10
124.3401585724
 20
48.9603866291
 30
0.0
 11
124.3401585724
 21
48.9755013345
 31
0.0
  0
LINE
  5
3F3
330
1F
100
AcDbEntity
  8
SLD-0
  6
Continuous
370
    15
100
AcDbLine
 10
124.3401585724
 20
48.9603866291
 30
0.0
 11
124.5901578178
 21
48.744441817
 31
0.0
  0
ARC
  5
3F4
330
1F
100
AcDbEntity
  8
SLD-0
  6
Continuous
370
    15
100
AcDbCircle
 10
132.8401581397
 20
49.4103011407
 30
0.0
 40
0.1258713772660804
100
AcDbArc
 50
6.7449057139
 51
173.2550942861
  0
ARC
  5
3F5
330
1F
100
AcDbEntity
  8
SLD-0
  6
Continuous
370
    15
100
AcDbCircle
 10
129.8401578093
 20
49.4103015935
 30
0.0
 40
0.1258713240874725
100
AcDbArc
 50
6.7447010348
 51
173.2552989652
  0
LINE
  5
3F6
330
1F
100
AcDbEntity
  8
SLD-0
  6
Continuous
370
    15
100
AcDbLine
 10
124.3401585724
 20
50.2373457442
 30
0.0
 11
124.3401585724
 21
50.2596716729
 31
0.0
  0
LINE
  5
3F7
330
1F
100
AcDbEntity
  8
SLD-0
  6
Continuous
370
    15
100
AcDbLine
 10
141.2151580843
 20
50.2596716729
 30
0.0
 11
141.2151580843
 21
50.2373457442
 31
0.0
  0
LINE
  5
3F8
330
1F
100
AcDbEntity
  8
SLD-0
  6
Continuous
370
    15
100
AcDbLine
 10
126.1637579861
 20
47.174713604
 30
0.0
 11
126.1637579861
 21
47.1917408206
 31
0.0
  0
LINE
  5
3F9
330
1F
100
AcDbEntity
  8
SLD-0
  6
Continuous
370
    15
100
AcDbLine
 10
126.1637579861
 20
47.1917408206
 30
0.0
 11
126.5438150356
 21
47.1917408206
 31
0.0
  0
LINE
  5
3FA
330
1F
100
AcDbEntity
  8
SLD-0
  6
Continuous
370
    15
100
AcDbLine
 10
126.5438150356
 20
47.1917408206
 30
0.0
 11
125.9498148576
 21
46.5977406426
 31
0.0
  0
LINE
  5
3FB
330
1F
100
AcDbEntity
  8
SLD-0
  6
Continuous
370
    15
100
AcDbLine
 10
125.9498148576
 20
46.5977406426
 30
0.0
 11
124.475757966
 21
46.5977406426
 31
0.0
  0
LINE
  5
3FC
330
1F
100
AcDbEntity
  8
SLD-0
  6
Continuous
370
    15
100
AcDbLine
 10
124.475757966
 20
46.5977406426
 30
0.0
 11
124.475757966
 21
47.1917408206
 31
0.0
  0
LINE
  5
3FD
330
1F
100
AcDbEntity
  8
SLD-0
  6
Continuous
370
    15
100
AcDbLine
 10
124.475757966
 20
47.1917408206
 30
0.0
 11
124.8507580073
 21
47.1917408206
 31
0.0
  0
LINE
  5
3FE
330
1F
100
AcDbEntity
  8
SLD-0
  6
Continuous
370
    15
100
AcDbLine
 10
124.8507580073
 20
47.1917408206
 30
0.0
 11
124.8507580073
 21
47.174713604
 31
0.0
  0
LINE
  5
3FF
330
1F
100
AcDbEntity
  8
SLD-0
  6
Continuous
370
    15
100
AcDbLine
 10
124.8507580073
 20
47.174713604
 30
0.0
 11
126.1637579861
 21
47.174713604
 31
0.0
  0
LINE
  5
400
330
1F
100
AcDbEntity
  8
SLD-0
  6
Continuous
370
    15
100
AcDbLine
 10
126.1637579861
 20
47.2444416518
 30
0.0
 11
126.1637579861
 21
47.1917408206
 31
0.0
  0
LINE
  5
401
330
1F
100
AcDbEntity
  8
SLD-0
  6
Continuous
370
    15
100
AcDbLine
 10
126.1637579861
 20
47.2444416518
 30
0.0
 11
126.6037575965
 21
47.2444416518
 31
0.0
  0
SPLINE
  5
402
330
1F
100
AcDbEntity
  8
SLD-0
  6
Continuous
370
    15
100
AcDbSpline
210
0.0
220
0.0
230
1.0
 70
     8
 71
     3
 72
    11
 73
     7
 74
     0
 42
0.00000001
 43
0.00000001
 12
1.0
 22
0.0
 32
0.0
 13
1.0
 23
0.0
 33
0.0
 40
0.0
 40
0.0
 40
0.0
 40
0.0
 40
0.2499970745476586
 40
0.4999983955033193
 40
0.749991969733799
 40
0.9999999999999999
 40
0.9999999999999999
 40
0.9999999999999999
 40
0.9999999999999999
 10
126.5438150356143
 20
47.19174082061153
 30
0.0
 10
126.5488102879609
 20
47.19864626150954
 30
0.0
 10
126.5588008775025
 20
47.21245726060021
 30
0.0
 10
126.5737859485129
 20
47.229877758642
 30
0.0
 10
126.5887725149325
 20
47.24206370879109
 30
0.0
 10
126.5987624730251
 20
47.24364898885719
 30
0.0
 10
126.6037575964861
 20
47.24444165180703
 30
0.0
  0
LINE
  5
403
330
1F
100
AcDbEntity
  8
SLD-0
  6
Continuous
370
    15
100
AcDbLine
 10
126.6037575965
 20
47.2444416518
 30
0.0
 11
126.6037575965
 21
47.2227422758
 31
0.0
  0
SPLINE
  5
404
330
1F
100
AcDbEntity
  8
SLD-0
  6
Continuous
370
    15
100
AcDbSpline
210
0.0
220
0.0
230
1.0
 70
     8
 71
     3
 72
    11
 73
     7
 74
     0
 42
0.00000001
 43
0.00000001
 12
1.0
 22
0.0
 32
0.0
 13
1.0
 23
0.0
 33
0.0
 40
0.0
 40
0.0
 40
0.0
 40
0.0
 40
0.2500095838276698
 40
0.4999997815105457
 40
0.7499979327011446
 40
1.0
 40
1.0
 40
1.0
 40
1.0
 10
126.5438150356143
 20
47.19174082061153
 30
0.0
 10
126.5488101353025
 20
47.1958037144741
 30
0.0
 10
126.558799947351
 20
47.20392918715593
 30
0.0
 10
126.5737866774236
 20
47.21417309129797
 30
0.0
 10
126.5887720425856
 20
47.22134355101079
 30
0.0
 10
126.5987623857704
 20
47.22227603177807
 30
0.0
 10
126.6037575964861
 20
47.22274227581341
 30
0.0
  0
LINE
  5
405
330
1F
100
AcDbEntity
  8
SLD-0
  6
Continuous
370
    15
100
AcDbLine
 10
124.475757966
 20
47.2444416518
 30
0.0
 11
124.8507580073
 21
47.2444416518
 31
0.0
  0
LINE
  5
406
330
1F
100
AcDbEntity
  8
SLD-0
  6
Continuous
370
    15
100
AcDbLine
 10
124.8507580073
 20
47.1917408206
 30
0.0
 11
124.8507580073
 21
47.2444416518
 31
0.0
  0
LINE
  5
407
330
1F
100
AcDbEntity
  8
SLD-0
  6
Continuous
370
    15
100
AcDbLine
 10
124.475757966
 20
47.2444416518
 30
0.0
 11
124.475757966
 21
47.1917408206
 31
0.0
  0
SPLINE
  5
408
330
1F
100
AcDbEntity
  8
SLD-0
  6
Continuous
370
    15
100
AcDbSpline
210
0.0
220
0.0
230
1.0
 70
     8
 71
     3
 72
    11
 73
     7
 74
     0
 42
0.00000001
 43
0.00000001
 12
1.0
 22
0.0
 32
0.0
 13
1.0
 23
0.0
 33
0.0
 40
0.0
 40
0.0
 40
0.0
 40
0.0
 40
0.2499956597548946
 40
0.5000051274274631
 40
0.7499934023951799
 40
1.0
 40
1.0
 40
1.0
 40
1.0
 10
141.8092497080103
 20
47.19174082061153
 30
0.0
 10
141.8101205115173
 20
47.19864633523322
 30
0.0
 10
141.8118621666279
 20
47.21245774588633
 30
0.0
 10
141.8124421052687
 20
47.22987720686389
 30
0.0
 10
141.8119378024891
 20
47.24206385782469
 30
0.0
 10
141.8111461998378
 20
47.24364903444965
 30
0.0
 10
141.8107503840077
 20
47.24444165180703
 30
0.0
  0
LINE
  5
409
330
1F
100
AcDbEntity
  8
SLD-0
  6
Continuous
370
    15
100
AcDbLine
 10
141.809249708
 20
47.1917408206
 30
0.0
 11
126.6528211364
 21
47.1917408206
 31
0.0
  0
SPLINE
  5
40A
330
1F
100
AcDbEntity
  8
SLD-0
  6
Continuous
370
    15
100
AcDbSpline
210
0.0
220
0.0
230
1.0
 70
     8
 71
     3
 72
    12
 73
     8
 74
     0
 42
0.00000001
 43
0.00000001
 12
1.0
 22
0.0
 32
0.0
 13
1.0
 23
0.0
 33
0.0
 40
0.0
 40
0.0
 40
0.0
 40
0.0
 40
0.2373975330684039
 40
0.4749143624456583
 40
0.7124356465792836
 40
0.9499587384365472
 40
1.0
 40
1.0
 40
1.0
 40
1.0
 10
126.6037575964861
 20
47.24444165180703
 30
0.0
 10
126.6081341685193
 20
47.24372834476458
 30
0.0
 10
126.616889511888
 20
47.24230137223074
 30
0.0
 10
126.6294656179742
 20
47.23125570463642
 30
0.0
 10
126.6409848878403
 20
47.21530884990087
 30
0.0
 10
126.6485025632977
 20
47.20101225243011
 30
0.0
 10
126.6521810201039
 20
47.19311506951056
 30
0.0
 10
126.6528211363665
 20
47.19174082061153
 30
0.0
  0
LINE
  5
40B
330
1F
100
AcDbEntity
  8
SLD-0
  6
Continuous
370
    15
100
AcDbLine
 10
126.6037575965
 20
47.2444416518
 30
0.0
 11
141.810750384
 21
47.2444416518
 31
0.0
  0
LINE
  5
40C
330
1F
100
AcDbEntity
  8
SLD-0
  6
Continuous
370
    15
100
AcDbLine
 10
126.6528211364
 20
47.1917408206
 30
0.0
 11
126.6483261483
 21
47.1917408206
 31
0.0
  0
SPLINE
  5
40D
330
1F
100
AcDbEntity
  8
SLD-0
  6
Continuous
370
    15
100
AcDbSpline
210
0.0
220
0.0
230
1.0
 70
     8
 71
     3
 72
    11
 73
     7
 74
     0
 42
0.00000001
 43
0.00000001
 12
1.0
 22
0.0
 32
0.0
 13
1.0
 23
0.0
 33
0.0
 40
0.0
 40
0.0
 40
0.0
 40
0.0
 40
0.2752315846863647
 40
0.5507903017616853
 40
0.8263777682352804
 40
0.9999999999999999
 40
0.9999999999999999
 40
0.9999999999999999
 40
0.9999999999999999
 10
126.6037575964861
 20
47.22274227581341
 30
0.0
 10
126.6081859052378
 20
47.22217475748798
 30
0.0
 10
126.6170477861024
 20
47.22103904630106
 30
0.0
 10
126.6298113535267
 20
47.21240541093716
 30
0.0
 10
126.6402600132585
 20
47.20183154545484
 30
0.0
 10
126.6460776117313
 20
47.19455373703894
 30
0.0
 10
126.648326148293
 20
47.19174082061153
 30
0.0
  0
LINE
  5
40E
330
1F
100
AcDbEntity
  8
SLD-0
  6
Continuous
370
    15
100
AcDbLine
 10
127.0308131431
 20
46.5977406426
 30
0.0
 11
126.6528211364
 21
47.1917408206
 31
0.0
  0
LINE
  5
40F
330
1F
100
AcDbEntity
  8
SLD-0
  6
Continuous
370
    15
100
AcDbLine
 10
141.809249708
 20
47.1917408206
 30
0.0
 11
141.6861815897
 21
46.5977406426
 31
0.0
  0
LINE
  5
410
330
1F
100
AcDbEntity
  8
SLD-0
  6
Continuous
370
    15
100
AcDbLine
 10
127.0308131431
 20
46.5977406426
 30
0.0
 11
141.6861815897
 21
46.5977406426
 31
0.0
  0
LINE
  5
411
330
1F
100
AcDbEntity
  8
SLD-0
  6
Continuous
370
    15
100
AcDbLine
 10
127.0308131431
 20
46.5977406426
 30
0.0
 11
127.0263169817
 21
46.5977406426
 31
0.0
  0
LINE
  5
412
330
1F
100
AcDbEntity
  8
SLD-0
  6
Continuous
370
    15
100
AcDbLine
 10
127.0263169817
 20
46.5977406426
 30
0.0
 11
126.6483261483
 21
47.1917408206
 31
0.0
  0
LINE
  5
413
330
1F
100
AcDbEntity
  8
SLD-0
  6
Continuous
370
    15
100
AcDbLine
 10
123.6967581117
 20
47.2227422758
 30
0.0
 11
123.6967581117
 21
47.2444416518
 31
0.0
  0
LINE
  5
414
330
1F
100
AcDbEntity
  8
SLD-0
  6
Continuous
370
    15
100
AcDbLine
 10
123.6967581117
 20
47.2227422758
 30
0.0
 11
124.475757966
 21
47.2227422758
 31
0.0
  0
LINE
  5
415
330
1F
100
AcDbEntity
  8
SLD-0
  6
Continuous
370
    15
100
AcDbLine
 10
123.6967581117
 20
47.2444416518
 30
0.0
 11
124.475757966
 21
47.2444416518
 31
0.0
  0
LINE
  5
416
330
1F
100
AcDbEntity
  8
SLD-0
  6
Continuous
370
    15
100
AcDbLine
 10
123.6657578298
 20
47.1917408206
 30
0.0
 11
123.6440584538
 21
47.1917408206
 31
0.0
  0
LINE
  5
417
330
1F
100
AcDbEntity
  8
SLD-0
  6
Continuous
370
    15
100
AcDbLine
 10
123.6657578298
 20
47.1917408206
 30
0.0
 11
123.6657578298
 21
46.7819612344
 31
0.0
  0
ARC
  5
418
330
1F
100
AcDbEntity
  8
SLD-0
  6
Continuous
370
    15
100
AcDbCircle
 10
123.6967581256
 20
47.1917411246
 30
0.0
 40
0.0310000000000059
100
AcDbArc
 50
90.0
 51
180.0
  0
ARC
  5
419
330
1F
100
AcDbEntity
  8
SLD-0
  6
Continuous
370
    15
100
AcDbCircle
 10
123.6967581256
 20
47.1917411246
 30
0.0
 40
0.0527000000000086
100
AcDbArc
 50
90.0
 51
180.0
  0
LINE
  5
41A
330
1F
100
AcDbEntity
  8
SLD-0
  6
Continuous
370
    15
100
AcDbLine
 10
126.1637579861
 20
47.2227422758
 30
0.0
 11
124.8507580073
 21
47.2227422758
 31
0.0
  0
LINE
  5
41B
330
1F
100
AcDbEntity
  8
SLD-0
  6
Continuous
370
    15
100
AcDbLine
 10
126.1637579861
 20
47.2444416518
 30
0.0
 11
124.8507580073
 21
47.2444416518
 31
0.0
  0
LINE
  5
41C
330
1F
100
AcDbEntity
  8
SLD-0
  6
Continuous
370
    15
100
AcDbLine
 10
142.7997581256
 20
47.2444416518
 30
0.0
 11
142.7997581256
 21
47.2227422758
 31
0.0
  0
LINE
  5
41D
330
1F
100
AcDbEntity
  8
SLD-0
  6
Continuous
370
    15
100
AcDbLine
 10
141.810750384
 20
47.2227422758
 30
0.0
 11
142.7997581256
 21
47.2227422758
 31
0.0
  0
LINE
  5
41E
330
1F
100
AcDbEntity
  8
SLD-0
  6
Continuous
370
    15
100
AcDbLine
 10
141.810750384
 20
47.2444416518
 30
0.0
 11
142.7997581256
 21
47.2444416518
 31
0.0
  0
LINE
  5
41F
330
1F
100
AcDbEntity
  8
SLD-0
  6
Continuous
370
    15
100
AcDbLine
 10
142.8524581272
 20
47.1917408206
 30
0.0
 11
142.8307581256
 21
47.1917408206
 31
0.0
  0
SPLINE
  5
420
330
1F
100
AcDbEntity
  8
SLD-0
  6
Continuous
370
    15
100
AcDbSpline
210
0.0
220
0.0
230
1.0
 70
     8
 71
     3
 72
    11
 73
     7
 74
     0
 42
0.00000001
 43
0.00000001
 12
1.0
 22
0.0
 32
0.0
 13
1.0
 23
0.0
 33
0.0
 40
0.0
 40
0.0
 40
0.0
 40
0.0
 40
0.2500009634887033
 40
0.5000070297838642
 40
0.7499757645293914
 40
1.0
 40
1.0
 40
1.0
 40
1.0
 10
142.799758125573
 20
47.22274227581341
 30
0.0
 10
142.80382031748
 20
47.22227596709483
 30
0.0
 10
142.8119447842081
 20
47.22134334013976
 30
0.0
 10
142.8221906341975
 20
47.21417385496572
 30
0.0
 10
142.8293608629873
 20
47.20392815139294
 30
0.0
 10
142.8302923369189
 20
47.19580356482319
 30
0.0
 10
142.8307581255829
 20
47.19174082061153
 30
0.0
  0
SPLINE
  5
421
330
1F
100
AcDbEntity
  8
SLD-0
  6
Continuous
370
    15
100
AcDbSpline
210
0.0
220
0.0
230
1.0
 70
     8
 71
     3
 72
    11
 73
     7
 74
     0
 42
0.00000001
 43
0.00000001
 12
1.0
 22
0.0
 32
0.0
 13
1.0
 23
0.0
 33
0.0
 40
0.0
 40
0.0
 40
0.0
 40
0.0
 40
0.2500027924457082
 40
0.499999621189319
 40
0.7500046180119737
 40
0.9999999999999999
 40
0.9999999999999999
 40
0.9999999999999999
 40
0.9999999999999999
 10
142.799758125573
 20
47.24444165180703
 30
0.0
 10
142.8066637317808
 20
47.24364895301757
 30
0.0
 10
142.8204747794661
 20
47.24206357434812
 30
0.0
 10
142.8378951392425
 20
47.22987771238652
 30
0.0
 10
142.8500814216422
 20
47.2124575085766
 30
0.0
 10
142.8516659021666
 20
47.19864629473825
 30
0.0
 10
142.8524581271943
 20
47.19174082061153
 30
0.0
  0
LINE
  5
422
330
1F
100
AcDbEntity
  8
SLD-0
  6
Continuous
370
    15
100
AcDbLine
 10
142.8524581272
 20
46.5977406426
 30
0.0
 11
142.8307581256
 21
46.5977406426
 31
0.0
  0
LINE
  5
423
330
1F
100
AcDbEntity
  8
SLD-0
  6
Continuous
370
    15
100
AcDbLine
 10
142.8307581256
 20
47.0406735524
 30
0.0
 11
142.8307581256
 21
47.1917408206
 31
0.0
  0
LINE
  5
424
330
1F
100
AcDbEntity
  8
SLD-0
  6
Continuous
370
    15
100
AcDbLine
 10
142.8524581272
 20
46.5977406426
 30
0.0
 11
142.8524581272
 21
47.1917408206
 31
0.0
  0
LINE
  5
425
330
1F
100
AcDbEntity
  8
SLD-0
  6
Continuous
370
    15
100
AcDbLine
 10
123.7107581633
 20
47.1917408206
 30
0.0
 11
123.7107581633
 21
46.7333036632
 31
0.0
  0
LINE
  5
426
330
1F
100
AcDbEntity
  8
SLD-0
  6
Continuous
370
    15
100
AcDbLine
 10
123.7107581633
 20
13.1715782078
 30
0.0
 11
123.7107581633
 21
12.6537411247
 31
0.0
  0
LINE
  5
427
330
1F
100
AcDbEntity
  8
SLD-0
  6
Continuous
370
    15
100
AcDbLine
 10
123.7107581633
 20
47.1917408206
 30
0.0
 11
124.475757966
 21
47.1917408206
 31
0.0
  0
LINE
  5
428
330
1F
100
AcDbEntity
  8
SLD-0
  6
Continuous
370
    15
100
AcDbLine
 10
124.8507580073
 20
47.1917408206
 30
0.0
 11
126.1637579861
 21
47.1917408206
 31
0.0
  0
LINE
  5
429
330
1F
100
AcDbEntity
  8
SLD-0
  6
Continuous
370
    15
100
AcDbLine
 10
126.5438150356
 20
47.1917408206
 30
0.0
 11
126.6452262374
 21
47.1917408206
 31
0.0
  0
LINE
  5
42A
330
1F
100
AcDbEntity
  8
SLD-0
  6
Continuous
370
    15
100
AcDbLine
 10
126.6452262374
 20
47.1917408206
 30
0.0
 11
126.6452262374
 21
12.6537411247
 31
0.0
  0
LINE
  5
42B
330
1F
100
AcDbEntity
  8
SLD-0
  6
Continuous
370
    15
100
AcDbLine
 10
123.7107581633
 20
12.6537411247
 30
0.0
 11
124.475757966
 21
12.6537411247
 31
0.0
  0
LINE
  5
42C
330
1F
100
AcDbEntity
  8
SLD-0
  6
Continuous
370
    15
100
AcDbLine
 10
124.8507580073
 20
12.6537411247
 30
0.0
 11
126.1637579861
 21
12.6537411247
 31
0.0
  0
LINE
  5
42D
330
1F
100
AcDbEntity
  8
SLD-0
  6
Continuous
370
    15
100
AcDbLine
 10
126.5438150356
 20
12.6537411247
 30
0.0
 11
126.6452262374
 21
12.6537411247
 31
0.0
  0
LINE
  5
42E
330
1F
100
AcDbEntity
  8
SLD-0
  6
Continuous
370
    15
100
AcDbLine
 10
142.7890003725
 20
47.1917408206
 30
0.0
 11
142.7890003725
 21
12.6537411247
 31
0.0
  0
LINE
  5
42F
330
1F
100
AcDbEntity
  8
SLD-0
  6
Continuous
370
    15
100
AcDbLine
 10
141.809249708
 20
12.6537411247
 30
0.0
 11
142.7890003725
 21
12.6537411247
 31
0.0
  0
LWPOLYLINE
  5
430
330
1F
100
AcDbEntity
  8
SLD-0
  6
Continuous
370
    15
100
AcDbPolyline
 90
      110
 70
   128
 43
0.0
 10
133.8628629653
 20
15.278741109
 10
133.8642844423
 20
15.32915162
 10
133.8685447664
 20
15.3793946395
 10
133.8756292712
 20
15.429303263
 10
133.885515077
 20
15.4787117589
 10
133.8981687442
 20
15.5274561558
 10
133.9135486198
 20
15.5753739489
 10
133.9316030779
 20
15.6223067401
 10
133.9522728658
 20
15.6680981844
 10
133.9754887576
 20
15.7125960437
 10
134.0011739009
 20
15.755652773
 10
134.0292426433
 20
15.7971252272
 10
134.0596022926
 20
15.8368755414
 10
134.0921519432
 20
15.8747720102
 10
134.1267824765
 20
15.910688502
 10
134.1633800804
 20
15.9445056313
 10
134.2018227297
 20
15.9761110529
 10
134.2419831191
 20
16.0054000479
 10
134.2837269035
 20
16.0322752308
 10
134.3269156312
 20
16.0566471359
 10
134.3714067439
 20
16.0784348042
 10
134.4170518166
 20
16.0975663698
 10
134.4636989044
 20
16.1139775936
 10
134.5111937158
 20
16.1276142094
 10
134.5593778525
 20
16.1384310444
 10
134.6080917431
 20
16.1463920191
 10
134.6571734694
 20
16.1514707338
 10
134.7064593534
 20
16.1536501753
 10
134.7557868902
 20
16.152923597
 10
134.8049912285
 20
16.149292759
 10
134.8539092767
 20
16.1427702743
 10
134.9023785301
 20
16.1333775561
 10
134.9502376572
 20
16.1211456974
 10
134.9973282599
 20
16.1061154711
 10
135.0434936999
 20
16.0883367431
 10
135.0885802724
 20
16.0678687662
 10
135.1324383791
 20
16.0447792996
 10
135.1749225283
 20
16.0191451958
 10
135.215891335
 20
15.9910515203
 10
135.2552086942
 20
15.9605915522
 10
135.2927443672
 20
15.9278667836
 10
135.3283739823
 20
15.8929854532
 10
135.3619778608
 20
15.8560637197
 10
135.3934457106
 20
15.817224195
 10
135.422671933
 20
15.776595651
 10
135.4495603157
 20
15.7343136062
 10
135.4740205131
 20
15.6905179788
 10
135.4959727395
 20
15.6453545538
 10
135.5153430758
 20
15.5989735163
 10
135.5320669892
 20
15.5515282777
 10
135.5460893339
 20
15.5031772363
 10
135.5573637637
 20
15.4540802568
 10
135.5658521456
 20
15.4044010173
 10
135.5715274934
 20
15.3543043694
 10
135.5743692739
 20
15.3039569243
 10
135.5743692739
 20
15.2535252936
 10
135.5715274934
 20
15.2031778486
 10
135.5658521456
 20
15.1530812006
 10
135.5573637637
 20
15.1034019612
 10
135.5460893339
 20
15.0543051283
 10
135.5320669892
 20
15.0059539402
 10
135.5153430758
 20
14.9585088483
 10
135.4959727395
 20
14.9121276641
 10
135.4740205131
 20
14.8669642392
 10
135.4495603157
 20
14.8231686118
 10
135.422671933
 20
14.7808865669
 10
135.3934457106
 20
14.7402581696
 10
135.3619778608
 20
14.7014186449
 10
135.3283739823
 20
14.6644969114
 10
135.2927443672
 20
14.6296155811
 10
135.2552086942
 20
14.5968906658
 10
135.215891335
 20
14.5664306976
 10
135.1749225283
 20
14.5383370222
 10
135.1324383791
 20
14.5127029183
 10
135.0885802724
 20
14.4896134517
 10
135.0434936999
 20
14.4691454748
 10
134.9973282599
 20
14.4513667469
 10
134.9502376572
 20
14.4363365205
 10
134.9023785301
 20
14.4241048085
 10
134.8539092767
 20
14.4147119436
 10
134.8049912285
 20
14.408189459
 10
134.7557868902
 20
14.4045587676
 10
134.7064593534
 20
14.4038320427
 10
134.6571734694
 20
14.4060116308
 10
134.6080917431
 20
14.4110903455
 10
134.5593778525
 20
14.4190513202
 10
134.5111937158
 20
14.4298681552
 10
134.4636989044
 20
14.443504771
 10
134.4170518166
 20
14.4599159948
 10
134.3714067439
 20
14.4790472671
 10
134.3269156312
 20
14.5008350821
 10
134.2837269035
 20
14.5252069872
 10
134.2419831191
 20
14.5520820234
 10
134.2018227297
 20
14.5813710184
 10
134.1633800804
 20
14.6129765866
 10
134.1267824765
 20
14.646793716
 10
134.0921519432
 20
14.6827102077
 10
134.0596022926
 20
14.7206065299
 10
134.0292426433
 20
14.7603569907
 10
134.0011739009
 20
14.801829445
 10
133.9754887576
 20
14.8448861742
 10
133.9522728658
 20
14.8893841802
 10
133.9316030779
 20
14.9351754779
 10
133.9135486198
 20
14.9821081224
 10
133.8981687442
 20
15.0300262088
 10
133.885515077
 20
15.0787704591
 10
133.8756292712
 20
15.1281789549
 10
133.8685447664
 20
15.1780875784
 10
133.8642844423
 20
15.228330598
 10
133.8628629653
 20
15.278741109
  0
LINE
  5
431
330
1F
100
AcDbEntity
  8
SLD-0
  6
Continuous
370
    15
100
AcDbLine
 10
141.809249708
 20
47.1917408206
 30
0.0
 11
142.7890003725
 21
47.1917408206
 31
0.0
  0
ARC
  5
432
330
1F
100
AcDbEntity
  8
SLD-0
  6
Continuous
370
    15
100
AcDbCircle
 10
134.6989257956
 20
15.2787411823
 30
0.0
 40
0.875174288364931
100
AcDbArc
 50
271.1533142335
 51
88.8466857665
  0
LINE
  5
433
330
1F
100
AcDbEntity
  8
SLD-0
  6
Continuous
370
    15
100
AcDbLine
 10
142.8307581256
 20
47.0406735524
 30
0.0
 11
142.8307581256
 21
12.8048089864
 31
0.0
  0
LINE
  5
434
330
1F
100
AcDbEntity
  8
SLD-0
  6
Continuous
370
    15
100
AcDbLine
 10
142.7890003725
 20
12.6537411247
 30
0.0
 11
142.8307581256
 21
12.6537411247
 31
0.0
  0
LINE
  5
435
330
1F
100
AcDbEntity
  8
SLD-0
  6
Continuous
370
    15
100
AcDbLine
 10
142.7890003725
 20
47.1917408206
 30
0.0
 11
142.8307581256
 21
47.1917408206
 31
0.0
  0
LINE
  5
436
330
1F
100
AcDbEntity
  8
SLD-0
  6
Continuous
370
    15
100
AcDbLine
 10
124.8507580073
 20
12.6707695444
 30
0.0
 11
124.8507580073
 21
12.6537411247
 31
0.0
  0
LINE
  5
437
330
1F
100
AcDbEntity
  8
SLD-0
  6
Continuous
370
    15
100
AcDbLine
 10
124.8507580073
 20
12.6537411247
 30
0.0
 11
124.475757966
 21
12.6537411247
 31
0.0
  0
LINE
  5
438
330
1F
100
AcDbEntity
  8
SLD-0
  6
Continuous
370
    15
100
AcDbLine
 10
124.475757966
 20
13.2477411446
 30
0.0
 11
124.475757966
 21
12.6537411247
 31
0.0
  0
LINE
  5
439
330
1F
100
AcDbEntity
  8
SLD-0
  6
Continuous
370
    15
100
AcDbLine
 10
125.9498148576
 20
13.2477411446
 30
0.0
 11
124.475757966
 21
13.2477411446
 31
0.0
  0
LINE
  5
43A
330
1F
100
AcDbEntity
  8
SLD-0
  6
Continuous
370
    15
100
AcDbLine
 10
125.9498148576
 20
13.2477411446
 30
0.0
 11
126.5438150356
 21
12.6537411247
 31
0.0
  0
LINE
  5
43B
330
1F
100
AcDbEntity
  8
SLD-0
  6
Continuous
370
    15
100
AcDbLine
 10
126.5438150356
 20
12.6537411247
 30
0.0
 11
126.1637579861
 21
12.6537411247
 31
0.0
  0
LINE
  5
43C
330
1F
100
AcDbEntity
  8
SLD-0
  6
Continuous
370
    15
100
AcDbLine
 10
126.1637579861
 20
12.6537411247
 30
0.0
 11
126.1637579861
 21
12.6707695444
 31
0.0
  0
LINE
  5
43D
330
1F
100
AcDbEntity
  8
SLD-0
  6
Continuous
370
    15
100
AcDbLine
 10
126.1637579861
 20
12.6707695444
 30
0.0
 11
124.8507580073
 21
12.6707695444
 31
0.0
  0
LINE
  5
43E
330
1F
100
AcDbEntity
  8
SLD-0
  6
Continuous
370
    15
100
AcDbLine
 10
126.6037575965
 20
12.6010411253
 30
0.0
 11
126.1637579861
 21
12.6010411253
 31
0.0
  0
LINE
  5
43F
330
1F
100
AcDbEntity
  8
SLD-0
  6
Continuous
370
    15
100
AcDbLine
 10
126.1637579861
 20
12.6537411247
 30
0.0
 11
126.1637579861
 21
12.6010411253
 31
0.0
  0
SPLINE
  5
440
330
1F
100
AcDbEntity
  8
SLD-0
  6
Continuous
370
    15
100
AcDbSpline
210
0.0
220
0.0
230
1.0
 70
     8
 71
     3
 72
    11
 73
     7
 74
     0
 42
0.00000001
 43
0.00000001
 12
1.0
 22
0.0
 32
0.0
 13
1.0
 23
0.0
 33
0.0
 40
0.0
 40
0.0
 40
0.0
 40
0.0
 40
0.2500061597494019
 40
0.5000018591130414
 40
0.7499998408367542
 40
1.0
 40
1.0
 40
1.0
 40
1.0
 10
126.6037575964861
 20
12.60104112532615
 30
0.0
 10
126.5987624415469
 20
12.60183323791404
 30
0.0
 10
126.5887723406684
 20
12.60341742994743
 30
0.0
 10
126.5737861958941
 20
12.61560452246031
 30
0.0
 10
126.5588006183328
 20
12.63302426011478
 30
0.0
 10
126.5488102443562
 20
12.64683548309362
 30
0.0
 10
126.5438150356143
 20
12.65374112465626
 30
0.0
  0
SPLINE
  5
441
330
1F
100
AcDbEntity
  8
SLD-0
  6
Continuous
370
    15
100
AcDbSpline
210
0.0
220
0.0
230
1.0
 70
     8
 71
     3
 72
    11
 73
     7
 74
     0
 42
0.00000001
 43
0.00000001
 12
1.0
 22
0.0
 32
0.0
 13
1.0
 23
0.0
 33
0.0
 40
0.0
 40
0.0
 40
0.0
 40
0.0
 40
0.2500016615236506
 40
0.499997257209862
 40
0.7500006358052043
 40
1.0
 40
1.0
 40
1.0
 40
1.0
 10
126.6037575964861
 20
12.62274112464585
 30
0.0
 10
126.5987624280857
 20
12.6232070779436
 30
0.0
 10
126.5887722124836
 20
12.62413897323359
 30
0.0
 10
126.5737859840872
 20
12.63130796956325
 30
0.0
 10
126.5588008603149
 20
12.64155455520171
 30
0.0
 10
126.5488102837772
 20
12.64967895658102
 30
0.0
 10
126.5438150356143
 20
12.65374112465626
 30
0.0
  0
LINE
  5
442
330
1F
100
AcDbEntity
  8
SLD-0
  6
Continuous
370
    15
100
AcDbLine
 10
126.6037575965
 20
12.6010411253
 30
0.0
 11
126.6037575965
 21
12.6227411246
 31
0.0
  0
LINE
  5
443
330
1F
100
AcDbEntity
  8
SLD-0
  6
Continuous
370
    15
100
AcDbLine
 10
124.8507580073
 20
12.6010411253
 30
0.0
 11
124.8507580073
 21
12.6537411247
 31
0.0
  0
LINE
  5
444
330
1F
100
AcDbEntity
  8
SLD-0
  6
Continuous
370
    15
100
AcDbLine
 10
124.8507580073
 20
12.6010411253
 30
0.0
 11
124.475757966
 21
12.6010411253
 31
0.0
  0
LINE
  5
445
330
1F
100
AcDbEntity
  8
SLD-0
  6
Continuous
370
    15
100
AcDbLine
 10
124.475757966
 20
12.6537411247
 30
0.0
 11
124.475757966
 21
12.6010411253
 31
0.0
  0
SPLINE
  5
446
330
1F
100
AcDbEntity
  8
SLD-0
  6
Continuous
370
    15
100
AcDbSpline
210
0.0
220
0.0
230
1.0
 70
     8
 71
     3
 72
    11
 73
     7
 74
     0
 42
0.00000001
 43
0.00000001
 12
1.0
 22
0.0
 32
0.0
 13
1.0
 23
0.0
 33
0.0
 40
0.0
 40
0.0
 40
0.0
 40
0.0
 40
0.2500038001568908
 40
0.4999952532948197
 40
0.7499997272077459
 40
1.0
 40
1.0
 40
1.0
 40
1.0
 10
141.8107503840077
 20
12.60104112532615
 30
0.0
 10
141.811146199604
 20
12.60183320769563
 30
0.0
 10
141.8119378112481
 20
12.60341733331577
 30
0.0
 10
141.8124421119121
 20
12.6156049552411
 30
0.0
 10
141.811862130766
 20
12.63302393047246
 30
0.0
 10
141.8101205107178
 20
12.64683543194382
 30
0.0
 10
141.8092497080103
 20
12.65374112465626
 30
0.0
  0
LINE
  5
447
330
1F
100
AcDbEntity
  8
SLD-0
  6
Continuous
370
    15
100
AcDbLine
 10
141.810750384
 20
12.6010411253
 30
0.0
 11
126.6037575965
 21
12.6010411253
 31
0.0
  0
SPLINE
  5
448
330
1F
100
AcDbEntity
  8
SLD-0
  6
Continuous
370
    15
100
AcDbSpline
210
0.0
220
0.0
230
1.0
 70
     8
 71
     3
 72
    12
 73
     8
 74
     0
 42
0.00000001
 43
0.00000001
 12
1.0
 22
0.0
 32
0.0
 13
1.0
 23
0.0
 33
0.0
 40
0.0
 40
0.0
 40
0.0
 40
0.0
 40
0.2373905039931261
 40
0.4749126113025197
 40
0.7124349117514504
 40
0.9499495337352257
 40
1.0
 40
1.0
 40
1.0
 40
1.0
 10
126.6528211363665
 20
12.65374112465626
 30
0.0
 10
126.6496543817805
 20
12.64719053614313
 30
0.0
 10
126.6433191170393
 20
12.63408572763557
 30
0.0
 10
126.6319690478733
 20
12.61711864528071
 30
0.0
 10
126.6196093806869
 20
12.60523887363953
 30
0.0
 10
126.609951164781
 20
12.60126900219992
 30
0.0
 10
126.6046757739126
 20
12.60107490737094
 30
0.0
 10
126.6037575964861
 20
12.60104112532615
 30
0.0
  0
LINE
  5
449
330
1F
100
AcDbEntity
  8
SLD-0
  6
Continuous
370
    15
100
AcDbLine
 10
126.6528211364
 20
12.6537411247
 30
0.0
 11
141.809249708
 21
12.6537411247
 31
0.0
  0
LINE
  5
44A
330
1F
100
AcDbEntity
  8
SLD-0
  6
Continuous
370
    15
100
AcDbLine
 10
126.6528211364
 20
12.6537411247
 30
0.0
 11
126.6483261483
 21
12.6537411247
 31
0.0
  0
SPLINE
  5
44B
330
1F
100
AcDbEntity
  8
SLD-0
  6
Continuous
370
    15
100
AcDbSpline
210
0.0
220
0.0
230
1.0
 70
     8
 71
     3
 72
    11
 73
     7
 74
     0
 42
0.00000001
 43
0.00000001
 12
1.0
 22
0.0
 32
0.0
 13
1.0
 23
0.0
 33
0.0
 40
0.0
 40
0.0
 40
0.0
 40
0.0
 40
0.27523577207769
 40
0.5507976878946422
 40
0.826362283739121
 40
1.0
 40
1.0
 40
1.0
 40
1.0
 10
126.648326148293
 20
12.65374112465626
 30
0.0
 10
126.6447068935411
 20
12.64926796510131
 30
0.0
 10
126.6374640953606
 20
12.64031634547045
 30
0.0
 10
126.6251658110206
 20
12.62943864808935
 30
0.0
 10
126.6137445644434
 20
12.62355901989564
 30
0.0
 10
126.6065418014657
 20
12.62296914059987
 30
0.0
 10
126.6037575964861
 20
12.62274112464575
 30
0.0
  0
LINE
  5
44C
330
1F
100
AcDbEntity
  8
SLD-0
  6
Continuous
370
    15
100
AcDbLine
 10
126.6528211364
 20
12.6537411247
 30
0.0
 11
127.0308131431
 21
13.2477411446
 31
0.0
  0
LINE
  5
44D
330
1F
100
AcDbEntity
  8
SLD-0
  6
Continuous
370
    15
100
AcDbLine
 10
127.0308131431
 20
13.2477411446
 30
0.0
 11
141.6861815897
 21
13.2477411446
 31
0.0
  0
LINE
  5
44E
330
1F
100
AcDbEntity
  8
SLD-0
  6
Continuous
370
    15
100
AcDbLine
 10
141.6861815897
 20
13.2477411446
 30
0.0
 11
141.809249708
 21
12.6537411247
 31
0.0
  0
LINE
  5
44F
330
1F
100
AcDbEntity
  8
SLD-0
  6
Continuous
370
    15
100
AcDbLine
 10
126.6483261483
 20
12.6537411247
 30
0.0
 11
127.0263169817
 21
13.2477411446
 31
0.0
  0
LINE
  5
450
330
1F
100
AcDbEntity
  8
SLD-0
  6
Continuous
370
    15
100
AcDbLine
 10
127.0308131431
 20
13.2477411446
 30
0.0
 11
127.0263169817
 21
13.2477411446
 31
0.0
  0
LINE
  5
451
330
1F
100
AcDbEntity
  8
SLD-0
  6
Continuous
370
    15
100
AcDbLine
 10
123.6967581117
 20
12.6227411246
 30
0.0
 11
123.6967581117
 21
12.6010411253
 31
0.0
  0
LINE
  5
452
330
1F
100
AcDbEntity
  8
SLD-0
  6
Continuous
370
    15
100
AcDbLine
 10
124.475757966
 20
12.6227411246
 30
0.0
 11
123.6967581117
 21
12.6227411246
 31
0.0
  0
LINE
  5
453
330
1F
100
AcDbEntity
  8
SLD-0
  6
Continuous
370
    15
100
AcDbLine
 10
124.475757966
 20
12.6010411253
 30
0.0
 11
124.3604581779
 21
12.6010411253
 31
0.0
  0
ARC
  5
454
330
1F
100
AcDbEntity
  8
SLD-0
  6
Continuous
370
    15
100
AcDbCircle
 10
123.6967581256
 20
12.6537411246
 30
0.0
 40
0.0527000000000015
100
AcDbArc
 50
180.0
 51
270.0
  0
LINE
  5
455
330
1F
100
AcDbEntity
  8
SLD-0
  6
Continuous
370
    15
100
AcDbLine
 10
123.6657578298
 20
12.6537411247
 30
0.0
 11
123.6440584538
 21
12.6537411247
 31
0.0
  0
ARC
  5
456
330
1F
100
AcDbEntity
  8
SLD-0
  6
Continuous
370
    15
100
AcDbCircle
 10
123.6967581256
 20
12.6537411246
 30
0.0
 40
0.0310000000000059
100
AcDbArc
 50
180.0
 51
270.0
  0
LINE
  5
457
330
1F
100
AcDbEntity
  8
SLD-0
  6
Continuous
370
    15
100
AcDbLine
 10
123.6657578298
 20
13.1227411186
 30
0.0
 11
123.6657578298
 21
12.6537411247
 31
0.0
  0
LINE
  5
458
330
1F
100
AcDbEntity
  8
SLD-0
  6
Continuous
370
    15
100
AcDbLine
 10
124.8507580073
 20
12.6227411246
 30
0.0
 11
126.1637579861
 21
12.6227411246
 31
0.0
  0
LINE
  5
459
330
1F
100
AcDbEntity
  8
SLD-0
  6
Continuous
370
    15
100
AcDbLine
 10
124.8507580073
 20
12.6010411253
 30
0.0
 11
126.1637579861
 21
12.6010411253
 31
0.0
  0
LINE
  5
45A
330
1F
100
AcDbEntity
  8
SLD-0
  6
Continuous
370
    15
100
AcDbLine
 10
142.7997581256
 20
12.6010411253
 30
0.0
 11
142.7997581256
 21
12.6227411246
 31
0.0
  0
LINE
  5
45B
330
1F
100
AcDbEntity
  8
SLD-0
  6
Continuous
370
    15
100
AcDbLine
 10
142.7997581256
 20
12.6227411246
 30
0.0
 11
141.810750384
 21
12.6227411246
 31
0.0
  0
LINE
  5
45C
330
1F
100
AcDbEntity
  8
SLD-0
  6
Continuous
370
    15
100
AcDbLine
 10
142.7997581256
 20
12.6010411253
 30
0.0
 11
141.810750384
 21
12.6010411253
 31
0.0
  0
LINE
  5
45D
330
1F
100
AcDbEntity
  8
SLD-0
  6
Continuous
370
    15
100
AcDbLine
 10
142.8307581256
 20
12.6537411247
 30
0.0
 11
142.8524581272
 21
12.6537411247
 31
0.0
  0
SPLINE
  5
45E
330
1F
100
AcDbEntity
  8
SLD-0
  6
Continuous
370
    15
100
AcDbSpline
210
0.0
220
0.0
230
1.0
 70
     8
 71
     3
 72
    11
 73
     7
 74
     0
 42
0.00000001
 43
0.00000001
 12
1.0
 22
0.0
 32
0.0
 13
1.0
 23
0.0
 33
0.0
 40
0.0
 40
0.0
 40
0.0
 40
0.0
 40
0.249999998330009
 40
0.499999994313601
 40
0.7499999995086452
 40
1.0
 40
1.0
 40
1.0
 40
1.0
 10
142.8307581255829
 20
12.65374112465626
 30
0.0
 10
142.8302921470432
 20
12.64967897625672
 30
0.0
 10
142.8293601899682
 20
12.64155467949576
 30
0.0
 10
142.8221914641068
 20
12.63130778643533
 30
0.0
 10
142.8119445707763
 20
12.62413906106814
 30
0.0
 10
142.8038202739483
 20
12.6232071034504
 30
0.0
 10
142.7997581255726
 20
12.62274112464591
 30
0.0
  0
SPLINE
  5
45F
330
1F
100
AcDbEntity
  8
SLD-0
  6
Continuous
370
    15
100
AcDbSpline
210
0.0
220
0.0
230
1.0
 70
     8
 71
     3
 72
    11
 73
     7
 74
     0
 42
0.00000001
 43
0.00000001
 12
1.0
 22
0.0
 32
0.0
 13
1.0
 23
0.0
 33
0.0
 40
0.0
 40
0.0
 40
0.0
 40
0.0
 40
0.2499999950446476
 40
0.4999999981229393
 40
0.7500000049553286
 40
1.0
 40
1.0
 40
1.0
 40
1.0
 10
142.8524581271943
 20
12.65374112465626
 30
0.0
 10
142.8516659635181
 20
12.64683547244042
 30
0.0
 10
142.8500816361401
 20
12.63302416778684
 30
0.0
 10
142.8378948013545
 20
12.6156044497213
 30
0.0
 10
142.8204750823537
 20
12.60341761677477
 30
0.0
 10
142.8066637777244
 20
12.60183328912991
 30
0.0
 10
142.7997581255726
 20
12.60104112532615
 30
0.0
  0
LINE
  5
460
330
1F
100
AcDbEntity
  8
SLD-0
  6
Continuous
370
    15
100
AcDbLine
 10
142.8524581272
 20
12.6537411247
 30
0.0
 11
142.8524581272
 21
13.2477411446
 31
0.0
  0
LINE
  5
461
330
1F
100
AcDbEntity
  8
SLD-0
  6
Continuous
370
    15
100
AcDbLine
 10
142.8307581256
 20
12.6537411247
 30
0.0
 11
142.8307581256
 21
12.8048089864
 31
0.0
  0
LINE
  5
462
330
1F
100
AcDbEntity
  8
SLD-0
  6
Continuous
370
    15
100
AcDbLine
 10
142.8307581256
 20
13.2477411446
 30
0.0
 11
142.8524581272
 21
13.2477411446
 31
0.0
  0
LINE
  5
463
330
1F
100
AcDbEntity
  8
SLD-0
  6
Continuous
370
    15
100
AcDbLine
 10
126.6154579413
 20
11.6160411141
 30
0.0
 11
126.6698612595
 21
11.6160411141
 31
0.0
  0
LINE
  5
464
330
1F
100
AcDbEntity
  8
SLD-0
  6
Continuous
370
    15
100
AcDbLine
 10
126.6154579413
 20
12.518441127
 30
0.0
 11
126.6698612595
 21
12.518441127
 31
0.0
  0
LINE
  5
465
330
1F
100
AcDbEntity
  8
SLD-0
  6
Continuous
370
    15
100
AcDbLine
 10
126.144057947
 20
12.6328236242
 30
0.0
 11
126.1637579861
 21
12.6328236242
 31
0.0
  0
LINE
  5
466
330
1F
100
AcDbEntity
  8
SLD-0
  6
Continuous
370
    15
100
AcDbLine
 10
126.57229268
 20
12.6328236242
 30
0.0
 11
126.6281333149
 21
12.6328236242
 31
0.0
  0
LINE
  5
467
330
1F
100
AcDbEntity
  8
SLD-0
  6
Continuous
370
    15
100
AcDbLine
 10
124.2120156261
 20
47.1917408206
 30
0.0
 11
124.2120156261
 21
47.1926419302
 31
0.0
  0
LINE
  5
468
330
1F
100
AcDbEntity
  8
SLD-0
  6
Continuous
370
    15
100
AcDbLine
 10
124.221371678
 20
47.1917408206
 30
0.0
 11
124.221371678
 21
47.1926419302
 31
0.0
  0
LINE
  5
469
330
1F
100
AcDbEntity
  8
SLD-0
  6
Continuous
370
    15
100
AcDbLine
 10
142.7640581251
 20
47.1926419302
 30
0.0
 11
142.7640581251
 21
47.1917408206
 31
0.0
  0
LINE
  5
46A
330
1F
100
AcDbEntity
  8
SLD-0
  6
Continuous
370
    15
100
AcDbLine
 10
126.6561686177
 20
47.1794162697
 30
0.0
 11
126.6561686177
 21
12.6660665671
 31
0.0
  0
LINE
  5
46B
330
1F
100
AcDbEntity
  8
DIM
  6
CENTERX2
100
AcDbLine
 10
134.7187938895
 20
14.2325716638
 30
0.0
 11
134.7187938895
 21
16.3601209261
 31
0.0
  0
LINE
  5
46C
330
1F
100
AcDbEntity
  8
DIM
  6
CENTERX2
100
AcDbLine
 10
134.7187938895
 20
15.2787411246
 30
0.0
 11
135.915917533
 21
15.2787411246
 31
0.0
  0
LINE
  5
46D
330
1F
100
AcDbEntity
  8
DIM
  6
CENTERX2
100
AcDbLine
 10
134.7187938895
 20
15.2787411246
 30
0.0
 11
133.5628170637
 21
15.2787411246
 31
0.0
  0
DIMENSION
  5
46E
330
1F
100
AcDbEntity
  8
DIM
100
AcDbDimension
  2
_D_11
 10
142.8784581256
 20
7.5313417152
 30
0.0
 11
138.7986260075
 21
7.5313417152
 31
0.0
 70
   160
  1
<>
 71
     2
 42
-1.0
  3
SLDDIMSTYLE1
100
AcDbAlignedDimension
 13
134.7187938895
 23
14.2325716638
 33
0.0
 14
142.8784581256
 24
11.5984411246
 34
0.0
100
AcDbRotatedDimension
  0
DIMENSION
  5
47D
330
1F
100
AcDbEntity
  8
DIM
100
AcDbDimension
  2
_D_12
 10
116.9876291411
 20
15.2787411246
 30
0.0
 11
116.9876291411
 21
7.5313417152
 31
0.0
 70
   160
  1
<>
 71
     2
 42
-1.0
  3
SLDDIMSTYLE1
100
AcDbAlignedDimension
 13
123.6774581256
 23
11.5314411246
 33
0.0
 14
133.5628170637
 24
15.2787411246
 34
0.0
 50
90.0
100
AcDbRotatedDimension
  0
DIMENSION
  5
48D
330
1F
100
AcDbEntity
  8
DIM
100
AcDbDimension
  2
_D_13
 10
147.4537012842
 20
47.2444411246
 30
0.0
 11
147.4537012842
 21
48.7520563632
 31
0.0
 70
   160
  1
<>
 71
     2
 42
-1.0
  3
SLDDIMSTYLE1
100
AcDbAlignedDimension
 13
141.2151581256
 23
50.2596716018
 33
0.0
 14
142.7997581256
 24
47.2444411246
 34
0.0
 50
90.0
100
AcDbRotatedDimension
  0
LINE
  5
498
330
1F
100
AcDbEntity
  8
SLD-0
  6
Continuous
370
    15
100
AcDbLine
 10
23.258942236
 20
50.2596716729
 30
0.0
 11
6.3839427241
 21
50.2596716729
 31
0.0
  0
LINE
  5
499
330
1F
100
AcDbEntity
  8
SLD-0
  6
Continuous
370
    15
100
AcDbLine
 10
20.9836428671
 20
11.6010411007
 30
0.0
 11
20.9292395489
 21
11.6010411007
 31
0.0
  0
LINE
  5
49A
330
1F
100
AcDbEntity
  8
SLD-0
  6
Continuous
370
    15
100
AcDbLine
 10
20.9836428671
 20
12.5670411231
 30
0.0
 11
20.9292395489
 21
12.5670411231
 31
0.0
  0
LINE
  5
49B
330
1F
100
AcDbEntity
  8
SLD-0
  6
Continuous
370
    15
100
AcDbLine
 10
20.9979069157
 20
11.5314410914
 30
0.0
 11
23.9216426338
 21
11.5314410914
 31
0.0
  0
SPLINE
  5
49C
330
1F
100
AcDbEntity
  8
SLD-0
  6
Continuous
370
    15
100
AcDbSpline
210
0.0
220
0.0
230
1.0
 70
     8
 71
     3
 72
    11
 73
     7
 74
     0
 42
0.00000001
 43
0.00000001
 12
1.0
 22
0.0
 32
0.0
 13
1.0
 23
0.0
 33
0.0
 40
0.0
 40
0.0
 40
0.0
 40
0.0
 40
0.2500066675700262
 40
0.5000010740698463
 40
0.7500002228811639
 40
0.9999999999999999
 40
0.9999999999999999
 40
0.9999999999999999
 40
0.9999999999999999
 10
20.99790691566952
 20
11.53144109143701
 30
0.0
 10
20.99671832498364
 20
11.53244815654785
 30
0.0
 10
20.9943412019039
 20
11.53446223738006
 30
0.0
 10
20.99077584336273
 20
11.549956312717
 30
0.0
 10
20.98720819039833
 20
11.57210273846815
 30
0.0
 10
20.98483130920551
 20
11.58966163709926
 30
0.0
 10
20.98364286711569
 20
11.59844109744723
 30
0.0
  0
LINE
  5
49D
330
1F
100
AcDbEntity
  8
SLD-0
  6
Continuous
370
    15
100
AcDbLine
 10
23.9216426338
 20
11.5984410974
 30
0.0
 11
20.9836428671
 21
11.5984410974
 31
0.0
  0
LINE
  5
49E
330
1F
100
AcDbEntity
  8
SLD-0
  6
Continuous
370
    15
100
AcDbLine
 10
23.9216426338
 20
11.5984410974
 30
0.0
 11
23.9216426338
 21
11.5314410914
 31
0.0
  0
LINE
  5
49F
330
1F
100
AcDbEntity
  8
SLD-0
  6
Continuous
370
    15
100
AcDbLine
 10
20.9836428671
 20
12.5674411243
 30
0.0
 11
20.9836428671
 21
11.5984410974
 31
0.0
  0
LINE
  5
4A0
330
1F
100
AcDbEntity
  8
SLD-0
  6
Continuous
370
    15
100
AcDbLine
 10
23.9216426338
 20
12.5674411243
 30
0.0
 11
20.9836428671
 21
12.5674411243
 31
0.0
  0
LINE
  5
4A1
330
1F
100
AcDbEntity
  8
SLD-0
  6
Continuous
370
    15
100
AcDbLine
 10
23.9216426338
 20
11.5984410974
 30
0.0
 11
23.9216426338
 21
12.5674411243
 31
0.0
  0
LINE
  5
4A2
330
1F
100
AcDbEntity
  8
SLD-0
  6
Continuous
370
    15
100
AcDbLine
 10
20.9217807551
 20
11.5984410974
 30
0.0
 11
20.9217807551
 21
12.5674411243
 31
0.0
  0
LINE
  5
4A3
330
1F
100
AcDbEntity
  8
SLD-0
  6
Continuous
370
    15
100
AcDbLine
 10
20.9217807551
 20
11.5984410974
 30
0.0
 11
4.7865307207
 21
11.5984410974
 31
0.0
  0
LINE
  5
4A4
330
1F
100
AcDbEntity
  8
SLD-0
  6
Continuous
370
    15
100
AcDbLine
 10
4.7865307207
 20
12.5674411243
 30
0.0
 11
4.7865307207
 21
11.5984410974
 31
0.0
  0
LINE
  5
4A5
330
1F
100
AcDbEntity
  8
SLD-0
  6
Continuous
370
    15
100
AcDbLine
 10
20.9217807551
 20
12.5674411243
 30
0.0
 11
4.7865307207
 21
12.5674411243
 31
0.0
  0
LINE
  5
4A6
330
1F
100
AcDbEntity
  8
SLD-0
  6
Continuous
370
    15
100
AcDbLine
 10
4.7876426829
 20
11.5314410914
 30
0.0
 11
20.9356623014
 21
11.5314410914
 31
0.0
  0
SPLINE
  5
4A7
330
1F
100
AcDbEntity
  8
SLD-0
  6
Continuous
370
    15
100
AcDbSpline
210
0.0
220
0.0
230
1.0
 70
     8
 71
     3
 72
    11
 73
     7
 74
     0
 42
0.00000001
 43
0.00000001
 12
1.0
 22
0.0
 32
0.0
 13
1.0
 23
0.0
 33
0.0
 40
0.0
 40
0.0
 40
0.0
 40
0.0
 40
0.2500029435471393
 40
0.4999989105359022
 40
0.7499972079258017
 40
1.0
 40
1.0
 40
1.0
 40
1.0
 10
4.787642682921045
 20
11.53144109143701
 30
0.0
 10
4.787042492264293
 20
11.53228140524813
 30
0.0
 10
4.785842127699652
 20
11.53396200942066
 30
0.0
 10
4.78471068219624
 20
11.54703241589539
 30
0.0
 10
4.784643860310238
 20
11.56597690721252
 30
0.0
 10
4.78598405675905
 20
11.58167615343126
 30
0.0
 10
4.786654161007201
 20
11.58952584710363
 30
0.0
  0
ARC
  5
4A8
330
1F
100
AcDbEntity
  8
SLD-0
  6
Continuous
370
    15
100
AcDbCircle
 10
5.1074465162
 20
11.5984260102
 30
0.0
 40
0.3209157958774103
100
AcDbArc
 50
179.9973063466
 51
181.5892242823
  0
ARC
  5
4A9
330
1F
100
AcDbEntity
  8
SLD-0
  6
Continuous
370
    15
100
AcDbCircle
 10
21.0130267623
 20
11.5824080632
 30
0.0
 40
0.0926438990169028
100
AcDbArc
 50
170.0341672534
 51
213.3765122848
  0
ARC
  5
4AA
330
1F
100
AcDbEntity
  8
SLD-0
  6
Continuous
370
    15
100
AcDbCircle
 10
20.9714521331
 20
11.5910215934
 30
0.0
 40
0.0428596699390034
100
AcDbArc
 50
170.0312191281
 51
213.3792846501
  0
LINE
  5
4AB
330
1F
100
AcDbEntity
  8
SLD-0
  6
Continuous
370
    15
100
AcDbLine
 10
20.9356623014
 20
11.5314410914
 30
0.0
 11
20.9356623014
 21
11.5674411089
 31
0.0
  0
LINE
  5
4AC
330
1F
100
AcDbEntity
  8
SLD-0
  6
Continuous
370
    15
100
AcDbLine
 10
20.9292395489
 20
11.5984410974
 30
0.0
 11
20.9217807551
 21
11.5984410974
 31
0.0
  0
LINE
  5
4AD
330
1F
100
AcDbEntity
  8
SLD-0
  6
Continuous
370
    15
100
AcDbLine
 10
20.9292395489
 20
11.5984410974
 30
0.0
 11
20.9292395489
 21
12.5674411243
 31
0.0
  0
LINE
  5
4AE
330
1F
100
AcDbEntity
  8
SLD-0
  6
Continuous
370
    15
100
AcDbLine
 10
20.9217807551
 20
12.5674411243
 30
0.0
 11
20.9292395489
 21
12.5674411243
 31
0.0
  0
LINE
  5
4AF
330
1F
100
AcDbEntity
  8
SLD-0
  6
Continuous
370
    15
100
AcDbLine
 10
20.9362747743
 20
11.5314410914
 30
0.0
 11
20.9362747743
 21
11.5674411089
 31
0.0
  0
LINE
  5
4B0
330
1F
100
AcDbEntity
  8
SLD-0
  6
Continuous
370
    15
100
AcDbLine
 10
20.9979069157
 20
11.5314410914
 30
0.0
 11
20.9362747743
 21
11.5314410914
 31
0.0
  0
LINE
  5
4B1
330
1F
100
AcDbEntity
  8
SLD-0
  6
Continuous
370
    15
100
AcDbLine
 10
20.9880885758
 20
11.5674411089
 30
0.0
 11
20.9362747743
 21
11.5674411089
 31
0.0
  0
ARC
  5
4B2
330
1F
100
AcDbEntity
  8
SLD-0
  6
Continuous
370
    15
100
AcDbCircle
 10
23.9216426829
 20
11.5984411246
 30
0.0
 40
0.0309999999999988
100
AcDbArc
 50
270.0
 51
0.0
  0
LINE
  5
4B3
330
1F
100
AcDbEntity
  8
SLD-0
  6
Continuous
370
    15
100
AcDbLine
 10
23.9526429156
 20
11.5984410974
 30
0.0
 11
23.9886427131
 21
11.5984410974
 31
0.0
  0
ARC
  5
4B4
330
1F
100
AcDbEntity
  8
SLD-0
  6
Continuous
370
    15
100
AcDbCircle
 10
23.9216426829
 20
11.5984411246
 30
0.0
 40
0.0670000000000002
100
AcDbArc
 50
270.0
 51
0.0
  0
LINE
  5
4B5
330
1F
100
AcDbEntity
  8
SLD-0
  6
Continuous
370
    15
100
AcDbLine
 10
23.9886427131
 20
12.5004411275
 30
0.0
 11
23.9886427131
 21
11.5984410974
 31
0.0
  0
LINE
  5
4B6
330
1F
100
AcDbEntity
  8
SLD-0
  6
Continuous
370
    15
100
AcDbLine
 10
23.9526429156
 20
12.5004411275
 30
0.0
 11
23.9526429156
 21
11.5984410974
 31
0.0
  0
LINE
  5
4B7
330
1F
100
AcDbEntity
  8
SLD-0
  6
Continuous
370
    15
100
AcDbLine
 10
23.9526429156
 20
12.5004411275
 30
0.0
 11
23.9886427131
 21
12.5004411275
 31
0.0
  0
ARC
  5
4B8
330
1F
100
AcDbEntity
  8
SLD-0
  6
Continuous
370
    15
100
AcDbCircle
 10
23.9216426829
 20
12.5004411246
 30
0.0
 40
0.0310000000000024
100
AcDbArc
 50
0.0
 51
90.0
  0
ARC
  5
4B9
330
1F
100
AcDbEntity
  8
SLD-0
  6
Continuous
370
    15
100
AcDbCircle
 10
23.9216426829
 20
12.5004411246
 30
0.0
 40
0.0670000000000019
100
AcDbArc
 50
0.0
 51
90.0
  0
LINE
  5
4BA
330
1F
100
AcDbEntity
  8
SLD-0
  6
Continuous
370
    15
100
AcDbLine
 10
20.9362747743
 20
11.5314410914
 30
0.0
 11
20.9356623014
 21
11.5314410914
 31
0.0
  0
LINE
  5
4BB
330
1F
100
AcDbEntity
  8
SLD-0
  6
Continuous
370
    15
100
AcDbLine
 10
20.9362747743
 20
11.5674411089
 30
0.0
 11
20.9356623014
 21
11.5674411089
 31
0.0
  0
ARC
  5
4BC
330
1F
100
AcDbEntity
  8
SLD-0
  6
Continuous
370
    15
100
AcDbCircle
 10
4.7876426829
 20
11.5984411246
 30
0.0
 40
0.0670000000000011
100
AcDbArc
 50
180.0
 51
270.0
  0
LINE
  5
4BD
330
1F
100
AcDbEntity
  8
SLD-0
  6
Continuous
370
    15
100
AcDbLine
 10
4.7566426841
 20
11.5984410974
 30
0.0
 11
4.7206426803
 21
11.5984410974
 31
0.0
  0
ARC
  5
4BE
330
1F
100
AcDbEntity
  8
SLD-0
  6
Continuous
370
    15
100
AcDbCircle
 10
4.7876426829
 20
11.5984411246
 30
0.0
 40
0.0309999999999997
100
AcDbArc
 50
180.0
 51
265.1467149591
  0
LINE
  5
4BF
330
1F
100
AcDbEntity
  8
SLD-0
  6
Continuous
370
    15
100
AcDbLine
 10
4.7206426803
 20
11.5984410974
 30
0.0
 11
4.7206426803
 21
12.5674411243
 31
0.0
  0
LINE
  5
4C0
330
1F
100
AcDbEntity
  8
SLD-0
  6
Continuous
370
    15
100
AcDbLine
 10
4.7566426841
 20
11.5984410974
 30
0.0
 11
4.7566426841
 21
12.5674411243
 31
0.0
  0
LINE
  5
4C1
330
1F
100
AcDbEntity
  8
SLD-0
  6
Continuous
370
    15
100
AcDbLine
 10
4.7206426803
 20
12.5674411243
 30
0.0
 11
4.7566426841
 21
12.5674411243
 31
0.0
  0
LWPOLYLINE
  5
4C2
330
1F
100
AcDbEntity
  8
SLD-0
  6
Continuous
370
    15
100
AcDbPolyline
 90
        9
 70
   128
 43
0.0
 10
24.458642937
 20
42.8976415197
 10
24.4616384223
 20
42.9058735313
 10
24.4645189224
 20
42.9137863999
 10
24.4671741451
 20
42.9210821023
 10
24.4695020115
 20
42.9274743484
 10
24.4714110028
 20
42.9327237811
 10
24.4728307197
 20
42.9366215494
 10
24.473704843
 20
42.9390221617
 10
24.4739993462
 20
42.939834099
  0
LINE
  5
4C3
330
1F
100
AcDbEntity
  8
SLD-0
  6
Continuous
370
    15
100
AcDbLine
 10
24.4739993462
 20
42.939834099
 30
0.0
 11
27.3493215436
 21
41.8933009086
 31
0.0
  0
SPLINE
  5
4C4
330
1F
100
AcDbEntity
  8
SLD-0
  6
Continuous
370
    15
100
AcDbSpline
210
0.0
220
0.0
230
1.0
 70
     8
 71
     3
 72
    11
 73
     7
 74
     0
 42
0.00000001
 43
0.00000001
 12
1.0
 22
0.0
 32
0.0
 13
1.0
 23
0.0
 33
0.0
 40
0.0
 40
0.0
 40
0.0
 40
0.0
 40
0.2582751752183826
 40
0.516737379264115
 40
0.7752159117431701
 40
1.0
 40
1.0
 40
1.0
 40
1.0
 10
27.34932154358575
 20
41.89330090864153
 30
0.0
 10
27.34526813102577
 20
41.89400819237112
 30
0.0
 10
27.33715837064501
 20
41.89542327200667
 30
0.0
 10
27.32194783600286
 20
41.88918668070015
 30
0.0
 10
27.30587149519558
 20
41.8790466400422
 30
0.0
 10
27.29487273797655
 20
41.87096044029128
 30
0.0
 10
27.28975679168285
 20
41.86719923683693
 30
0.0
  0
LINE
  5
4C5
330
1F
100
AcDbEntity
  8
SLD-0
  6
Continuous
370
    15
100
AcDbLine
 10
27.2897567917
 20
41.8671992368
 30
0.0
 11
24.458642937
 21
42.8976415197
 31
0.0
  0
SPLINE
  5
4C6
330
1F
100
AcDbEntity
  8
SLD-0
  6
Continuous
370
    15
100
AcDbSpline
210
0.0
220
0.0
230
1.0
 70
     8
 71
     3
 72
     9
 73
     5
 74
     0
 42
0.00000001
 43
0.00000001
 12
1.0
 22
0.0
 32
0.0
 13
1.0
 23
0.0
 33
0.0
 40
0.0
 40
0.0
 40
0.0
 40
0.0
 40
0.4999893386966669
 40
1.0
 40
1.0
 40
1.0
 40
1.0
 10
27.33909723503117
 20
41.86520459321256
 30
0.0
 10
27.33140524644251
 20
41.86699662641784
 30
0.0
 10
27.31602094123171
 20
41.87058076925166
 30
0.0
 10
27.29851163264717
 20
41.86832643033131
 30
0.0
 10
27.28975679168285
 20
41.86719923683693
 30
0.0
  0
LINE
  5
4C7
330
1F
100
AcDbEntity
  8
SLD-0
  6
Continuous
370
    15
100
AcDbLine
 10
27.339097235
 20
41.8652045932
 30
0.0
 11
27.3493215436
 21
41.8933009086
 31
0.0
  0
LINE
  5
4C8
330
1F
100
AcDbEntity
  8
SLD-0
  6
Continuous
370
    15
100
AcDbLine
 10
24.2423766353
 20
40.4461822659
 30
0.0
 11
27.2897567917
 21
41.8671992368
 31
0.0
  0
LINE
  5
4C9
330
1F
100
AcDbEntity
  8
SLD-0
  6
Continuous
370
    15
100
AcDbLine
 10
24.2423766353
 20
40.4461822659
 30
0.0
 11
23.9886427131
 21
40.5385342657
 31
0.0
  0
LINE
  5
4CA
330
1F
100
AcDbEntity
  8
SLD-0
  6
Continuous
370
    15
100
AcDbLine
 10
23.9886427131
 20
42.8976415197
 30
0.0
 11
24.458642937
 21
42.8976415197
 31
0.0
  0
SPLINE
  5
4CB
330
1F
100
AcDbEntity
  8
SLD-0
  6
Continuous
370
    15
100
AcDbSpline
210
0.0
220
0.0
230
1.0
 70
     8
 71
     3
 72
     9
 73
     5
 74
     0
 42
0.00000001
 43
0.00000001
 12
1.0
 22
0.0
 32
0.0
 13
1.0
 23
0.0
 33
0.0
 40
0.0
 40
0.0
 40
0.0
 40
0.0
 40
0.5000118849555345
 40
1.0
 40
1.0
 40
1.0
 40
1.0
 10
27.33775026392483
 20
41.86150394262945
 30
0.0
 10
27.33889934707861
 20
41.8617845489522
 30
0.0
 10
27.34119745876023
 20
41.862345748258
 30
0.0
 10
27.33979729851363
 20
41.8642516599955
 30
0.0
 10
27.33909723503117
 20
41.86520459321257
 30
0.0
  0
SPLINE
  5
4CC
330
1F
100
AcDbEntity
  8
SLD-0
  6
Continuous
370
    15
100
AcDbSpline
210
0.0
220
0.0
230
1.0
 70
     8
 71
     3
 72
    15
 73
    11
 74
     0
 42
0.00000001
 43
0.00000001
 12
1.0
 22
0.0
 32
0.0
 13
1.0
 23
0.0
 33
0.0
 40
0.0
 40
0.0
 40
0.0
 40
0.0
 40
0.1249950516107603
 40
0.2500009003098037
 40
0.3749932036895312
 40
0.4999967875059307
 40
0.624991839116691
 40
0.7499933259753422
 40
0.8749856293550697
 40
1.0
 40
1.0
 40
1.0
 40
1.0
 10
27.32752360873069
 20
41.83340762720049
 30
0.0
 10
27.33160685495258
 20
41.8324311732376
 30
0.0
 10
27.33977370010768
 20
41.83047818096558
 30
0.0
 10
27.35226139327472
 20
41.83377698129171
 30
0.0
 10
27.3625252021768
 20
41.84125086110054
 30
0.0
 10
27.36914888297737
 20
41.85217113227487
 30
0.0
 10
27.37109411743694
 20
41.86479508295718
 30
0.0
 10
27.36803826132041
 20
41.87711735640191
 30
0.0
 10
27.36059038182513
 20
41.88767119714831
 30
0.0
 10
27.35307804402864
 20
41.89142422772124
 30
0.0
 10
27.34932154358575
 20
41.89330090864153
 30
0.0
  0
LINE
  5
4CD
330
1F
100
AcDbEntity
  8
SLD-0
  6
Continuous
370
    15
100
AcDbLine
 10
27.3275236087
 20
41.8334076272
 30
0.0
 11
27.3377502639
 21
41.8615039426
 31
0.0
  0
LINE
  5
4CE
330
1F
100
AcDbEntity
  8
SLD-0
  6
Continuous
370
    15
100
AcDbLine
 10
23.9886427131
 20
42.9425421211
 30
0.0
 11
24.458642937
 21
42.9425421211
 31
0.0
  0
LINE
  5
4CF
330
1F
100
AcDbEntity
  8
SLD-0
  6
Continuous
370
    15
100
AcDbLine
 10
24.458642937
 20
42.9126412398
 30
0.0
 11
24.458642937
 21
42.9425421211
 31
0.0
  0
LINE
  5
4D0
330
1F
100
AcDbEntity
  8
SLD-0
  6
Continuous
370
    15
100
AcDbLine
 10
23.9886427131
 20
42.9126412398
 30
0.0
 11
24.458642937
 21
42.9126412398
 31
0.0
  0
ARC
  5
4D1
330
1F
100
AcDbEntity
  8
SLD-0
  6
Continuous
370
    15
100
AcDbCircle
 10
24.4586426829
 20
42.8976411246
 30
0.0
 40
0.0448999999999984
100
AcDbArc
 50
70.0
 51
90.0
  0
ARC
  5
4D2
330
1F
100
AcDbEntity
  8
SLD-0
  6
Continuous
370
    15
100
AcDbCircle
 10
24.4586426829
 20
42.8976411246
 30
0.0
 40
0.0150000000000006
100
AcDbArc
 50
70.0
 51
90.0
  0
LINE
  5
4D3
330
1F
100
AcDbEntity
  8
SLD-0
  6
Continuous
370
    15
100
AcDbLine
 10
27.3377502639
 20
41.8615039426
 30
0.0
 11
27.3179422794
 21
41.868715166
 31
0.0
  0
LINE
  5
4D4
330
1F
100
AcDbEntity
  8
SLD-0
  6
Continuous
370
    15
100
AcDbLine
 10
27.3275236087
 20
41.8334076272
 30
0.0
 11
27.2656145639
 21
41.8559400602
 31
0.0
  0
LINE
  5
4D5
330
1F
100
AcDbEntity
  8
SLD-0
  6
Continuous
370
    15
100
AcDbLine
 10
23.1529679936
 20
18.653740894
 30
0.0
 11
23.2009673324
 21
18.653740894
 31
0.0
  0
LINE
  5
4D6
330
1F
100
AcDbEntity
  8
SLD-0
  6
Continuous
370
    15
100
AcDbLine
 10
23.1529679936
 20
21.7787408471
 30
0.0
 11
23.2009673324
 21
21.7787408471
 31
0.0
  0
LINE
  5
4D7
330
1F
100
AcDbEntity
  8
SLD-0
  6
Continuous
370
    15
100
AcDbLine
 10
23.2009673324
 20
18.653740894
 30
0.0
 11
23.2009673324
 21
21.7787408471
 31
0.0
  0
LINE
  5
4D8
330
1F
100
AcDbEntity
  8
SLD-0
  6
Continuous
370
    15
100
AcDbLine
 10
23.1529679936
 20
18.653740894
 30
0.0
 11
23.1529679936
 21
21.7787408471
 31
0.0
  0
LINE
  5
4D9
330
1F
100
AcDbEntity
  8
SLD-0
  6
Continuous
370
    15
100
AcDbLine
 10
23.1379671002
 20
21.7787408471
 30
0.0
 11
23.1529679936
 21
21.7787408471
 31
0.0
  0
LINE
  5
4DA
330
1F
100
AcDbEntity
  8
SLD-0
  6
Continuous
370
    15
100
AcDbLine
 10
23.1379671002
 20
21.7787408471
 30
0.0
 11
23.1379671002
 21
18.653740894
 31
0.0
  0
LINE
  5
4DB
330
1F
100
AcDbEntity
  8
SLD-0
  6
Continuous
370
    15
100
AcDbLine
 10
23.1529679936
 20
18.653740894
 30
0.0
 11
23.1379671002
 21
18.653740894
 31
0.0
  0
LINE
  5
4DC
330
1F
100
AcDbEntity
  8
SLD-0
  6
Continuous
370
    15
100
AcDbLine
 10
23.1379671002
 20
18.653740894
 30
0.0
 11
21.560342445
 21
18.653740894
 31
0.0
  0
LINE
  5
4DD
330
1F
100
AcDbEntity
  8
SLD-0
  6
Continuous
370
    15
100
AcDbLine
 10
21.560342445
 20
18.653740894
 30
0.0
 11
21.560342445
 21
21.7787408471
 31
0.0
  0
LINE
  5
4DE
330
1F
100
AcDbEntity
  8
SLD-0
  6
Continuous
370
    15
100
AcDbLine
 10
23.1379671002
 20
21.7787408471
 30
0.0
 11
21.560342445
 21
21.7787408471
 31
0.0
  0
LINE
  5
4DF
330
1F
100
AcDbEntity
  8
SLD-0
  6
Continuous
370
    15
100
AcDbLine
 10
23.1529679936
 20
41.6917409971
 30
0.0
 11
23.2009673324
 21
41.6917409971
 31
0.0
  0
LINE
  5
4E0
330
1F
100
AcDbEntity
  8
SLD-0
  6
Continuous
370
    15
100
AcDbLine
 10
23.2009673324
 20
38.5667422173
 30
0.0
 11
23.2009673324
 21
41.6917409971
 31
0.0
  0
LINE
  5
4E1
330
1F
100
AcDbEntity
  8
SLD-0
  6
Continuous
370
    15
100
AcDbLine
 10
23.1529679936
 20
38.5667422173
 30
0.0
 11
23.2009673324
 21
38.5667422173
 31
0.0
  0
LINE
  5
4E2
330
1F
100
AcDbEntity
  8
SLD-0
  6
Continuous
370
    15
100
AcDbLine
 10
23.1529679936
 20
38.5667422173
 30
0.0
 11
23.1529679936
 21
41.6917409971
 31
0.0
  0
LINE
  5
4E3
330
1F
100
AcDbEntity
  8
SLD-0
  6
Continuous
370
    15
100
AcDbLine
 10
23.1379671002
 20
41.6917409971
 30
0.0
 11
23.1529679936
 21
41.6917409971
 31
0.0
  0
LINE
  5
4E4
330
1F
100
AcDbEntity
  8
SLD-0
  6
Continuous
370
    15
100
AcDbLine
 10
23.1379671002
 20
41.6917409971
 30
0.0
 11
23.1379671002
 21
38.5667422173
 31
0.0
  0
LINE
  5
4E5
330
1F
100
AcDbEntity
  8
SLD-0
  6
Continuous
370
    15
100
AcDbLine
 10
23.1529679936
 20
38.5667422173
 30
0.0
 11
23.1379671002
 21
38.5667422173
 31
0.0
  0
LINE
  5
4E6
330
1F
100
AcDbEntity
  8
SLD-0
  6
Continuous
370
    15
100
AcDbLine
 10
23.1379671002
 20
38.5667422173
 30
0.0
 11
21.560342445
 21
38.5667422173
 31
0.0
  0
LINE
  5
4E7
330
1F
100
AcDbEntity
  8
SLD-0
  6
Continuous
370
    15
100
AcDbLine
 10
21.560342445
 20
38.5667422173
 30
0.0
 11
21.560342445
 21
41.6917409971
 31
0.0
  0
LINE
  5
4E8
330
1F
100
AcDbEntity
  8
SLD-0
  6
Continuous
370
    15
100
AcDbLine
 10
23.1379671002
 20
41.6917409971
 30
0.0
 11
21.560342445
 21
41.6917409971
 31
0.0
  0
LINE
  5
4E9
330
1F
100
AcDbEntity
  8
SLD-0
  6
Continuous
370
    15
100
AcDbLine
 10
23.924043246
 20
13.1358781935
 30
0.0
 11
23.2386426305
 21
13.8212781857
 31
0.0
  0
LINE
  5
4EA
330
1F
100
AcDbEntity
  8
SLD-0
  6
Continuous
370
    15
100
AcDbLine
 10
23.2386426305
 20
18.0428413912
 30
0.0
 11
23.2386426305
 21
13.8212781857
 31
0.0
  0
LINE
  5
4EB
330
1F
100
AcDbEntity
  8
SLD-0
  6
Continuous
370
    15
100
AcDbLine
 10
23.2386426305
 20
18.0428413912
 30
0.0
 11
23.676642904
 21
18.0428413912
 31
0.0
  0
LINE
  5
4EC
330
1F
100
AcDbEntity
  8
SLD-0
  6
Continuous
370
    15
100
AcDbLine
 10
23.676642904
 20
18.0428413912
 30
0.0
 11
23.676642904
 21
21.9178408402
 31
0.0
  0
LINE
  5
4ED
330
1F
100
AcDbEntity
  8
SLD-0
  6
Continuous
370
    15
100
AcDbLine
 10
23.676642904
 20
21.9178408402
 30
0.0
 11
23.2386426305
 21
21.9178408402
 31
0.0
  0
LINE
  5
4EE
330
1F
100
AcDbEntity
  8
SLD-0
  6
Continuous
370
    15
100
AcDbLine
 10
23.2386426305
 20
37.9068413606
 30
0.0
 11
23.2386426305
 21
21.9178408402
 31
0.0
  0
LINE
  5
4EF
330
1F
100
AcDbEntity
  8
SLD-0
  6
Continuous
370
    15
100
AcDbLine
 10
23.2386426305
 20
37.9068413606
 30
0.0
 11
23.676642904
 21
37.9068413606
 31
0.0
  0
LINE
  5
4F0
330
1F
100
AcDbEntity
  8
SLD-0
  6
Continuous
370
    15
100
AcDbLine
 10
23.676642904
 20
37.9068413606
 30
0.0
 11
23.676642904
 21
41.7818402229
 31
0.0
  0
LINE
  5
4F1
330
1F
100
AcDbEntity
  8
SLD-0
  6
Continuous
370
    15
100
AcDbLine
 10
23.676642904
 20
41.7818402229
 30
0.0
 11
23.2386426305
 21
41.7818402229
 31
0.0
  0
LINE
  5
4F2
330
1F
100
AcDbEntity
  8
SLD-0
  6
Continuous
370
    15
100
AcDbLine
 10
23.2386426305
 20
46.0836036486
 30
0.0
 11
23.2386426305
 21
41.7818402229
 31
0.0
  0
LINE
  5
4F3
330
1F
100
AcDbEntity
  8
SLD-0
  6
Continuous
370
    15
100
AcDbLine
 10
23.2386426305
 20
46.0836036486
 30
0.0
 11
23.924043246
 21
46.7690030908
 31
0.0
  0
LINE
  5
4F4
330
1F
100
AcDbEntity
  8
SLD-0
  6
Continuous
370
    15
100
AcDbLine
 10
23.924043246
 20
46.7690030908
 30
0.0
 11
23.924043246
 21
13.1358781935
 31
0.0
  0
LINE
  5
4F5
330
1F
100
AcDbEntity
  8
SLD-0
  6
Continuous
370
    15
100
AcDbLine
 10
23.9550423546
 20
13.0697665372
 30
0.0
 11
23.9886427131
 21
13.0697665372
 31
0.0
  0
SPLINE
  5
4F6
330
1F
100
AcDbEntity
  8
SLD-0
  6
Continuous
370
    15
100
AcDbSpline
210
0.0
220
0.0
230
1.0
 70
     8
 71
     3
 72
    11
 73
     7
 74
     0
 42
0.00000001
 43
0.00000001
 12
1.0
 22
0.0
 32
0.0
 13
1.0
 23
0.0
 33
0.0
 40
0.0
 40
0.0
 40
0.0
 40
0.0
 40
0.2499954109007764
 40
0.4999999999936309
 40
0.7500042279107917
 40
1.0
 40
1.0
 40
1.0
 40
1.0
 10
23.95504235458859
 20
13.06976653723686
 30
0.0
 10
23.95457637017805
 20
13.07527588286668
 30
0.0
 10
23.95364438424909
 20
13.08629477639336
 30
0.0
 10
23.94647659606283
 20
13.1028223628948
 30
0.0
 10
23.93622852550827
 20
13.11934992447129
 30
0.0
 10
23.92810496005929
 20
13.13036883261267
 30
0.0
 10
23.92404324602627
 20
13.13587819350936
 30
0.0
  0
SPLINE
  5
4F7
330
1F
100
AcDbEntity
  8
SLD-0
  6
Continuous
370
    15
100
AcDbSpline
210
0.0
220
0.0
230
1.0
 70
     8
 71
     3
 72
    11
 73
     7
 74
     0
 42
0.00000001
 43
0.00000001
 12
1.0
 22
0.0
 32
0.0
 13
1.0
 23
0.0
 33
0.0
 40
0.0
 40
0.0
 40
0.0
 40
0.0
 40
0.2499972621798613
 40
0.4999999999982294
 40
0.7500025710524268
 40
1.0
 40
1.0
 40
1.0
 40
1.0
 10
23.98864271310104
 20
13.06976653723686
 30
0.0
 10
23.98767164405645
 20
13.07527586201031
 30
0.0
 10
23.98572948469813
 20
13.08629463222681
 30
0.0
 10
23.97079087470528
 20
13.10282237268733
 30
0.0
 10
23.94943763212548
 20
13.11935005088831
 30
0.0
 10
23.93250798335664
 20
13.13036885040891
 30
0.0
 10
23.92404324602627
 20
13.13587819350936
 30
0.0
  0
SPLINE
  5
4F8
330
1F
100
AcDbEntity
  8
SLD-0
  6
Continuous
370
    15
100
AcDbSpline
210
0.0
220
0.0
230
1.0
 70
     8
 71
     3
 72
    11
 73
     7
 74
     0
 42
0.00000001
 43
0.00000001
 12
1.0
 22
0.0
 32
0.0
 13
1.0
 23
0.0
 33
0.0
 40
0.0
 40
0.0
 40
0.0
 40
0.0
 40
0.2500129286540541
 40
0.5000115581612382
 40
0.7500101876684224
 40
1.0
 40
1.0
 40
1.0
 40
1.0
 10
23.92404324602627
 20
46.76900309078052
 30
0.0
 10
23.92810487823833
 20
46.77451312211438
 30
0.0
 10
23.93622791036296
 20
46.78553286964336
 30
0.0
 10
23.94647666954583
 20
46.80206014378741
 30
0.0
 10
23.95364436862188
 20
46.81858725922179
 30
0.0
 10
23.95457636474486
 20
46.82960579587733
 30
0.0
 10
23.95504235458859
 20
46.83511496705049
 30
0.0
  0
LINE
  5
4F9
330
1F
100
AcDbEntity
  8
SLD-0
  6
Continuous
370
    15
100
AcDbLine
 10
23.9550423546
 20
46.8351149671
 30
0.0
 11
23.9886427131
 21
46.8351149671
 31
0.0
  0
SPLINE
  5
4FA
330
1F
100
AcDbEntity
  8
SLD-0
  6
Continuous
370
    15
100
AcDbSpline
210
0.0
220
0.0
230
1.0
 70
     8
 71
     3
 72
    11
 73
     7
 74
     0
 42
0.00000001
 43
0.00000001
 12
1.0
 22
0.0
 32
0.0
 13
1.0
 23
0.0
 33
0.0
 40
0.0
 40
0.0
 40
0.0
 40
0.0
 40
0.2500053506001714
 40
0.5000053367063144
 40
0.7500053228124574
 40
0.9999999999999999
 40
0.9999999999999999
 40
0.9999999999999999
 40
0.9999999999999999
 10
23.92404324602627
 20
46.76900309078052
 30
0.0
 10
23.93250790464239
 20
46.77451317623218
 30
0.0
 10
23.94943704024408
 20
46.78553322890274
 30
0.0
 10
23.97079094542011
 20
46.80206008502459
 30
0.0
 10
23.98572946966056
 20
46.81858740921009
 30
0.0
 10
23.98767163882817
 20
46.82960582010134
 30
0.0
 10
23.98864271310104
 20
46.83511496705049
 30
0.0
  0
LINE
  5
4FB
330
1F
100
AcDbEntity
  8
SLD-0
  6
Continuous
370
    15
100
AcDbLine
 10
23.9886427131
 20
13.0697665372
 30
0.0
 11
23.9886427131
 21
46.8351149671
 31
0.0
  0
LINE
  5
4FC
330
1F
100
AcDbEntity
  8
SLD-0
  6
Continuous
370
    15
100
AcDbLine
 10
23.9886427131
 20
46.8352276057
 30
0.0
 11
23.9886427131
 21
46.8351149671
 31
0.0
  0
LINE
  5
4FD
330
1F
100
AcDbEntity
  8
SLD-0
  6
Continuous
370
    15
100
AcDbLine
 10
23.9550423546
 20
46.8352276057
 30
0.0
 11
23.9550423546
 21
46.8351149671
 31
0.0
  0
LINE
  5
4FE
330
1F
100
AcDbEntity
  8
SLD-0
  6
Continuous
370
    15
100
AcDbLine
 10
23.9550423546
 20
46.8352276057
 30
0.0
 11
23.9886427131
 21
46.8352276057
 31
0.0
  0
LINE
  5
4FF
330
1F
100
AcDbEntity
  8
SLD-0
  6
Continuous
370
    15
100
AcDbLine
 10
23.9886427131
 20
13.0697665372
 30
0.0
 11
23.9886427131
 21
13.0696538252
 31
0.0
  0
LINE
  5
500
330
1F
100
AcDbEntity
  8
SLD-0
  6
Continuous
370
    15
100
AcDbLine
 10
23.9550423546
 20
13.0696538252
 30
0.0
 11
23.9886427131
 21
13.0696538252
 31
0.0
  0
LINE
  5
501
330
1F
100
AcDbEntity
  8
SLD-0
  6
Continuous
370
    15
100
AcDbLine
 10
23.9550423546
 20
13.0697665372
 30
0.0
 11
23.9550423546
 21
13.0696538252
 31
0.0
  0
LINE
  5
502
330
1F
100
AcDbEntity
  8
SLD-0
  6
Continuous
370
    15
100
AcDbLine
 10
23.2386426305
 20
47.3038421389
 30
0.0
 11
23.924043246
 21
47.3038421389
 31
0.0
  0
LINE
  5
503
330
1F
100
AcDbEntity
  8
SLD-0
  6
Continuous
370
    15
100
AcDbLine
 10
23.2386426305
 20
47.3038421389
 30
0.0
 11
23.2386426305
 21
47.3374413241
 31
0.0
  0
LINE
  5
504
330
1F
100
AcDbEntity
  8
SLD-0
  6
Continuous
370
    15
100
AcDbLine
 10
23.2386426305
 20
47.3374413241
 30
0.0
 11
23.924043246
 21
47.3374413241
 31
0.0
  0
LINE
  5
505
330
1F
100
AcDbEntity
  8
SLD-0
  6
Continuous
370
    15
100
AcDbLine
 10
23.924043246
 20
47.3038421389
 30
0.0
 11
23.924043246
 21
47.3374413241
 31
0.0
  0
LINE
  5
506
330
1F
100
AcDbEntity
  8
SLD-0
  6
Continuous
370
    15
100
AcDbLine
 10
23.2386426305
 20
12.6010411253
 30
0.0
 11
23.924043246
 21
12.6010411253
 31
0.0
  0
LINE
  5
507
330
1F
100
AcDbEntity
  8
SLD-0
  6
Continuous
370
    15
100
AcDbLine
 10
23.924043246
 20
12.6010411253
 30
0.0
 11
23.924043246
 21
12.5674411243
 31
0.0
  0
LINE
  5
508
330
1F
100
AcDbEntity
  8
SLD-0
  6
Continuous
370
    15
100
AcDbLine
 10
23.9216426338
 20
12.5674411243
 30
0.0
 11
23.924043246
 21
12.5674411243
 31
0.0
  0
LINE
  5
509
330
1F
100
AcDbEntity
  8
SLD-0
  6
Continuous
370
    15
100
AcDbLine
 10
23.2386426305
 20
12.6010411253
 30
0.0
 11
23.2386426305
 21
12.5674411243
 31
0.0
  0
LINE
  5
50A
330
1F
100
AcDbEntity
  8
SLD-0
  6
Continuous
370
    15
100
AcDbLine
 10
23.9550423546
 20
47.2728406837
 30
0.0
 11
23.9886427131
 21
47.2728406837
 31
0.0
  0
LINE
  5
50B
330
1F
100
AcDbEntity
  8
SLD-0
  6
Continuous
370
    15
100
AcDbLine
 10
23.9550423546
 20
46.8352276057
 30
0.0
 11
23.9550423546
 21
47.2728406837
 31
0.0
  0
LINE
  5
50C
330
1F
100
AcDbEntity
  8
SLD-0
  6
Continuous
370
    15
100
AcDbLine
 10
23.9886427131
 20
47.2728406837
 30
0.0
 11
23.9886427131
 21
46.8352276057
 31
0.0
  0
ARC
  5
50D
330
1F
100
AcDbEntity
  8
SLD-0
  6
Continuous
370
    15
100
AcDbCircle
 10
23.9240426829
 20
47.2728411246
 30
0.0
 40
0.0310000000000059
100
AcDbArc
 50
0.0
 51
90.0
  0
ARC
  5
50E
330
1F
100
AcDbEntity
  8
SLD-0
  6
Continuous
370
    15
100
AcDbCircle
 10
23.9240426829
 20
47.2728411246
 30
0.0
 40
0.0645999999999951
100
AcDbArc
 50
0.0
 51
90.0
  0
LINE
  5
50F
330
1F
100
AcDbEntity
  8
SLD-0
  6
Continuous
370
    15
100
AcDbLine
 10
23.9550423546
 20
12.6320411248
 30
0.0
 11
23.9886427131
 21
12.6320411248
 31
0.0
  0
LINE
  5
510
330
1F
100
AcDbEntity
  8
SLD-0
  6
Continuous
370
    15
100
AcDbLine
 10
23.9550423546
 20
12.6320411248
 30
0.0
 11
23.9550423546
 21
13.0696538252
 31
0.0
  0
LINE
  5
511
330
1F
100
AcDbEntity
  8
SLD-0
  6
Continuous
370
    15
100
AcDbLine
 10
23.9886427131
 20
13.0696538252
 30
0.0
 11
23.9886427131
 21
12.6320411248
 31
0.0
  0
ARC
  5
512
330
1F
100
AcDbEntity
  8
SLD-0
  6
Continuous
370
    15
100
AcDbCircle
 10
23.9240426829
 20
12.6320411246
 30
0.0
 40
0.0309999999999953
100
AcDbArc
 50
270.0
 51
0.0
  0
ARC
  5
513
330
1F
100
AcDbEntity
  8
SLD-0
  6
Continuous
370
    15
100
AcDbCircle
 10
23.9240426829
 20
12.6320411246
 30
0.0
 40
0.0646000000000058
100
AcDbArc
 50
270.0
 51
0.0
  0
LINE
  5
514
330
1F
100
AcDbEntity
  8
SLD-0
  6
Continuous
370
    15
100
AcDbLine
 10
21.4550428615
 20
12.5882236242
 30
0.0
 11
21.4550428615
 21
12.6010411253
 31
0.0
  0
LINE
  5
515
330
1F
100
AcDbEntity
  8
SLD-0
  6
Continuous
370
    15
100
AcDbLine
 10
21.4550428615
 20
12.6227411246
 30
0.0
 11
21.4550428615
 21
12.6278236245
 31
0.0
  0
LINE
  5
516
330
1F
100
AcDbEntity
  8
SLD-0
  6
Continuous
370
    15
100
AcDbLine
 10
21.4550428615
 20
12.5882236242
 30
0.0
 11
18.4550425311
 21
12.5882236242
 31
0.0
  0
LINE
  5
517
330
1F
100
AcDbEntity
  8
SLD-0
  6
Continuous
370
    15
100
AcDbLine
 10
21.4550428615
 20
12.6278236245
 30
0.0
 11
21.4353428224
 21
12.6278236245
 31
0.0
  0
LINE
  5
518
330
1F
100
AcDbEntity
  8
SLD-0
  6
Continuous
370
    15
100
AcDbLine
 10
21.016400782
 20
12.6278236245
 30
0.0
 11
20.9786292717
 21
12.6278236245
 31
0.0
  0
LINE
  5
519
330
1F
100
AcDbEntity
  8
SLD-0
  6
Continuous
370
    15
100
AcDbLine
 10
18.4550425311
 20
12.5882236242
 30
0.0
 11
18.4550425311
 21
12.6010411253
 31
0.0
  0
LINE
  5
51A
330
1F
100
AcDbEntity
  8
SLD-0
  6
Continuous
370
    15
100
AcDbLine
 10
21.4550428615
 20
12.6278236245
 30
0.0
 11
21.4550428615
 21
12.6328236242
 31
0.0
  0
LINE
  5
51B
330
1F
100
AcDbEntity
  8
SLD-0
  6
Continuous
370
    15
100
AcDbLine
 10
21.4550428615
 20
12.6328236242
 30
0.0
 11
21.4550428615
 21
12.6537411247
 31
0.0
  0
LINE
  5
51C
330
1F
100
AcDbEntity
  8
SLD-0
  6
Continuous
370
    15
100
AcDbLine
 10
23.8844683432
 20
47.1926419302
 30
0.0
 11
23.8844683432
 21
47.1917408206
 31
0.0
  0
LINE
  5
51D
330
1F
100
AcDbEntity
  8
SLD-0
  6
Continuous
370
    15
100
AcDbLine
 10
23.3870851823
 20
47.1926419302
 30
0.0
 11
23.8844683432
 21
47.1926419302
 31
0.0
  0
LINE
  5
51E
330
1F
100
AcDbEntity
  8
SLD-0
  6
Continuous
370
    15
100
AcDbLine
 10
23.3777291304
 20
47.1926419302
 30
0.0
 11
23.3870851823
 21
47.1926419302
 31
0.0
  0
LINE
  5
51F
330
1F
100
AcDbEntity
  8
SLD-0
  6
Continuous
370
    15
100
AcDbLine
 10
20.9519104337
 20
47.1926419302
 30
0.0
 11
21.054148826
 21
47.1926419302
 31
0.0
  0
LINE
  5
520
330
1F
100
AcDbEntity
  8
SLD-0
  6
Continuous
370
    15
100
AcDbLine
 10
21.4353428224
 20
47.1926419302
 30
0.0
 11
22.7483428012
 21
47.1926419302
 31
0.0
  0
LINE
  5
521
330
1F
100
AcDbEntity
  8
SLD-0
  6
Continuous
370
    15
100
AcDbLine
 10
23.1233428425
 20
47.1926419302
 30
0.0
 11
23.3777291304
 21
47.1926419302
 31
0.0
  0
LINE
  5
522
330
1F
100
AcDbEntity
  8
SLD-0
  6
Continuous
370
    15
100
AcDbLine
 10
4.7900426827
 20
47.1926419302
 30
0.0
 11
4.7900426827
 21
47.1917408206
 31
0.0
  0
LINE
  5
523
330
1F
100
AcDbEntity
  8
SLD-0
  6
Continuous
370
    15
100
AcDbLine
 10
4.8200426837
 20
47.1926419302
 30
0.0
 11
4.8200426837
 21
47.1917408206
 31
0.0
  0
LINE
  5
524
330
1F
100
AcDbEntity
  8
SLD-0
  6
Continuous
370
    15
100
AcDbLine
 10
4.7900426827
 20
47.1926419302
 30
0.0
 11
4.8200426837
 21
47.1926419302
 31
0.0
  0
LINE
  5
525
330
1F
100
AcDbEntity
  8
SLD-0
  6
Continuous
370
    15
100
AcDbLine
 10
4.8350426834
 20
47.1926419302
 30
0.0
 11
5.7897496083
 21
47.1926419302
 31
0.0
  0
LINE
  5
526
330
1F
100
AcDbEntity
  8
SLD-0
  6
Continuous
370
    15
100
AcDbLine
 10
4.8200426837
 20
47.1926419302
 30
0.0
 11
4.8350426834
 21
47.1926419302
 31
0.0
  0
LINE
  5
527
330
1F
100
AcDbEntity
  8
SLD-0
  6
Continuous
370
    15
100
AcDbLine
 10
13.1248584525
 20
13.7787410904
 30
0.0
 11
13.1248584525
 21
18.2787408527
 31
0.0
  0
LINE
  5
528
330
1F
100
AcDbEntity
  8
SLD-0
  6
Continuous
370
    15
100
AcDbLine
 10
13.1198753634
 20
13.7787410904
 30
0.0
 11
13.1198753634
 21
18.2787408527
 31
0.0
  0
LINE
  5
529
330
1F
100
AcDbEntity
  8
SLD-0
  6
Continuous
370
    15
100
AcDbLine
 10
13.1248584525
 20
13.7787410904
 30
0.0
 11
13.1198753634
 21
13.7787410904
 31
0.0
  0
LINE
  5
52A
330
1F
100
AcDbEntity
  8
SLD-0
  6
Continuous
370
    15
100
AcDbLine
 10
13.1248584525
 20
18.2787408527
 30
0.0
 11
13.1198753634
 21
18.2787408527
 31
0.0
  0
LINE
  5
52B
330
1F
100
AcDbEntity
  8
SLD-0
  6
Continuous
370
    15
100
AcDbLine
 10
12.814185668
 20
13.2787411331
 30
0.0
 11
12.814185668
 21
13.7787410904
 31
0.0
  0
LINE
  5
52C
330
1F
100
AcDbEntity
  8
SLD-0
  6
Continuous
370
    15
100
AcDbLine
 10
7.0672205108
 20
13.2787411331
 30
0.0
 11
12.814185668
 21
13.2787411331
 31
0.0
  0
LINE
  5
52D
330
1F
100
AcDbEntity
  8
SLD-0
  6
Continuous
370
    15
100
AcDbLine
 10
7.0672205108
 20
13.7787410904
 30
0.0
 11
7.0672205108
 21
13.2787411331
 31
0.0
  0
LINE
  5
52E
330
1F
100
AcDbEntity
  8
SLD-0
  6
Continuous
370
    15
100
AcDbLine
 10
6.7615309622
 20
13.7787410904
 30
0.0
 11
7.0672205108
 21
13.7787410904
 31
0.0
  0
LINE
  5
52F
330
1F
100
AcDbEntity
  8
SLD-0
  6
Continuous
370
    15
100
AcDbLine
 10
6.7615309622
 20
18.2787408527
 30
0.0
 11
6.7615309622
 21
13.7787410904
 31
0.0
  0
LWPOLYLINE
  5
530
330
1F
100
AcDbEntity
  8
SLD-0
  6
Continuous
370
    15
100
AcDbPolyline
 90
      110
 70
   128
 43
0.0
 10
10.7966341483
 20
15.278741109
 10
10.7952126714
 20
15.32915162
 10
10.7909523473
 20
15.3793946395
 10
10.7838678425
 20
15.429303263
 10
10.7739820367
 20
15.4787117589
 10
10.7613283695
 20
15.5274561558
 10
10.7459484938
 20
15.5753739489
 10
10.7278940357
 20
15.6223067401
 10
10.7072242478
 20
15.6680981844
 10
10.684008356
 20
15.7125960437
 10
10.6583232128
 20
15.755652773
 10
10.6302544703
 20
15.7971252272
 10
10.5998948211
 20
15.8368755414
 10
10.5673451704
 20
15.8747720102
 10
10.5327146371
 20
15.910688502
 10
10.4961170332
 20
15.9445056313
 10
10.457674384
 20
15.9761110529
 10
10.4175139946
 20
16.0054000479
 10
10.3757702102
 20
16.0322752308
 10
10.3325814824
 20
16.0566471359
 10
10.2880903697
 20
16.0784348042
 10
10.242445297
 20
16.0975663698
 10
10.1957982092
 20
16.1139775936
 10
10.1483033979
 20
16.1276142094
 10
10.1001192612
 20
16.1384310444
 10
10.0514053706
 20
16.1463920191
 10
10.0023236443
 20
16.1514707338
 10
9.9530377603
 20
16.1536501753
 10
9.9037102234
 20
16.152923597
 10
9.8545058852
 20
16.149292759
 10
9.805587837
 20
16.1427702743
 10
9.7571185835
 20
16.1333775561
 10
9.7092594564
 20
16.1211456974
 10
9.6621688537
 20
16.1061154711
 10
9.6160037071
 20
16.0883367431
 10
9.5709171346
 20
16.0678687662
 10
9.5270587346
 20
16.0447792996
 10
9.4845745853
 20
16.0191451958
 10
9.4436057786
 20
15.9910515203
 10
9.4042881261
 20
15.9605915522
 10
9.3667524531
 20
15.9278667836
 10
9.3311234247
 20
15.8929854532
 10
9.2975192529
 20
15.8560637197
 10
9.2660516964
 20
15.817224195
 10
9.2368251807
 20
15.776595651
 10
9.2099370913
 20
15.7343136062
 10
9.1854763072
 20
15.6905179788
 10
9.1635243741
 20
15.6453545538
 10
9.1441543312
 20
15.5989735163
 10
9.1274301244
 20
15.5515282777
 10
9.1134077798
 20
15.5031772363
 10
9.10213335
 20
15.4540802568
 10
9.0936446747
 20
15.4044010173
 10
9.0879699136
 20
15.3543043694
 10
9.0851275464
 20
15.3039569243
 10
9.0851275464
 20
15.2535252936
 10
9.0879699136
 20
15.2031778486
 10
9.0936446747
 20
15.1530812006
 10
9.10213335
 20
15.1034019612
 10
9.1134077798
 20
15.0543051283
 10
9.1274301244
 20
15.0059539402
 10
9.1441543312
 20
14.9585088483
 10
9.1635243741
 20
14.9121276641
 10
9.1854763072
 20
14.8669642392
 10
9.2099370913
 20
14.8231686118
 10
9.2368251807
 20
14.7808865669
 10
9.2660516964
 20
14.7402581696
 10
9.2975192529
 20
14.7014186449
 10
9.3311234247
 20
14.6644969114
 10
9.3667524531
 20
14.6296155811
 10
9.4042881261
 20
14.5968906658
 10
9.4436057786
 20
14.5664306976
 10
9.4845745853
 20
14.5383370222
 10
9.5270587346
 20
14.5127029183
 10
9.5709171346
 20
14.4896134517
 10
9.6160037071
 20
14.4691454748
 10
9.6621688537
 20
14.4513667469
 10
9.7092594564
 20
14.4363365205
 10
9.7571185835
 20
14.4241048085
 10
9.805587837
 20
14.4147119436
 10
9.8545058852
 20
14.408189459
 10
9.9037102234
 20
14.4045587676
 10
9.9530377603
 20
14.4038320427
 10
10.0023236443
 20
14.4060116308
 10
10.0514053706
 20
14.4110903455
 10
10.1001192612
 20
14.4190513202
 10
10.1483033979
 20
14.4298681552
 10
10.1957982092
 20
14.443504771
 10
10.242445297
 20
14.4599159948
 10
10.2880903697
 20
14.4790472671
 10
10.3325814824
 20
14.5008350821
 10
10.3757702102
 20
14.5252069872
 10
10.4175139946
 20
14.5520820234
 10
10.457674384
 20
14.5813710184
 10
10.4961170332
 20
14.6129765866
 10
10.5327146371
 20
14.646793716
 10
10.5673451704
 20
14.6827102077
 10
10.5998948211
 20
14.7206065299
 10
10.6302544703
 20
14.7603569907
 10
10.6583232128
 20
14.801829445
 10
10.684008356
 20
14.8448861742
 10
10.7072242478
 20
14.8893841802
 10
10.7278940357
 20
14.9351754779
 10
10.7459484938
 20
14.9821081224
 10
10.7613283695
 20
15.0300262088
 10
10.7739820367
 20
15.0787704591
 10
10.7838678425
 20
15.1281789549
 10
10.7909523473
 20
15.1780875784
 10
10.7952126714
 20
15.228330598
 10
10.7966341483
 20
15.278741109
  0
LINE
  5
531
330
1F
100
AcDbEntity
  8
SLD-0
  6
Continuous
370
    15
100
AcDbLine
 10
12.814185668
 20
13.7787410904
 30
0.0
 11
13.1198753634
 21
13.7787410904
 31
0.0
  0
LINE
  5
532
330
1F
100
AcDbEntity
  8
SLD-0
  6
Continuous
370
    15
100
AcDbLine
 10
13.1198753634
 20
18.2787408527
 30
0.0
 11
6.7615309622
 21
18.2787408527
 31
0.0
  0
LINE
  5
533
330
1F
100
AcDbEntity
  8
SLD-0
  6
Continuous
370
    15
100
AcDbLine
 10
12.8191687572
 20
13.2787411331
 30
0.0
 11
12.814185668
 21
13.2787411331
 31
0.0
  0
LINE
  5
534
330
1F
100
AcDbEntity
  8
SLD-0
  6
Continuous
370
    15
100
AcDbLine
 10
12.8191687572
 20
13.2787411331
 30
0.0
 11
12.8191687572
 21
13.7787410904
 31
0.0
  0
ARC
  5
535
330
1F
100
AcDbEntity
  8
SLD-0
  6
Continuous
370
    15
100
AcDbCircle
 10
9.961053969
 20
15.2787410356
 30
0.0
 40
0.8751784979272577
100
AcDbArc
 50
91.1692782112
 51
268.8307217888
  0
LINE
  5
536
330
1F
100
AcDbEntity
  8
SLD-0
  6
Continuous
370
    15
100
AcDbLine
 10
22.7483428012
 20
47.1951411013
 30
0.0
 11
21.4353428224
 21
47.1951411013
 31
0.0
  0
LINE
  5
537
330
1F
100
AcDbEntity
  8
SLD-0
  6
Continuous
370
    15
100
AcDbLine
 10
21.0509914224
 20
47.1951411013
 30
0.0
 11
20.9536786266
 21
47.1951411013
 31
0.0
  0
LINE
  5
538
330
1F
100
AcDbEntity
  8
SLD-0
  6
Continuous
370
    15
100
AcDbLine
 10
23.1343427154
 20
47.2227422758
 30
0.0
 11
23.1343427154
 21
47.1951411013
 31
0.0
  0
LINE
  5
539
330
1F
100
AcDbEntity
  8
SLD-0
  6
Continuous
370
    15
100
AcDbLine
 10
23.1343427154
 20
47.1951411013
 30
0.0
 11
23.1233428425
 21
47.1951411013
 31
0.0
  0
LINE
  5
53A
330
1F
100
AcDbEntity
  8
SLD-0
  6
Continuous
370
    15
100
AcDbLine
 10
23.1343427154
 20
47.1926419302
 30
0.0
 11
23.1343427154
 21
47.1951411013
 31
0.0
  0
LINE
  5
53B
330
1F
100
AcDbEntity
  8
SLD-0
  6
Continuous
370
    15
100
AcDbLine
 10
23.9269425192
 20
47.1801413813
 30
0.0
 11
23.899342518
 21
47.1801413813
 31
0.0
  0
LINE
  5
53C
330
1F
100
AcDbEntity
  8
SLD-0
  6
Continuous
370
    15
100
AcDbLine
 10
23.899342518
 20
47.1801413813
 30
0.0
 11
23.899342518
 21
46.7443047094
 31
0.0
  0
LINE
  5
53D
330
1F
100
AcDbEntity
  8
SLD-0
  6
Continuous
370
    15
100
AcDbLine
 10
23.9269425192
 20
47.1801413813
 30
0.0
 11
23.9269425192
 21
46.7730440041
 31
0.0
  0
LINE
  5
53E
330
1F
100
AcDbEntity
  8
SLD-0
  6
Continuous
370
    15
100
AcDbLine
 10
6.3839427241
 20
47.2744410919
 30
0.0
 11
20.8839423655
 21
47.2744410919
 31
0.0
  0
LINE
  5
53F
330
1F
100
AcDbEntity
  8
SLD-0
  6
Continuous
370
    15
100
AcDbLine
 10
20.8839423655
 20
47.2744410919
 30
0.0
 11
20.8839423655
 21
47.2444416518
 31
0.0
  0
LINE
  5
540
330
1F
100
AcDbEntity
  8
SLD-0
  6
Continuous
370
    15
100
AcDbLine
 10
6.3839427241
 20
47.2744410919
 30
0.0
 11
6.3839427241
 21
47.2444416518
 31
0.0
  0
LINE
  5
541
330
1F
100
AcDbEntity
  8
SLD-0
  6
Continuous
370
    15
100
AcDbLine
 10
6.3839427241
 20
47.281882286
 30
0.0
 11
6.3839427241
 21
47.2744410919
 31
0.0
  0
LINE
  5
542
330
1F
100
AcDbEntity
  8
SLD-0
  6
Continuous
370
    15
100
AcDbLine
 10
20.8839423655
 20
47.281882286
 30
0.0
 11
6.3839427241
 21
47.281882286
 31
0.0
  0
LINE
  5
543
330
1F
100
AcDbEntity
  8
SLD-0
  6
Continuous
370
    15
100
AcDbLine
 10
20.8839423655
 20
47.2744410919
 30
0.0
 11
20.8839423655
 21
47.281882286
 31
0.0
  0
ARC
  5
544
330
1F
100
AcDbEntity
  8
SLD-0
  6
Continuous
370
    15
100
AcDbCircle
 10
17.7589429991
 20
49.4254177302
 30
0.0
 40
0.1258714315885898
100
AcDbArc
 50
6.7451147892
 51
173.2548852108
  0
LINE
  5
545
330
1F
100
AcDbEntity
  8
SLD-0
  6
Continuous
370
    15
100
AcDbLine
 10
17.6339427898
 20
49.4402016729
 30
0.0
 11
17.6339427898
 21
48.5764224247
 31
0.0
  0
ARC
  5
546
330
1F
100
AcDbEntity
  8
SLD-0
  6
Continuous
370
    15
100
AcDbCircle
 10
17.7589429991
 20
48.591205452
 30
0.0
 40
0.1258713240874611
100
AcDbArc
 50
186.7447010348
 51
353.2552989652
  0
LINE
  5
547
330
1F
100
AcDbEntity
  8
SLD-0
  6
Continuous
370
    15
100
AcDbLine
 10
17.8839432084
 20
49.4402016729
 30
0.0
 11
17.8839432084
 21
48.5764224247
 31
0.0
  0
LINE
  5
548
330
1F
100
AcDbEntity
  8
SLD-0
  6
Continuous
370
    15
100
AcDbLine
 10
23.0089429907
 20
48.7595565224
 30
0.0
 11
20.8839423655
 21
48.7595565224
 31
0.0
  0
LINE
  5
549
330
1F
100
AcDbEntity
  8
SLD-0
  6
Continuous
370
    15
100
AcDbLine
 10
20.8839423655
 20
48.744441817
 30
0.0
 11
20.8839423655
 21
48.7595565224
 31
0.0
  0
LINE
  5
54A
330
1F
100
AcDbEntity
  8
SLD-0
  6
Continuous
370
    15
100
AcDbLine
 10
20.8839423655
 20
48.744441817
 30
0.0
 11
20.8839423655
 21
47.281882286
 31
0.0
  0
LINE
  5
54B
330
1F
100
AcDbEntity
  8
SLD-0
  6
Continuous
370
    15
100
AcDbLine
 10
6.3839427241
 20
50.2373457442
 30
0.0
 11
6.3839427241
 21
47.281882286
 31
0.0
  0
LINE
  5
54C
330
1F
100
AcDbEntity
  8
SLD-0
  6
Continuous
370
    15
100
AcDbLine
 10
6.3839427241
 20
50.2373457442
 30
0.0
 11
23.258942236
 21
50.2373457442
 31
0.0
  0
LINE
  5
54D
330
1F
100
AcDbEntity
  8
SLD-0
  6
Continuous
370
    15
100
AcDbLine
 10
23.258942236
 20
50.2373457442
 30
0.0
 11
23.258942236
 21
48.9755013345
 31
0.0
  0
LINE
  5
54E
330
1F
100
AcDbEntity
  8
SLD-0
  6
Continuous
370
    15
100
AcDbLine
 10
23.258942236
 20
48.9755013345
 30
0.0
 11
23.0089429907
 21
48.7595565224
 31
0.0
  0
ARC
  5
54F
330
1F
100
AcDbEntity
  8
SLD-0
  6
Continuous
370
    15
100
AcDbCircle
 10
14.7589426687
 20
49.4254172774
 30
0.0
 40
0.125871484770443
100
AcDbArc
 50
6.7453194679
 51
173.2546805321
  0
LINE
  5
550
330
1F
100
AcDbEntity
  8
SLD-0
  6
Continuous
370
    15
100
AcDbLine
 10
14.6339424594
 20
48.5764224247
 30
0.0
 11
14.6339424594
 21
49.4402016729
 31
0.0
  0
ARC
  5
551
330
1F
100
AcDbEntity
  8
SLD-0
  6
Continuous
370
    15
100
AcDbCircle
 10
14.7589426687
 20
48.5912059048
 30
0.0
 40
0.1258713772660681
100
AcDbArc
 50
186.7449057139
 51
353.2550942861
  0
LINE
  5
552
330
1F
100
AcDbEntity
  8
SLD-0
  6
Continuous
370
    15
100
AcDbLine
 10
14.883942878
 20
49.4402016729
 30
0.0
 11
14.883942878
 21
48.5764224247
 31
0.0
  0
LINE
  5
553
330
1F
100
AcDbEntity
  8
SLD-0
  6
Continuous
370
    15
100
AcDbLine
 10
23.0089429907
 20
48.744441817
 30
0.0
 11
23.0089429907
 21
48.7595565224
 31
0.0
  0
LINE
  5
554
330
1F
100
AcDbEntity
  8
SLD-0
  6
Continuous
370
    15
100
AcDbLine
 10
20.8839423655
 20
48.744441817
 30
0.0
 11
23.0089429907
 21
48.744441817
 31
0.0
  0
LINE
  5
555
330
1F
100
AcDbEntity
  8
SLD-0
  6
Continuous
370
    15
100
AcDbLine
 10
23.258942236
 20
48.9603866291
 30
0.0
 11
23.258942236
 21
48.9755013345
 31
0.0
  0
LINE
  5
556
330
1F
100
AcDbEntity
  8
SLD-0
  6
Continuous
370
    15
100
AcDbLine
 10
23.258942236
 20
48.9603866291
 30
0.0
 11
23.0089429907
 21
48.744441817
 31
0.0
  0
ARC
  5
557
330
1F
100
AcDbEntity
  8
SLD-0
  6
Continuous
370
    15
100
AcDbCircle
 10
14.7589426687
 20
49.4103011407
 30
0.0
 40
0.1258713772660681
100
AcDbArc
 50
6.7449057139
 51
173.2550942861
  0
ARC
  5
558
330
1F
100
AcDbEntity
  8
SLD-0
  6
Continuous
370
    15
100
AcDbCircle
 10
17.7589429991
 20
49.4103015935
 30
0.0
 40
0.1258713240874619
100
AcDbArc
 50
6.7447010348
 51
173.2552989652
  0
LINE
  5
559
330
1F
100
AcDbEntity
  8
SLD-0
  6
Continuous
370
    15
100
AcDbLine
 10
23.258942236
 20
50.2596716729
 30
0.0
 11
23.258942236
 21
50.2373457442
 31
0.0
  0
LINE
  5
55A
330
1F
100
AcDbEntity
  8
SLD-0
  6
Continuous
370
    15
100
AcDbLine
 10
6.3839427241
 20
50.2373457442
 30
0.0
 11
6.3839427241
 21
50.2596716729
 31
0.0
  0
LINE
  5
55B
330
1F
100
AcDbEntity
  8
SLD-0
  6
Continuous
370
    15
100
AcDbLine
 10
22.7483428012
 20
47.174713604
 30
0.0
 11
22.7483428012
 21
47.1917408206
 31
0.0
  0
LINE
  5
55C
330
1F
100
AcDbEntity
  8
SLD-0
  6
Continuous
370
    15
100
AcDbLine
 10
22.7483428012
 20
47.1917408206
 30
0.0
 11
23.1233428425
 21
47.1917408206
 31
0.0
  0
LINE
  5
55D
330
1F
100
AcDbEntity
  8
SLD-0
  6
Continuous
370
    15
100
AcDbLine
 10
23.1233428425
 20
46.5977406426
 30
0.0
 11
23.1233428425
 21
47.1917408206
 31
0.0
  0
LINE
  5
55E
330
1F
100
AcDbEntity
  8
SLD-0
  6
Continuous
370
    15
100
AcDbLine
 10
21.6492859509
 20
46.5977406426
 30
0.0
 11
23.1233428425
 21
46.5977406426
 31
0.0
  0
LINE
  5
55F
330
1F
100
AcDbEntity
  8
SLD-0
  6
Continuous
370
    15
100
AcDbLine
 10
21.0552857728
 20
47.1917408206
 30
0.0
 11
21.4353428224
 21
47.1917408206
 31
0.0
  0
LINE
  5
560
330
1F
100
AcDbEntity
  8
SLD-0
  6
Continuous
370
    15
100
AcDbLine
 10
21.4353428224
 20
47.1917408206
 30
0.0
 11
21.4353428224
 21
47.174713604
 31
0.0
  0
LINE
  5
561
330
1F
100
AcDbEntity
  8
SLD-0
  6
Continuous
370
    15
100
AcDbLine
 10
21.4353428224
 20
47.174713604
 30
0.0
 11
22.7483428012
 21
47.174713604
 31
0.0
  0
LINE
  5
562
330
1F
100
AcDbEntity
  8
SLD-0
  6
Continuous
370
    15
100
AcDbLine
 10
21.6492859509
 20
46.5977406426
 30
0.0
 11
21.0552857728
 21
47.1917408206
 31
0.0
  0
SPLINE
  5
563
330
1F
100
AcDbEntity
  8
SLD-0
  6
Continuous
370
    15
100
AcDbSpline
210
0.0
220
0.0
230
1.0
 70
     8
 71
     3
 72
    11
 73
     7
 74
     0
 42
0.00000001
 43
0.00000001
 12
1.0
 22
0.0
 32
0.0
 13
1.0
 23
0.0
 33
0.0
 40
0.0
 40
0.0
 40
0.0
 40
0.0
 40
0.2500080302662009
 40
0.5000016044966806
 40
0.7500029254523414
 40
1.0
 40
1.0
 40
1.0
 40
1.0
 10
20.99534321195231
 20
47.24444165180703
 30
0.0
 10
21.00033833541331
 20
47.2436489888572
 30
0.0
 10
21.01032829350585
 20
47.24206370879109
 30
0.0
 10
21.02531485992552
 20
47.229877758642
 30
0.0
 10
21.04029993093586
 20
47.21245726060022
 30
0.0
 10
21.0502905204775
 20
47.19864626150954
 30
0.0
 10
21.05528577282406
 20
47.19174082061153
 30
0.0
  0
SPLINE
  5
564
330
1F
100
AcDbEntity
  8
SLD-0
  6
Continuous
370
    15
100
AcDbSpline
210
0.0
220
0.0
230
1.0
 70
     8
 71
     3
 72
    11
 73
     7
 74
     0
 42
0.00000001
 43
0.00000001
 12
1.0
 22
0.0
 32
0.0
 13
1.0
 23
0.0
 33
0.0
 40
0.0
 40
0.0
 40
0.0
 40
0.0
 40
0.2500020672988553
 40
0.5000002184894541
 40
0.7499904161723301
 40
1.0
 40
1.0
 40
1.0
 40
1.0
 10
20.99534321195231
 20
47.22274227581341
 30
0.0
 10
21.00033842266796
 20
47.22227603177807
 30
0.0
 10
21.01032876585276
 20
47.22134355101078
 30
0.0
 10
21.0253141310148
 20
47.21417309129797
 30
0.0
 10
21.0403008610874
 20
47.20392918715591
 30
0.0
 10
21.05029067313582
 20
47.19580371447411
 30
0.0
 10
21.05528577282406
 20
47.19174082061153
 30
0.0
  0
LINE
  5
565
330
1F
100
AcDbEntity
  8
SLD-0
  6
Continuous
370
    15
100
AcDbLine
 10
20.995343212
 20
47.2444416518
 30
0.0
 11
20.995343212
 21
47.2227422758
 31
0.0
  0
LINE
  5
566
330
1F
100
AcDbEntity
  8
SLD-0
  6
Continuous
370
    15
100
AcDbLine
 10
20.995343212
 20
47.2444416518
 30
0.0
 11
21.4353428224
 21
47.2444416518
 31
0.0
  0
LINE
  5
567
330
1F
100
AcDbEntity
  8
SLD-0
  6
Continuous
370
    15
100
AcDbLine
 10
21.4353428224
 20
47.1917408206
 30
0.0
 11
21.4353428224
 21
47.2444416518
 31
0.0
  0
LINE
  5
568
330
1F
100
AcDbEntity
  8
SLD-0
  6
Continuous
370
    15
100
AcDbLine
 10
22.7483428012
 20
47.2444416518
 30
0.0
 11
22.7483428012
 21
47.1917408206
 31
0.0
  0
LINE
  5
569
330
1F
100
AcDbEntity
  8
SLD-0
  6
Continuous
370
    15
100
AcDbLine
 10
22.7483428012
 20
47.2444416518
 30
0.0
 11
23.1233428425
 21
47.2444416518
 31
0.0
  0
LINE
  5
56A
330
1F
100
AcDbEntity
  8
SLD-0
  6
Continuous
370
    15
100
AcDbLine
 10
23.1233428425
 20
47.1917408206
 30
0.0
 11
23.1233428425
 21
47.2444416518
 31
0.0
  0
SPLINE
  5
56B
330
1F
100
AcDbEntity
  8
SLD-0
  6
Continuous
370
    15
100
AcDbSpline
210
0.0
220
0.0
230
1.0
 70
     8
 71
     3
 72
    11
 73
     7
 74
     0
 42
0.00000001
 43
0.00000001
 12
1.0
 22
0.0
 32
0.0
 13
1.0
 23
0.0
 33
0.0
 40
0.0
 40
0.0
 40
0.0
 40
0.0
 40
0.2500065976048202
 40
0.4999948725725369
 40
0.7500043402451054
 40
1.0
 40
1.0
 40
1.0
 40
1.0
 10
5.788350424430655
 20
47.24444165180703
 30
0.0
 10
5.78795460860059
 20
47.24364903444964
 30
0.0
 10
5.787163005949256
 20
47.2420638578247
 30
0.0
 10
5.786658703169676
 20
47.2298772068639
 30
0.0
 10
5.787238641810503
 20
47.21245774588632
 30
0.0
 10
5.788980296921124
 20
47.19864633523323
 30
0.0
 10
5.78985110042805
 20
47.19174082061153
 30
0.0
  0
LINE
  5
56C
330
1F
100
AcDbEntity
  8
SLD-0
  6
Continuous
370
    15
100
AcDbLine
 10
5.7883504244
 20
47.2444416518
 30
0.0
 11
20.995343212
 21
47.2444416518
 31
0.0
  0
SPLINE
  5
56D
330
1F
100
AcDbEntity
  8
SLD-0
  6
Continuous
370
    15
100
AcDbSpline
210
0.0
220
0.0
230
1.0
 70
     8
 71
     3
 72
    12
 73
     8
 74
     0
 42
0.00000001
 43
0.00000001
 12
1.0
 22
0.0
 32
0.0
 13
1.0
 23
0.0
 33
0.0
 40
0.0
 40
0.0
 40
0.0
 40
0.0
 40
0.2373815731797834
 40
0.4749137301542748
 40
0.7124365315249235
 40
0.949949448482094
 40
1.0
 40
1.0
 40
1.0
 40
1.0
 10
20.94627967207184
 20
47.19174082061153
 30
0.0
 10
20.94944651951743
 20
47.19829105509989
 30
0.0
 10
20.95578222330889
 20
47.21139567923978
 30
0.0
 10
20.96713142511582
 20
47.22836356807635
 30
0.0
 10
20.97949138947165
 20
47.24024418829252
 30
0.0
 10
20.98914968706663
 20
47.24421229692158
 30
0.0
 10
20.99442503522383
 20
47.24440765043911
 30
0.0
 10
20.99534321195231
 20
47.24444165180703
 30
0.0
  0
LINE
  5
56E
330
1F
100
AcDbEntity
  8
SLD-0
  6
Continuous
370
    15
100
AcDbLine
 10
20.9462796721
 20
47.1917408206
 30
0.0
 11
5.7898511004
 21
47.1917408206
 31
0.0
  0
LINE
  5
56F
330
1F
100
AcDbEntity
  8
SLD-0
  6
Continuous
370
    15
100
AcDbLine
 10
20.9462796721
 20
47.1917408206
 30
0.0
 11
20.9507746601
 21
47.1917408206
 31
0.0
  0
SPLINE
  5
570
330
1F
100
AcDbEntity
  8
SLD-0
  6
Continuous
370
    15
100
AcDbSpline
210
0.0
220
0.0
230
1.0
 70
     8
 71
     3
 72
    11
 73
     7
 74
     0
 42
0.00000001
 43
0.00000001
 12
1.0
 22
0.0
 32
0.0
 13
1.0
 23
0.0
 33
0.0
 40
0.0
 40
0.0
 40
0.0
 40
0.0
 40
0.2752446558078267
 40
0.5507992755590019
 40
0.8263645087286396
 40
0.9999999999999999
 40
0.9999999999999999
 40
0.9999999999999999
 40
0.9999999999999999
 10
20.95077466014536
 20
47.19174082061153
 30
0.0
 10
20.95439383923656
 20
47.19621441714585
 30
0.0
 10
20.96163627312035
 20
47.20516664810929
 30
0.0
 10
20.97393528809275
 20
47.21604370268968
 30
0.0
 10
20.98535612444107
 20
47.22192443183656
 30
0.0
 10
20.99255899227683
 20
47.22251427567932
 30
0.0
 10
20.99534321195231
 20
47.22274227581341
 30
0.0
  0
LINE
  5
571
330
1F
100
AcDbEntity
  8
SLD-0
  6
Continuous
370
    15
100
AcDbLine
 10
20.9462796721
 20
47.1917408206
 30
0.0
 11
20.5682876653
 21
46.5977406426
 31
0.0
  0
LINE
  5
572
330
1F
100
AcDbEntity
  8
SLD-0
  6
Continuous
370
    15
100
AcDbLine
 10
20.5682876653
 20
46.5977406426
 30
0.0
 11
5.9129192187
 21
46.5977406426
 31
0.0
  0
LINE
  5
573
330
1F
100
AcDbEntity
  8
SLD-0
  6
Continuous
370
    15
100
AcDbLine
 10
5.9129192187
 20
46.5977406426
 30
0.0
 11
5.7898511004
 21
47.1917408206
 31
0.0
  0
LINE
  5
574
330
1F
100
AcDbEntity
  8
SLD-0
  6
Continuous
370
    15
100
AcDbLine
 10
20.9507746601
 20
47.1917408206
 30
0.0
 11
20.5727838267
 21
46.5977406426
 31
0.0
  0
LINE
  5
575
330
1F
100
AcDbEntity
  8
SLD-0
  6
Continuous
370
    15
100
AcDbLine
 10
20.5682876653
 20
46.5977406426
 30
0.0
 11
20.5727838267
 21
46.5977406426
 31
0.0
  0
LINE
  5
576
330
1F
100
AcDbEntity
  8
SLD-0
  6
Continuous
370
    15
100
AcDbLine
 10
23.9023426967
 20
47.2227422758
 30
0.0
 11
23.9023426967
 21
47.2444416518
 31
0.0
  0
LINE
  5
577
330
1F
100
AcDbEntity
  8
SLD-0
  6
Continuous
370
    15
100
AcDbLine
 10
23.1233428425
 20
47.2227422758
 30
0.0
 11
23.9023426967
 21
47.2227422758
 31
0.0
  0
LINE
  5
578
330
1F
100
AcDbEntity
  8
SLD-0
  6
Continuous
370
    15
100
AcDbLine
 10
23.1233428425
 20
47.2444416518
 30
0.0
 11
23.9023426967
 21
47.2444416518
 31
0.0
  0
LINE
  5
579
330
1F
100
AcDbEntity
  8
SLD-0
  6
Continuous
370
    15
100
AcDbLine
 10
23.9333429786
 20
47.1917408206
 30
0.0
 11
23.9550423546
 21
47.1917408206
 31
0.0
  0
ARC
  5
57A
330
1F
100
AcDbEntity
  8
SLD-0
  6
Continuous
370
    15
100
AcDbCircle
 10
23.9023426829
 20
47.1917411246
 30
0.0
 40
0.0310000000000059
100
AcDbArc
 50
0.0
 51
90.0
  0
ARC
  5
57B
330
1F
100
AcDbEntity
  8
SLD-0
  6
Continuous
370
    15
100
AcDbCircle
 10
23.9023426829
 20
47.1917411246
 30
0.0
 40
0.0527000000000086
100
AcDbArc
 50
0.0
 51
90.0
  0
LINE
  5
57C
330
1F
100
AcDbEntity
  8
SLD-0
  6
Continuous
370
    15
100
AcDbLine
 10
23.9333429786
 20
46.7819612344
 30
0.0
 11
23.9333429786
 21
47.1917408206
 31
0.0
  0
LINE
  5
57D
330
1F
100
AcDbEntity
  8
SLD-0
  6
Continuous
370
    15
100
AcDbLine
 10
22.7483428012
 20
47.2227422758
 30
0.0
 11
21.4353428224
 21
47.2227422758
 31
0.0
  0
LINE
  5
57E
330
1F
100
AcDbEntity
  8
SLD-0
  6
Continuous
370
    15
100
AcDbLine
 10
22.7483428012
 20
47.2444416518
 30
0.0
 11
21.4353428224
 21
47.2444416518
 31
0.0
  0
LINE
  5
57F
330
1F
100
AcDbEntity
  8
SLD-0
  6
Continuous
370
    15
100
AcDbLine
 10
4.7993426829
 20
47.2444416518
 30
0.0
 11
4.7993426829
 21
47.2227422758
 31
0.0
  0
LINE
  5
580
330
1F
100
AcDbEntity
  8
SLD-0
  6
Continuous
370
    15
100
AcDbLine
 10
4.7993426829
 20
47.2227422758
 30
0.0
 11
5.7883504244
 21
47.2227422758
 31
0.0
  0
LINE
  5
581
330
1F
100
AcDbEntity
  8
SLD-0
  6
Continuous
370
    15
100
AcDbLine
 10
4.7993426829
 20
47.2444416518
 30
0.0
 11
5.7883504244
 21
47.2444416518
 31
0.0
  0
LINE
  5
582
330
1F
100
AcDbEntity
  8
SLD-0
  6
Continuous
370
    15
100
AcDbLine
 10
4.7683426829
 20
47.1917408206
 30
0.0
 11
4.7466426812
 21
47.1917408206
 31
0.0
  0
SPLINE
  5
583
330
1F
100
AcDbEntity
  8
SLD-0
  6
Continuous
370
    15
100
AcDbSpline
210
0.0
220
0.0
230
1.0
 70
     8
 71
     3
 72
    11
 73
     7
 74
     0
 42
0.00000001
 43
0.00000001
 12
1.0
 22
0.0
 32
0.0
 13
1.0
 23
0.0
 33
0.0
 40
0.0
 40
0.0
 40
0.0
 40
0.0
 40
0.2500242354706087
 40
0.4999929702161358
 40
0.7499990365112967
 40
1.0
 40
1.0
 40
1.0
 40
1.0
 10
4.768342682855459
 20
47.19174082061153
 30
0.0
 10
4.76880847151947
 20
47.19580356482319
 30
0.0
 10
4.769739945451079
 20
47.20392815139295
 30
0.0
 10
4.776910174240877
 20
47.21417385496572
 30
0.0
 10
4.787156024230297
 20
47.22134334013975
 30
0.0
 10
4.795280490958325
 20
47.22227596709482
 30
0.0
 10
4.79934268286534
 20
47.22274227581341
 30
0.0
  0
SPLINE
  5
584
330
1F
100
AcDbEntity
  8
SLD-0
  6
Continuous
370
    15
100
AcDbSpline
210
0.0
220
0.0
230
1.0
 70
     8
 71
     3
 72
    11
 73
     7
 74
     0
 42
0.00000001
 43
0.00000001
 12
1.0
 22
0.0
 32
0.0
 13
1.0
 23
0.0
 33
0.0
 40
0.0
 40
0.0
 40
0.0
 40
0.0
 40
0.2499953819880262
 40
0.5000003788106809
 40
0.7499972075542918
 40
0.9999999999999999
 40
0.9999999999999999
 40
0.9999999999999999
 40
0.9999999999999999
 10
4.746642681244063
 20
47.19174082061153
 30
0.0
 10
4.747434906271748
 20
47.19864629473826
 30
0.0
 10
4.749019386796131
 20
47.2124575085766
 30
0.0
 10
4.761205669195829
 20
47.22987771238651
 30
0.0
 10
4.778626028972268
 20
47.24206357434812
 30
0.0
 10
4.792437076657623
 20
47.24364895301757
 30
0.0
 10
4.79934268286534
 20
47.24444165180703
 30
0.0
  0
LINE
  5
585
330
1F
100
AcDbEntity
  8
SLD-0
  6
Continuous
370
    15
100
AcDbLine
 10
4.7466426812
 20
47.1917408206
 30
0.0
 11
4.7466426812
 21
46.5977406426
 31
0.0
  0
LINE
  5
586
330
1F
100
AcDbEntity
  8
SLD-0
  6
Continuous
370
    15
100
AcDbLine
 10
4.7683426829
 20
47.1917408206
 30
0.0
 11
4.7683426829
 21
47.0406735524
 31
0.0
  0
LINE
  5
587
330
1F
100
AcDbEntity
  8
SLD-0
  6
Continuous
370
    15
100
AcDbLine
 10
4.7683426829
 20
46.5977406426
 30
0.0
 11
4.7466426812
 21
46.5977406426
 31
0.0
  0
LINE
  5
588
330
1F
100
AcDbEntity
  8
SLD-0
  6
Continuous
370
    15
100
AcDbLine
 10
20.953874571
 20
47.1917408206
 30
0.0
 11
20.953874571
 21
12.6537411247
 31
0.0
  0
LINE
  5
589
330
1F
100
AcDbEntity
  8
SLD-0
  6
Continuous
370
    15
100
AcDbLine
 10
23.8883426451
 20
47.1917408206
 30
0.0
 11
23.1233428425
 21
47.1917408206
 31
0.0
  0
LINE
  5
58A
330
1F
100
AcDbEntity
  8
SLD-0
  6
Continuous
370
    15
100
AcDbLine
 10
22.7483428012
 20
47.1917408206
 30
0.0
 11
21.4353428224
 21
47.1917408206
 31
0.0
  0
LINE
  5
58B
330
1F
100
AcDbEntity
  8
SLD-0
  6
Continuous
370
    15
100
AcDbLine
 10
21.0552857728
 20
47.1917408206
 30
0.0
 11
20.953874571
 21
47.1917408206
 31
0.0
  0
LINE
  5
58C
330
1F
100
AcDbEntity
  8
SLD-0
  6
Continuous
370
    15
100
AcDbLine
 10
23.8883426451
 20
47.1917408206
 30
0.0
 11
23.8883426451
 21
46.7333036632
 31
0.0
  0
LINE
  5
58D
330
1F
100
AcDbEntity
  8
SLD-0
  6
Continuous
370
    15
100
AcDbLine
 10
23.8883426451
 20
13.1715782078
 30
0.0
 11
23.8883426451
 21
12.6537411247
 31
0.0
  0
LINE
  5
58E
330
1F
100
AcDbEntity
  8
SLD-0
  6
Continuous
370
    15
100
AcDbLine
 10
23.8883426451
 20
12.6537411247
 30
0.0
 11
23.1233428425
 21
12.6537411247
 31
0.0
  0
LINE
  5
58F
330
1F
100
AcDbEntity
  8
SLD-0
  6
Continuous
370
    15
100
AcDbLine
 10
22.7483428012
 20
12.6537411247
 30
0.0
 11
21.4353428224
 21
12.6537411247
 31
0.0
  0
LINE
  5
590
330
1F
100
AcDbEntity
  8
SLD-0
  6
Continuous
370
    15
100
AcDbLine
 10
21.0552857728
 20
12.6537411247
 30
0.0
 11
20.953874571
 21
12.6537411247
 31
0.0
  0
LINE
  5
591
330
1F
100
AcDbEntity
  8
SLD-0
  6
Continuous
370
    15
100
AcDbLine
 10
20.953874571
 20
47.1917408206
 30
0.0
 11
20.9507746601
 21
47.1917408206
 31
0.0
  0
LINE
  5
592
330
1F
100
AcDbEntity
  8
SLD-0
  6
Continuous
370
    15
100
AcDbLine
 10
4.810100436
 20
47.1917408206
 30
0.0
 11
4.810100436
 21
12.6537411247
 31
0.0
  0
LINE
  5
593
330
1F
100
AcDbEntity
  8
SLD-0
  6
Continuous
370
    15
100
AcDbLine
 10
5.7898511004
 20
12.6537411247
 30
0.0
 11
4.810100436
 21
12.6537411247
 31
0.0
  0
LINE
  5
594
330
1F
100
AcDbEntity
  8
SLD-0
  6
Continuous
370
    15
100
AcDbLine
 10
5.7898511004
 20
47.1917408206
 30
0.0
 11
4.810100436
 21
47.1917408206
 31
0.0
  0
LINE
  5
595
330
1F
100
AcDbEntity
  8
SLD-0
  6
Continuous
370
    15
100
AcDbLine
 10
4.7683426829
 20
47.0406735524
 30
0.0
 11
4.7683426829
 21
12.8048089864
 31
0.0
  0
LINE
  5
596
330
1F
100
AcDbEntity
  8
SLD-0
  6
Continuous
370
    15
100
AcDbLine
 10
4.810100436
 20
12.6537411247
 30
0.0
 11
4.7683426829
 21
12.6537411247
 31
0.0
  0
LINE
  5
597
330
1F
100
AcDbEntity
  8
SLD-0
  6
Continuous
370
    15
100
AcDbLine
 10
4.810100436
 20
47.1917408206
 30
0.0
 11
4.7683426829
 21
47.1917408206
 31
0.0
  0
LINE
  5
598
330
1F
100
AcDbEntity
  8
SLD-0
  6
Continuous
370
    15
100
AcDbLine
 10
21.4353428224
 20
12.6707695444
 30
0.0
 11
21.4353428224
 21
12.6537411247
 31
0.0
  0
LINE
  5
599
330
1F
100
AcDbEntity
  8
SLD-0
  6
Continuous
370
    15
100
AcDbLine
 10
21.4353428224
 20
12.6537411247
 30
0.0
 11
21.0552857728
 21
12.6537411247
 31
0.0
  0
LINE
  5
59A
330
1F
100
AcDbEntity
  8
SLD-0
  6
Continuous
370
    15
100
AcDbLine
 10
21.6492859509
 20
13.2477411446
 30
0.0
 11
23.1233428425
 21
13.2477411446
 31
0.0
  0
LINE
  5
59B
330
1F
100
AcDbEntity
  8
SLD-0
  6
Continuous
370
    15
100
AcDbLine
 10
23.1233428425
 20
13.2477411446
 30
0.0
 11
23.1233428425
 21
12.6537411247
 31
0.0
  0
LINE
  5
59C
330
1F
100
AcDbEntity
  8
SLD-0
  6
Continuous
370
    15
100
AcDbLine
 10
23.1233428425
 20
12.6537411247
 30
0.0
 11
22.7483428012
 21
12.6537411247
 31
0.0
  0
LINE
  5
59D
330
1F
100
AcDbEntity
  8
SLD-0
  6
Continuous
370
    15
100
AcDbLine
 10
22.7483428012
 20
12.6537411247
 30
0.0
 11
22.7483428012
 21
12.6707695444
 31
0.0
  0
LINE
  5
59E
330
1F
100
AcDbEntity
  8
SLD-0
  6
Continuous
370
    15
100
AcDbLine
 10
22.7483428012
 20
12.6707695444
 30
0.0
 11
21.4353428224
 21
12.6707695444
 31
0.0
  0
LINE
  5
59F
330
1F
100
AcDbEntity
  8
SLD-0
  6
Continuous
370
    15
100
AcDbLine
 10
21.0552857728
 20
12.6537411247
 30
0.0
 11
21.6492859509
 21
13.2477411446
 31
0.0
  0
LINE
  5
5A0
330
1F
100
AcDbEntity
  8
SLD-0
  6
Continuous
370
    15
100
AcDbLine
 10
21.4353428224
 20
12.6010411253
 30
0.0
 11
21.4353428224
 21
12.6537411247
 31
0.0
  0
LINE
  5
5A1
330
1F
100
AcDbEntity
  8
SLD-0
  6
Continuous
370
    15
100
AcDbLine
 10
21.4353428224
 20
12.6010411253
 30
0.0
 11
20.995343212
 21
12.6010411253
 31
0.0
  0
SPLINE
  5
5A2
330
1F
100
AcDbEntity
  8
SLD-0
  6
Continuous
370
    15
100
AcDbSpline
210
0.0
220
0.0
230
1.0
 70
     8
 71
     3
 72
    11
 73
     7
 74
     0
 42
0.00000001
 43
0.00000001
 12
1.0
 22
0.0
 32
0.0
 13
1.0
 23
0.0
 33
0.0
 40
0.0
 40
0.0
 40
0.0
 40
0.0
 40
0.2500001591632458
 40
0.4999981408869586
 40
0.7499938402505982
 40
1.0
 40
1.0
 40
1.0
 40
1.0
 10
21.05528577282406
 20
12.65374112465626
 30
0.0
 10
21.05029056408222
 20
12.64683548309362
 30
0.0
 10
21.04030019010555
 20
12.63302426011478
 30
0.0
 10
21.02531461254424
 20
12.61560452246031
 30
0.0
 10
21.01032846776993
 20
12.60341742994743
 30
0.0
 10
21.00033836689147
 20
12.60183323791404
 30
0.0
 10
20.99534321195231
 20
12.60104112532615
 30
0.0
  0
LINE
  5
5A3
330
1F
100
AcDbEntity
  8
SLD-0
  6
Continuous
370
    15
100
AcDbLine
 10
20.995343212
 20
12.6010411253
 30
0.0
 11
20.995343212
 21
12.6227411246
 31
0.0
  0
SPLINE
  5
5A4
330
1F
100
AcDbEntity
  8
SLD-0
  6
Continuous
370
    15
100
AcDbSpline
210
0.0
220
0.0
230
1.0
 70
     8
 71
     3
 72
    11
 73
     7
 74
     0
 42
0.00000001
 43
0.00000001
 12
1.0
 22
0.0
 32
0.0
 13
1.0
 23
0.0
 33
0.0
 40
0.0
 40
0.0
 40
0.0
 40
0.0
 40
0.2499993641947845
 40
0.5000027427901154
 40
0.7499983384763157
 40
1.0
 40
1.0
 40
1.0
 40
1.0
 10
21.05528577282406
 20
12.65374112465626
 30
0.0
 10
21.05029052466119
 20
12.64967895658103
 30
0.0
 10
21.04029994812352
 20
12.64155455520171
 30
0.0
 10
21.02531482435111
 20
12.63130796956325
 30
0.0
 10
21.01032859595482
 20
12.6241389732336
 30
0.0
 10
21.00033838035272
 20
12.62320707794358
 30
0.0
 10
20.99534321195231
 20
12.62274112464582
 30
0.0
  0
LINE
  5
5A5
330
1F
100
AcDbEntity
  8
SLD-0
  6
Continuous
370
    15
100
AcDbLine
 10
23.1233428425
 20
12.6010411253
 30
0.0
 11
22.7483428012
 21
12.6010411253
 31
0.0
  0
LINE
  5
5A6
330
1F
100
AcDbEntity
  8
SLD-0
  6
Continuous
370
    15
100
AcDbLine
 10
23.1233428425
 20
12.6010411253
 30
0.0
 11
23.1233428425
 21
12.6537411247
 31
0.0
  0
LINE
  5
5A7
330
1F
100
AcDbEntity
  8
SLD-0
  6
Continuous
370
    15
100
AcDbLine
 10
22.7483428012
 20
12.6537411247
 30
0.0
 11
22.7483428012
 21
12.6010411253
 31
0.0
  0
SPLINE
  5
5A8
330
1F
100
AcDbEntity
  8
SLD-0
  6
Continuous
370
    15
100
AcDbSpline
210
0.0
220
0.0
230
1.0
 70
     8
 71
     3
 72
    11
 73
     7
 74
     0
 42
0.00000001
 43
0.00000001
 12
1.0
 22
0.0
 32
0.0
 13
1.0
 23
0.0
 33
0.0
 40
0.0
 40
0.0
 40
0.0
 40
0.0
 40
0.2500002727922542
 40
0.5000047467051805
 40
0.7499961998431093
 40
1.0
 40
1.0
 40
1.0
 40
1.0
 10
5.78985110042805
 20
12.65374112465626
 30
0.0
 10
5.788980297720615
 20
12.64683543194382
 30
0.0
 10
5.787238677672371
 20
12.63302393047246
 30
0.0
 10
5.786658696526263
 20
12.6156049552411
 30
0.0
 10
5.787162997190236
 20
12.60341733331577
 30
0.0
 10
5.787954608834424
 20
12.60183320769563
 30
0.0
 10
5.788350424430655
 20
12.60104112532615
 30
0.0
  0
LINE
  5
5A9
330
1F
100
AcDbEntity
  8
SLD-0
  6
Continuous
370
    15
100
AcDbLine
 10
5.7898511004
 20
12.6537411247
 30
0.0
 11
20.9462796721
 21
12.6537411247
 31
0.0
  0
SPLINE
  5
5AA
330
1F
100
AcDbEntity
  8
SLD-0
  6
Continuous
370
    15
100
AcDbSpline
210
0.0
220
0.0
230
1.0
 70
     8
 71
     3
 72
    12
 73
     8
 74
     0
 42
0.00000001
 43
0.00000001
 12
1.0
 22
0.0
 32
0.0
 13
1.0
 23
0.0
 33
0.0
 40
0.0
 40
0.0
 40
0.0
 40
0.0
 40
0.2373999065973931
 40
0.47491832605737
 40
0.7124422260407175
 40
0.9499617053958687
 40
1.0
 40
1.0
 40
1.0
 40
1.0
 10
20.99534321195231
 20
12.60104112532615
 30
0.0
 10
20.99096664548108
 20
12.60175450145313
 30
0.0
 10
20.98221132770448
 20
12.60318160983296
 30
0.0
 10
20.96963514680693
 20
12.6142270841074
 30
0.0
 10
20.95811605718801
 20
12.63017393527309
 30
0.0
 10
20.95059839621044
 20
12.64447018298387
 30
0.0
 10
20.94691979087323
 20
12.65236699102776
 30
0.0
 10
20.94627967207184
 20
12.65374112465626
 30
0.0
  0
LINE
  5
5AB
330
1F
100
AcDbEntity
  8
SLD-0
  6
Continuous
370
    15
100
AcDbLine
 10
20.995343212
 20
12.6010411253
 30
0.0
 11
5.7883504244
 21
12.6010411253
 31
0.0
  0
LINE
  5
5AC
330
1F
100
AcDbEntity
  8
SLD-0
  6
Continuous
370
    15
100
AcDbLine
 10
20.9462796721
 20
12.6537411247
 30
0.0
 11
20.9507746601
 21
12.6537411247
 31
0.0
  0
SPLINE
  5
5AD
330
1F
100
AcDbEntity
  8
SLD-0
  6
Continuous
370
    15
100
AcDbSpline
210
0.0
220
0.0
230
1.0
 70
     8
 71
     3
 72
    11
 73
     7
 74
     0
 42
0.00000001
 43
0.00000001
 12
1.0
 22
0.0
 32
0.0
 13
1.0
 23
0.0
 33
0.0
 40
0.0
 40
0.0
 40
0.0
 40
0.0
 40
0.275231635748767
 40
0.5507964932314838
 40
0.826368365543025
 40
1.0
 40
1.0
 40
1.0
 40
1.0
 10
20.99534321195231
 20
12.62274112464585
 30
0.0
 10
20.9909148468434
 20
12.62330819304592
 30
0.0
 10
20.98205275522336
 20
12.62444301639329
 30
0.0
 10
20.9692901879406
 20
12.63307785252918
 30
0.0
 10
20.958840142677
 20
12.64364985889104
 30
0.0
 10
20.95302312498294
 20
12.65092791959993
 30
0.0
 10
20.95077466014536
 20
12.65374112465626
 30
0.0
  0
LINE
  5
5AE
330
1F
100
AcDbEntity
  8
SLD-0
  6
Continuous
370
    15
100
AcDbLine
 10
20.5682876653
 20
13.2477411446
 30
0.0
 11
20.9462796721
 21
12.6537411247
 31
0.0
  0
LINE
  5
5AF
330
1F
100
AcDbEntity
  8
SLD-0
  6
Continuous
370
    15
100
AcDbLine
 10
5.7898511004
 20
12.6537411247
 30
0.0
 11
5.9129192187
 21
13.2477411446
 31
0.0
  0
LINE
  5
5B0
330
1F
100
AcDbEntity
  8
SLD-0
  6
Continuous
370
    15
100
AcDbLine
 10
20.5682876653
 20
13.2477411446
 30
0.0
 11
5.9129192187
 21
13.2477411446
 31
0.0
  0
LINE
  5
5B1
330
1F
100
AcDbEntity
  8
SLD-0
  6
Continuous
370
    15
100
AcDbLine
 10
20.5682876653
 20
13.2477411446
 30
0.0
 11
20.5727838267
 21
13.2477411446
 31
0.0
  0
LINE
  5
5B2
330
1F
100
AcDbEntity
  8
SLD-0
  6
Continuous
370
    15
100
AcDbLine
 10
20.5727838267
 20
13.2477411446
 30
0.0
 11
20.9507746601
 21
12.6537411247
 31
0.0
  0
LINE
  5
5B3
330
1F
100
AcDbEntity
  8
SLD-0
  6
Continuous
370
    15
100
AcDbLine
 10
23.9023426967
 20
12.6227411246
 30
0.0
 11
23.9023426967
 21
12.6010411253
 31
0.0
  0
LINE
  5
5B4
330
1F
100
AcDbEntity
  8
SLD-0
  6
Continuous
370
    15
100
AcDbLine
 10
23.2386426305
 20
12.6010411253
 30
0.0
 11
23.1233428425
 21
12.6010411253
 31
0.0
  0
LINE
  5
5B5
330
1F
100
AcDbEntity
  8
SLD-0
  6
Continuous
370
    15
100
AcDbLine
 10
23.9023426967
 20
12.6227411246
 30
0.0
 11
23.1233428425
 21
12.6227411246
 31
0.0
  0
LINE
  5
5B6
330
1F
100
AcDbEntity
  8
SLD-0
  6
Continuous
370
    15
100
AcDbLine
 10
23.9333429786
 20
12.6537411247
 30
0.0
 11
23.9550423546
 21
12.6537411247
 31
0.0
  0
ARC
  5
5B7
330
1F
100
AcDbEntity
  8
SLD-0
  6
Continuous
370
    15
100
AcDbCircle
 10
23.9023426829
 20
12.6537411246
 30
0.0
 40
0.0526999999999997
100
AcDbArc
 50
270.0
 51
0.0
  0
ARC
  5
5B8
330
1F
100
AcDbEntity
  8
SLD-0
  6
Continuous
370
    15
100
AcDbCircle
 10
23.9023426829
 20
12.6537411246
 30
0.0
 40
0.0310000000000006
100
AcDbArc
 50
270.0
 51
0.0
  0
LINE
  5
5B9
330
1F
100
AcDbEntity
  8
SLD-0
  6
Continuous
370
    15
100
AcDbLine
 10
23.9333429786
 20
12.6537411247
 30
0.0
 11
23.9333429786
 21
13.1227411186
 31
0.0
  0
LINE
  5
5BA
330
1F
100
AcDbEntity
  8
SLD-0
  6
Continuous
370
    15
100
AcDbLine
 10
21.4353428224
 20
12.6010411253
 30
0.0
 11
22.7483428012
 21
12.6010411253
 31
0.0
  0
LINE
  5
5BB
330
1F
100
AcDbEntity
  8
SLD-0
  6
Continuous
370
    15
100
AcDbLine
 10
21.4353428224
 20
12.6227411246
 30
0.0
 11
22.7483428012
 21
12.6227411246
 31
0.0
  0
LINE
  5
5BC
330
1F
100
AcDbEntity
  8
SLD-0
  6
Continuous
370
    15
100
AcDbLine
 10
4.7993426829
 20
12.6010411253
 30
0.0
 11
4.7993426829
 21
12.6227411246
 31
0.0
  0
LINE
  5
5BD
330
1F
100
AcDbEntity
  8
SLD-0
  6
Continuous
370
    15
100
AcDbLine
 10
5.7883504244
 20
12.6010411253
 30
0.0
 11
4.7993426829
 21
12.6010411253
 31
0.0
  0
LINE
  5
5BE
330
1F
100
AcDbEntity
  8
SLD-0
  6
Continuous
370
    15
100
AcDbLine
 10
5.7883504244
 20
12.6227411246
 30
0.0
 11
4.7993426829
 21
12.6227411246
 31
0.0
  0
LINE
  5
5BF
330
1F
100
AcDbEntity
  8
SLD-0
  6
Continuous
370
    15
100
AcDbLine
 10
4.7466426812
 20
12.6537411247
 30
0.0
 11
4.7683426829
 21
12.6537411247
 31
0.0
  0
SPLINE
  5
5C0
330
1F
100
AcDbEntity
  8
SLD-0
  6
Continuous
370
    15
100
AcDbSpline
210
0.0
220
0.0
230
1.0
 70
     8
 71
     3
 72
    11
 73
     7
 74
     0
 42
0.00000001
 43
0.00000001
 12
1.0
 22
0.0
 32
0.0
 13
1.0
 23
0.0
 33
0.0
 40
0.0
 40
0.0
 40
0.0
 40
0.0
 40
0.249999995044648
 40
0.500000001877045
 40
0.7500000049553447
 40
1.0
 40
1.0
 40
1.0
 40
1.0
 10
4.799342682865814
 20
12.60104112532615
 30
0.0
 10
4.792437030713983
 20
12.60183328912991
 30
0.0
 10
4.77862572608471
 20
12.60341761677477
 30
0.0
 10
4.761206007083862
 20
12.6156044497213
 30
0.0
 10
4.749019172298238
 20
12.63302416778684
 30
0.0
 10
4.747434844920302
 20
12.64683547244042
 30
0.0
 10
4.746642681244063
 20
12.65374112465626
 30
0.0
  0
SPLINE
  5
5C1
330
1F
100
AcDbEntity
  8
SLD-0
  6
Continuous
370
    15
100
AcDbSpline
210
0.0
220
0.0
230
1.0
 70
     8
 71
     3
 72
    11
 73
     7
 74
     0
 42
0.00000001
 43
0.00000001
 12
1.0
 22
0.0
 32
0.0
 13
1.0
 23
0.0
 33
0.0
 40
0.0
 40
0.0
 40
0.0
 40
0.0
 40
0.2500000004913166
 40
0.5000000056863735
 40
0.7500000016699783
 40
1.0
 40
1.0
 40
1.0
 40
1.0
 10
4.799342682865814
 20
12.62274112464591
 30
0.0
 10
4.795280534490032
 20
12.6232071034504
 30
0.0
 10
4.787156237662039
 20
12.62413906106814
 30
0.0
 10
4.776909344331595
 20
12.63130778643533
 30
0.0
 10
4.769740618470212
 20
12.64155467949576
 30
0.0
 10
4.768808661395168
 20
12.64967897625672
 30
0.0
 10
4.768342682855459
 20
12.65374112465626
 30
0.0
  0
LINE
  5
5C2
330
1F
100
AcDbEntity
  8
SLD-0
  6
Continuous
370
    15
100
AcDbLine
 10
4.7466426812
 20
13.2477411446
 30
0.0
 11
4.7683426829
 21
13.2477411446
 31
0.0
  0
LINE
  5
5C3
330
1F
100
AcDbEntity
  8
SLD-0
  6
Continuous
370
    15
100
AcDbLine
 10
4.7683426829
 20
12.8048089864
 30
0.0
 11
4.7683426829
 21
12.6537411247
 31
0.0
  0
LINE
  5
5C4
330
1F
100
AcDbEntity
  8
SLD-0
  6
Continuous
370
    15
100
AcDbLine
 10
4.7466426812
 20
13.2477411446
 30
0.0
 11
4.7466426812
 21
12.6537411247
 31
0.0
  0
LINE
  5
5C5
330
1F
100
AcDbEntity
  8
SLD-0
  6
Continuous
370
    15
100
AcDbLine
 10
20.9836428671
 20
11.6160411141
 30
0.0
 11
20.9292395489
 21
11.6160411141
 31
0.0
  0
LINE
  5
5C6
330
1F
100
AcDbEntity
  8
SLD-0
  6
Continuous
370
    15
100
AcDbLine
 10
20.9836428671
 20
12.518441127
 30
0.0
 11
20.9292395489
 21
12.518441127
 31
0.0
  0
LINE
  5
5C7
330
1F
100
AcDbEntity
  8
SLD-0
  6
Continuous
370
    15
100
AcDbLine
 10
21.4550428615
 20
12.6328236242
 30
0.0
 11
21.4353428224
 21
12.6328236242
 31
0.0
  0
LINE
  5
5C8
330
1F
100
AcDbEntity
  8
SLD-0
  6
Continuous
370
    15
100
AcDbLine
 10
21.0268081285
 20
12.6328236242
 30
0.0
 11
20.9707328296
 21
12.6328236242
 31
0.0
  0
LINE
  5
5C9
330
1F
100
AcDbEntity
  8
SLD-0
  6
Continuous
370
    15
100
AcDbLine
 10
23.3870851823
 20
47.1917408206
 30
0.0
 11
23.3870851823
 21
47.1926419302
 31
0.0
  0
LINE
  5
5CA
330
1F
100
AcDbEntity
  8
SLD-0
  6
Continuous
370
    15
100
AcDbLine
 10
23.3777291304
 20
47.1917408206
 30
0.0
 11
23.3777291304
 21
47.1926419302
 31
0.0
  0
LINE
  5
5CB
330
1F
100
AcDbEntity
  8
SLD-0
  6
Continuous
370
    15
100
AcDbLine
 10
4.8350426834
 20
47.1926419302
 30
0.0
 11
4.8350426834
 21
47.1917408206
 31
0.0
  0
LINE
  5
5CC
330
1F
100
AcDbEntity
  8
SLD-0
  6
Continuous
370
    15
100
AcDbLine
 10
20.9429321907
 20
47.1794162697
 30
0.0
 11
20.9429321907
 21
12.6660665671
 31
0.0
  0
ENDSEC
  0
SECTION
  2
OBJECTS
  0
DICTIONARY
  5
C
330
0
100
AcDbDictionary
281
     1
  3
ACAD_GROUP
350
D
  3
ACAD_LAYOUT
350
1A
  3
ACAD_MATERIAL
350
3B
  3
ACAD_MLEADERSTYLE
350
5CE
  3
ACAD_MLINESTYLE
350
17
  3
ACAD_PLOTSETTINGS
350
19
  3
ACAD_PLOTSTYLENAME
350
E
  3
ACAD_TABLESTYLE
350
5CD
  0
DICTIONARY
  5
D
102
{ACAD_REACTORS
330
C
102
}
330
C
100
AcDbDictionary
281
     1
  0
DICTIONARY
  5
1A
102
{ACAD_REACTORS
330
C
102
}
330
C
100
AcDbDictionary
281
     1
  3
Layout1
350
1E
  3
Layout2
350
26
  3
Model
350
22
  0
DICTIONARY
  5
3B
102
{ACAD_REACTORS
330
C
102
}
330
C
100
AcDbDictionary
281
     1
  3
ByBlock
350
3D
  3
ByLayer
350
3C
  3
Global
350
3E
  0
DICTIONARY
  5
5CE
102
{ACAD_REACTORS
330
C
102
}
330
C
100
AcDbDictionary
281
     1
  0
DICTIONARY
  5
17
102
{ACAD_REACTORS
330
C
102
}
330
C
100
AcDbDictionary
281
     1
  3
Standard
350
18
  0
DICTIONARY
  5
19
102
{ACAD_REACTORS
330
C
102
}
330
C
100
AcDbDictionary
281
     1
  0
ACDBDICTIONARYWDFLT
  5
E
102
{ACAD_REACTORS
330
C
102
}
330
C
100
AcDbDictionary
281
     1
  3
Normal
350
F
100
AcDbDictionaryWithDefault
340
F
  0
DICTIONARY
  5
5CD
102
{ACAD_REACTORS
330
C
102
}
330
C
100
AcDbDictionary
281
     1
  0
LAYOUT
  5
1E
102
{ACAD_REACTORS
330
1A
102
}
330
1A
100
AcDbPlotSettings
  1

  2
none_device
  4

  6

 40
0.0
 41
0.0
 42
0.0
 43
0.0
 44
0.0
 45
0.0
 46
0.0
 47
0.0
 48
0.0
 49
0.0
140
0.0
141
0.0
142
1.0
143
1.0
 70
   688
 72
     0
 73
     0
 74
     5
  7

 75
    16
 76
     0
 77
     2
 78
   300
147
1.0
148
0.0
149
0.0
100
AcDbLayout
  1
Layout1
 70
     1
 71
     1
 10
0.0
 20
0.0
 11
12.0
 21
9.0
 12
0.0
 22
0.0
 32
0.0
 14
1.0000000000E+20
 24
1.0000000000E+20
 34
1.0000000000E+20
 15
-1.0000000000E+20
 25
-1.0000000000E+20
 35
-1.0000000000E+20
146
0.0
 13
0.0
 23
0.0
 33
0.0
 16
1.0
 26
0.0
 36
0.0
 17
0.0
 27
1.0
 37
0.0
 76
     0
330
1B
  0
LAYOUT
  5
26
102
{ACAD_REACTORS
330
1A
102
}
330
1A
100
AcDbPlotSettings
  1

  2
none_device
  4

  6

 40
0.0
 41
0.0
 42
0.0
 43
0.0
 44
0.0
 45
0.0
 46
0.0
 47
0.0
 48
0.0
 49
0.0
140
0.0
141
0.0
142
1.0
143
1.0
 70
   688
 72
     0
 73
     0
 74
     5
  7

 75
    16
 76
     0
 77
     2
 78
   300
147
1.0
148
0.0
149
0.0
100
AcDbLayout
  1
Layout2
 70
     1
 71
     2
 10
0.0
 20
0.0
 11
0.0
 21
0.0
 12
0.0
 22
0.0
 32
0.0
 14
0.0
 24
0.0
 34
0.0
 15
0.0
 25
0.0
 35
0.0
146
0.0
 13
0.0
 23
0.0
 33
0.0
 16
1.0
 26
0.0
 36
0.0
 17
0.0
 27
1.0
 37
0.0
 76
     0
330
23
  0
LAYOUT
  5
22
102
{ACAD_REACTORS
330
1A
102
}
330
1A
100
AcDbPlotSettings
  1

  2
none_device
  4

  6

 40
0.0
 41
0.0
 42
0.0
 43
0.0
 44
0.0
 45
0.0
 46
0.0
 47
0.0
 48
0.0
 49
0.0
140
0.0
141
0.0
142
1.0
143
1.0
 70
  1712
 72
     0
 73
     0
 74
     0
  7

 75
     0
 76
     0
 77
     2
 78
   300
147
1.0
148
0.0
149
0.0
100
AcDbLayout
  1
Model
 70
     1
 71
     0
 10
0.0
 20
0.0
 11
150.0
 21
95.0
 12
0.0
 22
0.0
 32
0.0
 14
0.0
 24
0.0
 34
0.0
 15
150.0
 25
95.0
 35
0.0
146
0.0
 13
0.0
 23
0.0
 33
0.0
 16
1.0
 26
0.0
 36
0.0
 17
0.0
 27
1.0
 37
0.0
 76
     0
330
1F
331
29
  0
MATERIAL
  5
3D
102
{ACAD_REACTORS
330
3B
102
}
330
3B
100
AcDbMaterial
  1
ByBlock
  0
MATERIAL
  5
3C
102
{ACAD_REACTORS
330
3B
102
}
330
3B
100
AcDbMaterial
  1
ByLayer
  0
MATERIAL
  5
3E
102
{ACAD_REACTORS
330
3B
102
}
330
3B
100
AcDbMaterial
  1
Global
  0
MLINESTYLE
  5
18
102
{ACAD_REACTORS
330
17
102
}
330
17
100
AcDbMlineStyle
  2
Standard
 70
     0
  3

 62
   256
 51
90.0
 52
90.0
 71
     2
 49
0.5
 62
   256
  6
BYLAYER
 49
-0.5
 62
   256
  6
BYLAYER
  0
ACDBPLACEHOLDER
  5
F
102
{ACAD_REACTORS
330
E
102
}
330
E
  0
ENDSEC
  0
EOF
